Files
Colins_Custom_Charts/03 VOCALOID/Realize/Realize.tja
T
2025-12-20 15:52:49 -05:00

313 lines
3.4 KiB
Plaintext

TITLE:Realize
SUBTITLE:--Hiiragi Magnetite feat. Miku Hatsune / Project SEKAI COLORFUL STAGE!
TITLEJA:リアライズ
SUBTITLEJA:柊マグネタイト feat. 初音ミク「プロジェクトセカイ カラフルステージ!」より
PREIMAGE:Realize.jpg
BGMOVIE:Realize.mp4
WAVE:Realize.ogg
BPM:150
OFFSET:-0.038
DEMOSTART:52.437
MAKER:Colin
COURSE:Easy
LEVEL:2
SCOREINIT:
SCOREDIFF:
NOTESDESIGNER0:Colin
#START
,
#GOGOSTART
1010,
1110,
2020,
2220,
1010,
1110,
2020,
222
#GOGOEND
0,
1010,
1,
1010,
1,
2020,
2,
2020,
2,
1010,
1,
1110,
1,
2020,
2220,
1010,
1111,
1010,
1110,
1010,
1110,
2020,
2220,
5,
0080,
#GOGOSTART
1010,
1110,
2020,
2220,
1020,
1011,
1010,
2020,
1110,
2220,
1020,
1011,
1020,
1010,
1110,
202
#GOGOEND
0,
#GOGOSTART
5,
8,
1011,
1,
2022,
2010,
1111,
100
#GOGOEND
2,
#END
COURSE:Normal
LEVEL:4
SCOREINIT:
SCOREDIFF:
NOTESDESIGNER1:Colin
#START
,
#GOGOSTART
10001011,
1110,
20002022,
2220,
10001011,
1110,
20002022,
222
#GOGOEND
0,
1010,
1110,
1010,
1,
2220,
2220,
2020,
20222000,
1011,
1010,
10111000,
1,
20222000,
20222000,
1010,
10111010,
1011,
1110,
1011,
10111010,
2022,
20222020,
5,
0080,
#GOGOSTART
10101011,
1110,
20202022,
2220,
1120,
10111010,
1010,
20002022,
1110,
20202022,
1220,
10101011,
1120,
1210,
10111010,
202
#GOGOEND
0,
#GOGOSTART
5,
8,
10111010,
1020,
20222020,
20001011,
1111,
111
#GOGOEND
2,
#END
COURSE:Hard
LEVEL:3
SCOREINIT:
SCOREDIFF:
NOTESDESIGNER2:Colin
#START
,
#GOGOSTART
2000002220020020,
0000100010010010,
2000002220020020,
00101120,
2000002220020020,
0000100010010010,
2000002220020020,
001011
#GOGOEND
20,
20012002,
20022001,
10022002,
20000022,
2002002000001010,
1001001000002020,
0000001020020020,
02221010,
10022002,
20021001,
10022002,
10000011,
2001001000002020,
2002002000002020,
0000001010010010,
01111010,
2000200020020020,
0020202020020020,
0010101010010010,
1001001000111000,
0010101020020010,
0020201020220020,
2001001000200020,
5080,
#GOGOSTART
2002001000200020,
2002002000200020,
1001002000100020,
1001002010000020,
10022001,
2002001020002000,
20025008,
20025008,
1001001000100020,
1002002000200010,
2001001000202020,
00022212,
2002001000202020,
0020022002000050,
00000082,
200200100000
#GOGOEND
1020,
#GOGOSTART
2000002220020020,
0000100010010010,
2000002220020020,
00101120,
2000002220020020,
0000100010010010,
2000002220020020,
001011
#GOGOEND
20,
#END
COURSE:Oni
LEVEL:8
BALLOON:12,12
SCOREINIT:
SCOREDIFF:
NOTESDESIGNER3:Colin
#START
0000000021201120,
#GOGOSTART
4010201220120120,
1020112220120120,
2010201220120120,
1020112220201120,
2010201220120120,
1020112220120120,
2010201220120120,
102011222022
#GOGOEND
2010,
2000102010110120,
1020102020101210,
1020102010110120,
1120102020102120,
2012012010111010,
2012012010202022,
1020102010120120,
2010202010212010,
2010201022120211,
1020112020102210,
2011201022120202,
1122202022101210,
1011011020112211,
2012012010221022,
1020102010210110,
1020201011012020,
2010201020110120,
2020201011021011,
2010102010110120,
2012012020222010,
2020101020120110,
2020201020120220,
2222222222222220,
7080,
#GOGOSTART
4012011010220120,
2012012022112020,
1011012011201020,
1011012020112020,
1021012020112010,
2012012020112010,
2022102010120110,
1012011022112010,
4012011010201120,
1012012011201020,
2021011010202022,
1020112021202010,
2012011020112020,
1022112011201020,
1120102010210120,
101202101020
#GOGOEND
1020,
#GOGOSTART
4010201220120120,
1020112220120120,
2010201220120120,
1020112220201120,
2010201220120120,
1020112220120120,
1222122212221222,
700082
#GOGOEND
10,
#END