Files
2026-06-22 19:41:02 +08:00

741 lines
7.3 KiB
Plaintext

// PeepoDrumKit 2025/09/12
TITLE:Dear Another Nova
SUBTITLE:暖@よみぃ
BPM:169
WAVE:dan.ogg
PREIMAGE:dan.png
OFFSET:-0.233
DEMOSTART:121.688
MAKER:cyanopica
COURSE:Oni
LEVEL:10
BALLOON:43
#START
#BPMCHANGE 185
#SCROLL 0.5
2,
2,
20000220,
20020000,
20200200,
20020200,
#BPMCHANGE 188
58,
4022,
#BPMCHANGE 184
40000022,
#BPMCHANGE 193
#SCROLL 0.475
20000022,
#BPMCHANGE 180
#SCROLL 0.5
2002,
2002,
#BPMCHANGE 175
2222,
2002,
2,
2002,
#BPMCHANGE 165
2022,
#BPMCHANGE 157
2222,
#BPMCHANGE 151
7,
08,
4,
,
#MEASURE 1/8
#BARLINEOFF
#BPMCHANGE 5.27
0,
#BPMCHANGE 169
#SCROLL 1.5
3,
#MEASURE 4/4
#BARLINEON
30
#SCROLL 1
22022022022022,
1022022022022022,
1222022212220222,
12212212102200
#SCROLL 1.5
30,
3
#SCROLL 1
2121212,
12121212,
1022102010221020,
1011201120210122,
#GOGOSTART
1102201011022010,
1122201011212212,
1122201021202010,
2012012011102122,
1102201011022011,
1122212111212212,
12121212,
11111110
#SCROLL 1.5
40040040,
#GOGOEND
#SCROLL 1
1000200220201011,
2011201120201010,
#GOGOSTART
1111212211221212,
1221221111222122,
1122122112221222,
1121122212222221,
1122212112122122,
1122212221121112,
#GOGOEND
10010010
#SCROLL 1.5
30030030,
30
#SCROLL 1
22122110210210,
1001001000221020,
1001001021001220,
1001001002102020,
1011001000012220,
1021011000112022,
1001001001222210,
1022102010201020,
5000801121222121,
1022102210202000,
1222102212021022,
1020102012021222,
1000001000112010,
1002002011221221,
1002002011212222,
1002002012212212,
1221221221221222,
#SCROLL 0.75
1,
2,
2,
2002,
2,
2,
2,
,
2,
2,
2,
2002,
#SCROLL 1
3000000030030030,
3344,
1021001000122020,
1122,
1000002210000010,
#SCROLL 1.5
400000000400000000400000
#SCROLL 1
102020202020100200200200,
#GOGOSTART
1102202011022020,
1102202011220222,
1102202011022020,
1222122211212222,
1202102012021020,
1202102212021120,
1202101212021022,
100100000100100000200200100100000100101010101010,
1222012201220122,
2112012201220122,
2112022221122121,
10221020
#SCROLL 2
330330
#SCROLL 1
22,
1122102012021020,
1111212220020020,
1211202121121022,
2221021210212222,
1222102012221020,
1222102011212212,
1222102022122121,
100000000100000000100000100000202020100100200200,
1202122212012022,
1122122111222121,
1011201120112011,
200000000200000000202020200100200200200100200200,
#GOGOEND
1120
#GOGOSTART
220220220222,
1122212220220220,
100100200000200200000200202020202020100200200200,
100000200100000200100000100200200200102020202020,
100000100202020200200000100200200200200100100000,
1221022211221222,
1001001010010010,
#GOGOEND
100000100100100000100100202020201010102020201010,
#GOGOSTART
1111222221121211,
2221222122212221,
1112212211212212,
20200200200200202020102020101010,
2122122112221122,
2221222122212221,
100020002000200010002000200100100200101010101010,
100
#SCROLL 1.2
300
#SCROLL 1.4
300
#SCROLL 1.6
300
#SCROLL 2
3000,
#GOGOEND
#SCROLL 1
1022002000200200,
2002002002002222,
2020200200200200,
2002002002002002,
2220202202202202,
2002002022002220,
2202202002022020,
2022202222222222,
2,
0002,
,
#BARLINEOFF
0,
,
#END
COURSE:Hard
LEVEL:8
BALLOON:24
#START
#BPMCHANGE 185
#SCROLL 0.5
2,
2,
2,
2,
2,
20000200,
#BPMCHANGE 188
58,
4,
#BPMCHANGE 184
4,
#BPMCHANGE 193
#SCROLL 0.475
2,
#BPMCHANGE 180
#SCROLL 0.5
2,
2,
#BPMCHANGE 175
22,
2,
2,
,
#BPMCHANGE 165
2,
#BPMCHANGE 157
22,
#BPMCHANGE 151
7,
08,
4,
,
#MEASURE 1/8
#BARLINEOFF
#BPMCHANGE 5.27
0,
#BPMCHANGE 169
#SCROLL 1
3,
#MEASURE 4/4
#BARLINEON
3020020020020020,
1020020020020020,
1022002010220020,
1022022010020030,
32101210,
12101210,
12121212,
1011101010000220,
#GOGOSTART
2022200010222000,
1022200011202000,
1022200022202000,
1011011010002010,
1022200010222000,
1111200011112000,
12101210,
1110111040040040,
#GOGOEND
10002002,
1222,
#GOGOSTART
1110111022202220,
1120222011202010,
1120112022102210,
1120112010202010,
1110222011022010,
1110222011022010,
#GOGOEND
1001000030030000,
3020102010010000,
1002,
10010020,
10010000,
10010000,
10010020,
10010000,
1212,
5000801110111000,
12121110,
1020102010010010,
1020102010020020,
10010022,
10010022,
10010122,
10010222,
1001001001001000,
1,
,
2,
0002,
2,
,
2,
,
4,
,
4,
0004,
33,
3340,
10010020,
1122,
11,
4000004000220220,
#GOGOSTART
1102001011020010,
1002002011101000,
1002001010020010,
1110222010202000,
1102001011020010,
1002001010111000,
1102001011020010,
1011102220020020,
1020102010201022,
1020102010201022,
1020102010201022,
1001001011011020,
1110200011011000,
1110200020020000,
1010200011102000,
2202022020002010,
1110200011102000,
2220200010010010,
2220200020020020,
1001001010002220,
1010200011102000,
1010222011102000,
11111111,
2002002020020020,
#GOGOEND
0000
#GOGOSTART
220220220220,
0000220220220220,
0000220220220220,
1001001010222020,
1022202010222020,
1102022010102020,
1001000010010000,
#GOGOEND
1011101050000080,
#GOGOSTART
12121212,
1022202220222020,
12121212,
1022202022022020,
12121212,
1022202220222020,
100000002000000020000000100100100000100100100000,
3003003003003000,
#GOGOEND
1,
2,
2,
2002,
2,
2,
2002000000002000,
2002000000002000,
2,
0002,
,
#BARLINEOFF
0,
,
#END
COURSE:Normal
LEVEL:7
BALLOON:12
#START
#BPMCHANGE 185
#SCROLL 0.5
2,
2,
2,
2,
2,
2,
#BPMCHANGE 188
58,
4,
#BPMCHANGE 184
4,
#BPMCHANGE 193
#SCROLL 0.475
0,
#BPMCHANGE 180
#SCROLL 0.5
2,
,
#BPMCHANGE 175
2,
2,
2,
,
#BPMCHANGE 165
2,
#BPMCHANGE 157
2,
#BPMCHANGE 151
7,
08,
4,
,
#MEASURE 1/8
#BARLINEOFF
#BPMCHANGE 5.27
0,
#BPMCHANGE 169
#SCROLL 1
0,
#MEASURE 4/4
#BARLINEON
3020020020000020,
1020020020000000,
1002002010020020,
1002002010000000,
3111,
1111,
11101110,
1010101010010010,
#GOGOSTART
11201220,
12201120,
12202220,
1001001010000010,
12201220,
11201120,
1111,
1010100040040040,
#GOGOEND
12,
1220,
#GOGOSTART
1122,
11201120,
11202210,
11111020,
1212,
1010200010020010,
#GOGOEND
1001000030030000,
10111000,
1,
10010000,
1,
1,
1,
10010000,
11,
50811110,
10101110,
1000100010010010,
1000100020020000,
1002,
10010000,
10010000,
10010020,
1001001000000000,
1,
,
2,
,
2,
,
,
,
4,
,
4,
,
3,
34,
1002,
12,
11,
4000004000200200,
#GOGOSTART
1002001010020010,
1002002010001000,
1002001010020010,
10222000,
1002001010020010,
1002001010002000,
1002000010010000,
1001002020000000,
1111,
10101022,
2222,
1001001010000000,
11201120,
1000200000020000,
1112,
2002002020002000,
1112,
2211,
2000200020020020,
10101022,
1112,
1212,
1111,
2002000020020000,
#GOGOEND
0000
#GOGOSTART
200020020020,
0000200020020020,
0000200020020020,
1001001010000000,
1212,
2002001010002000,
1001000010010000,
#GOGOEND
1001001050000080,
#GOGOSTART
1111,
10202220,
1111,
10222220,
1111,
10222020,
10201110,
30030030,
#GOGOEND
1,
,
2,
,
2,
,
2,
2,
2,
0002,
,
#BARLINEOFF
0,
,
#END
COURSE:Easy
LEVEL:5
BALLOON:8
#START
#BPMCHANGE 185
#SCROLL 0.5
2,
,
2,
,
2,
,
#BPMCHANGE 188
58,
,
#BPMCHANGE 184
4,
#BPMCHANGE 193
#SCROLL 0.475
0,
#BPMCHANGE 180
#SCROLL 0.5
2,
,
#BPMCHANGE 175
2,
,
2,
,
#BPMCHANGE 165
2,
#BPMCHANGE 157
2,
#BPMCHANGE 151
7,
08,
4,
,
#MEASURE 1/8
#BARLINEOFF
#BPMCHANGE 5.27
0,
#BPMCHANGE 169
#SCROLL 1
0,
#MEASURE 4/4
#BARLINEON
3,
1,
11,
11,
3110,
1110,
1111,
1110,
#GOGOSTART
1210,
1210,
12,
11,
1210,
1210,
11,
12,
#GOGOEND
1,
12,
#GOGOSTART
1122,
1120,
1121,
1120,
1212,
1210,
#GOGOEND
13,
1,
1,
1,
1,
,
1,
1,
1,
5811,
11,
1120,
12,
1002,
1,
1,
10010020,
10010000,
1,
,
2,
,
2,
,
,
,
4,
,
,
,
3,
3,
1002,
1,
11,
40040020,
#GOGOSTART
11,
1210,
11,
1220,
1111,
1012,
11,
1220,
1111,
1122,
2222,
1100,
1212,
1200,
11,
2022,
1110,
2220,
2220,
1110,
1112,
1110,
11,
22,
#GOGOEND
0
#GOGOSTART
220,
0220,
0220,
11,
1212,
2210,
11,
#GOGOEND
10105008,
#GOGOSTART
1110,
2220,
1110,
2220,
1110,
2220,
1210,
3003,
#GOGOEND
1,
,
2,
,
2,
,
2,
,
2,
0002,
,
#BARLINEOFF
0,
,
#END