Files
2026-04-04 15:46:09 +01:00

773 lines
7.8 KiB
Plaintext

TITLE:7thSense
SUBTITLE:Sakuzyo
SUBTITLEJA:削除
BPM:150
WAVE:7thSense.ogg
PREIMAGE:7thSense.png
OFFSET:-1.990
DEMOSTART:81.789
MAKER:bol
COURSE:Oni
LEVEL:10
BALLOON:17,777,17,1,2,3,4,5,6,7
SCOREINIT:1130
SCOREDIFF:0
#START
#MEASURE 1/16
#SCROLL 7
7,
#SCROLL 6
,
#SCROLL 5.5
,
#SCROLL 5
,
#SCROLL 4.5
,
#SCROLL 4
,
#SCROLL 3.5
,
#SCROLL 3
,
#SCROLL 2.5
,
#SCROLL 2.4
,
#SCROLL 2.3
,
#SCROLL 2.2
,
#SCROLL 2.1
,
#SCROLL 2
,
#SCROLL 1.9
,
#SCROLL 1.8
,
#MEASURE 1/4
#SCROLL 1.7
8,
#SCROLL 1.4
,
#SCROLL 1.2
,
#MEASURE 2/4
#SCROLL 1
2,
2,
2,
22,
02,
02,
02,
#MEASURE 7/4
12010101020110,
12010101020110,
12010101020110,
100000200000000000100000000000100000000000100000000000200000000000100100102020202020,
1011201000221022102010201011,
1012102000200020002000201011,
1011201000212022102010201000,
222000000000100100200000000000200000000000200000000000200000100000200000102020202020,
#MEASURE 1/4
,
,
,
#MEASURE 7/4
10
#SCROLL 1.15
20
#SCROLL 1
1
#SCROLL 1.15
200
#SCROLL 1
100
#SCROLL 1.15
2
#SCROLL 1
1
#SCROLL 1.15
202
#SCROLL 1
10
#SCROLL 1.15
20
#SCROLL 1
1
#SCROLL 1.15
200
#SCROLL 1
101
#SCROLL 1.15
2,
#SCROLL 1
10
#SCROLL 1.15
20
#SCROLL 1
1
#SCROLL 1.15
200
#SCROLL 1
100
#SCROLL 1.15
2
#SCROLL 1
1
#SCROLL 1.15
202
#SCROLL 1
10
#SCROLL 1.15
20
#SCROLL 1
1
#SCROLL 1.15
200
#SCROLL 1
101
#SCROLL 1.15
2,
#SCROLL 1
10
#SCROLL 1.15
20
#SCROLL 1
1
#SCROLL 1.15
200
#SCROLL 1
100
#SCROLL 1.15
2
#SCROLL 1
1
#SCROLL 1.15
202
#SCROLL 1
10
#SCROLL 1.15
20
#SCROLL 1
1
#SCROLL 1.15
200
#SCROLL 1
101
#SCROLL 1.15
2,
#SCROLL 1
10
#SCROLL 1.15
20
#SCROLL 1
1
#SCROLL 1.15
200
#SCROLL 1
100
#SCROLL 1.15
2
#SCROLL 1
1
#SCROLL 1.15
202
#SCROLL 1
102021020212,
10
#SCROLL 1.15
20
#SCROLL 1
1
#SCROLL 1.15
20
#SCROLL 1
1
#SCROLL 1.15
2
#SCROLL 1
10
#SCROLL 1.15
2
#SCROLL 1
1
#SCROLL 1.15
202
#SCROLL 1
10
#SCROLL 1.15
20
#SCROLL 1
1
#SCROLL 1.15
2
#SCROLL 1
11
#SCROLL 1.15
2
#SCROLL 1
11
#SCROLL 1.15
2,
#SCROLL 1
10
#SCROLL 1.15
20
#SCROLL 1
1
#SCROLL 1.15
20
#SCROLL 1
1
#SCROLL 1.15
2
#SCROLL 1
10
#SCROLL 1.15
2
#SCROLL 1
1
#SCROLL 1.15
202
#SCROLL 1
10
#SCROLL 1.15
20
#SCROLL 1
1
#SCROLL 1.15
2
#SCROLL 1
11
#SCROLL 1.15
2
#SCROLL 1
11
#SCROLL 1.15
2,
#SCROLL 1
10
#SCROLL 1.15
20
#SCROLL 1
1
#SCROLL 1.15
20
#SCROLL 1
1
#SCROLL 1.15
2
#SCROLL 1
11
#SCROLL 1.15
2
#SCROLL 1
1
#SCROLL 1.15
2
#SCROLL 1
1
#SCROLL 1.15
2
#SCROLL 1
10
#SCROLL 1.15
20
#SCROLL 1
1
#SCROLL 1.15
2
#SCROLL 1
11
#SCROLL 1.15
2
#SCROLL 1
11
#SCROLL 1.15
2,
#SCROLL 1
10
#SCROLL 1.15
20
#SCROLL 1
1
#SCROLL 1.15
20
#SCROLL 1
1
#SCROLL 1.15
2
#SCROLL 1
11
#SCROLL 1.15
2
#SCROLL 1
1
#SCROLL 1.15
2
#SCROLL 1
1
#SCROLL 1.15
2
#SCROLL 1
102012112112,
#MEASURE 5/4
#SCROLL 1.33
30040030040010201112,
3000004000003000004000001000200021002100,
30040040403040112210,
4000112000004000004000004000100010102020,
3000004000003000004000001000200010102100,
4000101040001000400000104000100021002100,
300000000000100100100100200000000000300000000000400000004000000040000000400000000000300000000000200000000000100000000000,
2020102000001020201000002000122210000000,
#MEASURE 3/4
#SCROLL 1
112120112120,
122120122120,
112110122210,
102120112122,
112120122120,
212220112122,
7,
#MEASURE 1/128
#BPMCHANGE 2.34375
#SCROLL 64
8,
#BARLINEOFF
#BPMCHANGE 150
#MEASURE 3/8
#SCROLL 1
101010200200200200,
#GOGOSTART
#BARLINEON
#BPMCHANGE 150
#MEASURE 7/4
1011201021222010112010112220,
1011201210221010112211221212,
1211221211221012112212112220,
1112221112221112221112221122,
1011201021222010112010112220,
#BPMCHANGE 200
#MEASURE 3/4
334,
#BARLINEOFF
443,
343,
#BPMCHANGE 150
#MEASURE 3/8
#SCROLL 1.333
40
#SCROLL 1
1122,
#BARLINEON
#MEASURE 7/4
1011201011212270000000008000,
70008
#SCROLL 2
70008
#SCROLL 3
70008
#SCROLL 4
70008
#SCROLL 5
70008
#SCROLL 6
70008
#SCROLL 7
70008,
#GOGOEND
#SCROLL 1
#MEASURE 2/4
2101,
2101,
2101,
2021,
2101,
2101,
2120,
2101,
2101,
2101,
2021,
2101,
2101,
20121122,
#MEASURE 7/4
2011102012101020111020121122,
2011102012101020111020121122,
2011102012101020111020121122,
1021021020121210201120121122,
,
#END
COURSE:Hard
LEVEL:7
BALLOON:
SCOREINIT:2040
SCOREDIFF:0
#START
#MEASURE 4/4
#SCROLL 7
,
#MEASURE 1/4
#SCROLL 1.7
,
#SCROLL 1.4
,
#SCROLL 1.2
,
#MEASURE 7/4
#SCROLL 1
2020202,
2020202,
12010101020110,
12010101020110,
12010101020110,
12010101020110,
11210212121211,
11120202020211,
11210222121210,
20120202021212,
#MEASURE 3/4
,
#MEASURE 7/4
1020100010020010002010001020,
1020100010020010002010001020,
1020100010020010002010001020,
1020100010020010000000000000,
1020120020020020002020002011,
1020120020020020002020002011,
1020120020020020002020002011,
1020120020020020002020000000,
#MEASURE 5/4
30040030040030300000,
30040030040030300000,
30040040101020201020,
20120020020020105080,
30040030040030300000,
4021404100,
100100200100202020200100200100,
20020020020020000000,
#MEASURE 3/4
#SCROLL 1
100220100220,
100220101020,
112112,
100220102000,
100220100220,
100220101020,
5,
#MEASURE 1/128
#BPMCHANGE 2.34375
#SCROLL 64
8,
#BARLINEOFF
#BPMCHANGE 150
#MEASURE 3/8
#SCROLL 1
022,
#GOGOSTART
#BARLINEON
#BPMCHANGE 150
#MEASURE 7/4
10102221010212,
1000100120202010001000201020,
11211211121122,
1002001002001002001002002000,
10102221010212,
#BPMCHANGE 200
#MEASURE 3/4
#SCROLL 0.75
334,
#BARLINEOFF
443,
343,
#BPMCHANGE 150
#MEASURE 3/8
#SCROLL 1
440,
#BARLINEON
#MEASURE 7/4
10210225000080,
1111333,
#GOGOEND
12010201020110,
12010201020110,
12010201020110,
1020001000200010002000102220,
12010201020110,
12010201020110,
12010201020110,
3003003000303030003000302222,
,
#END
COURSE:Normal
LEVEL:7
BALLOON:
SCOREINIT:2330
SCOREDIFF:0
#START
#MEASURE 4/4
#SCROLL 7
,
#MEASURE 1/4
#SCROLL 1.7
,
#SCROLL 1.4
,
#SCROLL 1.2
,
#MEASURE 7/4
#SCROLL 1
2020202,
2020202,
12010101020110,
12010101020110,
12010101020110,
12010101020110,
11010212121211,
10120202020211,
11010222020210,
20120202020212,
#MEASURE 3/4
,
#MEASURE 7/4
1020100010020010002010001020,
1020100010020010002010001020,
1020100010020010002010001020,
1020100010020010000000000000,
1020100020020020002020002010,
1020100020020020002020002010,
1020100020020020002020002010,
1020100020020020002020000000,
#MEASURE 5/4
30030030030030300000,
30030030030030300000,
30030030101010101010,
20020020020020100000,
30030030030030300000,
2021202100,
100000100100202020200000100100,
20020020020020000000,
#MEASURE 3/4
#SCROLL 1
12,
101200,
112112,
101220,
12,
101222,
5,
#MEASURE 1/128
#BPMCHANGE 2.34375
#SCROLL 64
8,
#BARLINEOFF
#BPMCHANGE 150
#MEASURE 3/8
#SCROLL 1
,
#GOGOSTART
#BARLINEON
#BPMCHANGE 150
#MEASURE 7/4
10102221010212,
10102221010212,
11011102202220,
1002001002001002001002002000,
10102221010212,
#BPMCHANGE 200
#MEASURE 3/4
#SCROLL 0.75
333,
#BARLINEOFF
444,
333,
#BPMCHANGE 150
#MEASURE 3/8
#SCROLL 1
440,
#BARLINEON
#MEASURE 7/4
10210225000080,
1111222,
#GOGOEND
12010201020110,
12010201020110,
12010201020110,
12010201020120,
12010201020120,
12010201020120,
12010201020120,
1001001000101010001000102020,
,
#END
COURSE:Easy
LEVEL:4
BALLOON:
SCOREINIT:3450
SCOREDIFF:0
#START
#MEASURE 4/4
#SCROLL 7
,
#MEASURE 1/4
#SCROLL 1.7
,
#SCROLL 1.4
,
#SCROLL 1.2
,
#MEASURE 7/4
#SCROLL 1
2020202,
0202020,
22010101020100,
22010101020100,
22010101020100,
22010101020100,
10000202020100,
10000202020100,
10000222000100,
10000202020200,
#MEASURE 3/4
,
#MEASURE 7/4
1111111,
1111111,
1111111,
1111100,
1212121,
1212121,
1212121,
1212100,
#MEASURE 5/4
3003003000,
3003003000,
3003030100,
2002002000,
3003003000,
30330,
3030300200,
2002002000,
#MEASURE 3/4
#SCROLL 1
12,
12,
12,
12,
12,
12,
5,
#MEASURE 1/128
#BPMCHANGE 2.34375
#SCROLL 64
8,
#BARLINEOFF
#BPMCHANGE 150
#MEASURE 3/8
#SCROLL 1
,
#GOGOSTART
#BARLINEON
#BPMCHANGE 150
#MEASURE 7/4
10102001010200,
10102001010200,
10101002020200,
1002001002001002001002000000,
10102001010200,
#BPMCHANGE 200
#MEASURE 3/4
#SCROLL 0.75
333,
#BARLINEOFF
444,
333,
#BPMCHANGE 150
#MEASURE 3/8
#SCROLL 1
440,
#BARLINEON
#MEASURE 7/4
10210205000080,
1111111,
#GOGOEND
2020202,
0202020,
2020202,
0202020,
22010101020100,
22010101020100,
22010101020100,
10010001000222,
,
#END