Files
2025-04-13 14:20:35 -04:00

393 lines
5.8 KiB
Plaintext

// PeepoDrumKit 2023/10/28
TITLE:Sleigh Ride
TITLEJA:Sleigh Ride
SUBTITLE:Shugo Tokumaru
SUBTITLEJA:トクマルシューゴ
BPM:141
WAVE:Sleigh Ride.ogg
PREIMAGE:Sleigh Ride.jpg
OFFSET:-3.685
DEMOSTART:10.466
MAKER:DragonRatTiger & Komi
COURSE:Oni
LEVEL:3
BALLOON:80
SCOREINIT:
SCOREDIFF:
NOTESDESIGNER3:DragonRatTiger
#START
,
,
,
#BPMCHANGE 144
0000
#BPMCHANGE 139
42
#BPMCHANGE 141
22,
#BPMCHANGE 142
2020222020202220,
20000222,
2020222020202220,
#BPMCHANGE 140
20000222,
#BPMCHANGE 142
2020222020202220,
20000222,
2020222020222220,
#BPMCHANGE 139
2000000000000022,
#BPMCHANGE 141
2022202220202000,
#BPMCHANGE 142.5
2020222020002000,
2020222220202020,
#BPMCHANGE 140.5
2000200020002022,
2022202220202000,
#BPMCHANGE 142
2020222020002000,
2020222020202220,
42424222,
#GOGOSTART
#BPMCHANGE 143
2020222020202220,
20000222,
2020222020222220,
#BPMCHANGE 140
20000222,
#BPMCHANGE 141.5
2020222020202220,
20000222,
2020222020222220,
#BPMCHANGE 140.5
9,
,
,
#MEASURE 3/4
000,
#MEASURE 4/4
#GOGOEND
8,
#SCROLL 0.85
0,
#SCROLL 0.7
0,
#SCROLL 0.55
0,
#SCROLL 0.5
0,
#END
COURSE:Hard
LEVEL:4
BALLOON:60
SCOREINIT:
SCOREDIFF:
NOTESDESIGNER2:DragonRatTiger
#START
,
,
,
#BPMCHANGE 144
00
#BPMCHANGE 139
4
#BPMCHANGE 141
0,
#BPMCHANGE 142
22202220,
2002,
22202220,
#BPMCHANGE 140
20000222,
#BPMCHANGE 142
22202220,
2002,
22202220,
#BPMCHANGE 139
2000000000000022,
#BPMCHANGE 141
2022200020202000,
#BPMCHANGE 142.5
2022202020000000,
0020222020002020,
#BPMCHANGE 140.5
2000000000000022,
2022200020202000,
#BPMCHANGE 142
0020222020000000,
22202220,
4440,
#GOGOSTART
#BPMCHANGE 143
22202220,
2002,
22202220,
#BPMCHANGE 140
20000222,
#BPMCHANGE 141.5
22202220,
2002,
22202220,
#BPMCHANGE 140.5
9,
,
,
#MEASURE 3/4
000,
#MEASURE 4/4
#GOGOEND
8,
#SCROLL 0.85
0,
#SCROLL 0.7
0,
#SCROLL 0.55
0,
#SCROLL 0.5
0,
#END
COURSE:Normal
LEVEL:2
BALLOON:45
SCOREINIT:
SCOREDIFF:
NOTESDESIGNER1:DragonRatTiger
#START
,
,
,
#BPMCHANGE 144
00
#BPMCHANGE 139
4
#BPMCHANGE 141
0,
#BPMCHANGE 142
2222,
2,
2222,
#BPMCHANGE 140
2002,
#BPMCHANGE 142
2222,
2,
2222,
#BPMCHANGE 139
2,
#BPMCHANGE 141
20202220,
#BPMCHANGE 142.5
0220,
20002022,
#BPMCHANGE 140.5
2020,
20202220,
#BPMCHANGE 142
0220,
2222,
4440,
#GOGOSTART
#BPMCHANGE 143
2222,
2,
2222,
#BPMCHANGE 140
2002,
#BPMCHANGE 141.5
2222,
2,
2222,
#BPMCHANGE 140.5
9,
,
,
#MEASURE 3/4
000,
#MEASURE 4/4
#GOGOEND
8,
#SCROLL 0.85
0,
#SCROLL 0.7
0,
#SCROLL 0.55
0,
#SCROLL 0.5
0,
#END
COURSE:Easy
LEVEL:1
BALLOON:35
SCOREINIT:
SCOREDIFF:
NOTESDESIGNER0:DragonRatTiger
#START
,
,
,
#BPMCHANGE 144
00
#BPMCHANGE 139
4
#BPMCHANGE 141
0,
#BPMCHANGE 142
2020,
2,
2020,
#BPMCHANGE 140
2,
#BPMCHANGE 142
2020,
2,
2020,
#BPMCHANGE 139
2,
#BPMCHANGE 141
2020,
#BPMCHANGE 142.5
0020,
0020,
#BPMCHANGE 140.5
2,
2020,
#BPMCHANGE 142
0020,
2020,
4,
#GOGOSTART
#BPMCHANGE 143
2020,
2,
2020,
#BPMCHANGE 140
2,
#BPMCHANGE 141.5
2020,
2,
2020,
#BPMCHANGE 140.5
9,
,
,
#MEASURE 3/4
000,
#MEASURE 4/4
#GOGOEND
8,
#SCROLL 0.85
0,
#SCROLL 0.7
0,
#SCROLL 0.55
0,
#SCROLL 0.5
0,
#END
COURSE:Edit
LEVEL:10.0
BALLOON:3,3,3,3,3,3,3,3,3,3
SCOREINIT:
SCOREDIFF:
NOTESDESIGNER4:Komi
#START
#HBSCROLL
0,
,
,
#BPMCHANGE 144
000000000000000000000222
#BPMCHANGE 139
200000200000
#BPMCHANGE 141
200000200000,
#BPMCHANGE 142
2020222020202220,
20000000200020000000200000002000200000002000000000200000000020000000002000020000,
200000200000200200202020200000200200200200200000,
#BPMCHANGE 140
2000202000200020200020000200002000020000,
#BPMCHANGE 142
2020222020202220,
20000000200020000000200000002000200000002000000000200000000020000000002000020000,
200000200000200200202020200000200200200200200000,
#BPMCHANGE 139
200000000000200000200000000000200000000000200000200000000000200000000000000200000000000000200000000000000200002000020000,
#BPMCHANGE 141
200000200200200000202020200000200200200000200000,
#BPMCHANGE 142.5
200000000000000200000000000000200002000020000200000000000000200000000000200000200000000000200000000000200000200000000000,
200000200000202020200200200000202000202000202000,
#BPMCHANGE 140.5
200000000000200000200000000000200000000000200000200000000000200000000000200000200000000000200000000000000200002000020000,
200000200200200000202020200000200200200000200000,
#BPMCHANGE 142
200000000000000200000000000000200002000020000200000000000000200000000000200000200000000000200000000000200000200000000000,
200000200000202020200200200200202020200200200200,
2000000000000000000000002000000020000000200000002000000020000000000000000000000000002000000200000020000002000000
#SCROLL 1
2000000000000000000000000000
#SCROLL 1.25
2000000000000000000000000000
#SCROLL 1.5
4000000000000000000000000000
#SCROLL 1.75
2000000000000000000000000000,
#GOGOSTART
#BPMCHANGE 143
#SCROLL 2
40002000222020002000200020222000,
2000000000000000200000002000000000000000200000000000000020000000200000000000000020000000000000000000200000000000000000002000000000000000000020000200002000000000,
200000000000200000000000200000200000200020002000200000000000200000200200200000200000200000000000,
#BPMCHANGE 140
2000202000200020200020000200002000020000,
#BPMCHANGE 141.5
20002000222020002000200020222000,
2000000000000000200000002000000000000000200000000000000020000000200000000000000020000000000000000000200000000000000000002000000000000000000020000000002000020000,
200000000000200000000000200000200000200020002000200000000000200000200200200000200000200000000000,
#BPMCHANGE 140.5
2000000000000000200000002000000000000000200000000000000000002000000000200002000020000000000000000000200000000000000000002000000000000000000020000000002000020000,
200000200000200000000000200000200200200000200000200000000000200200200200200000000000200020002000,
20002220222020002020222020002222,
#MEASURE 3/4
202022222020222220002000,
#MEASURE 4/4
#GOGOEND
#SCROLL 2
D
#BARLINEOFF
00080
#SCROLL 3
D00080
#SCROLL 2.5
D00080
#SCROLL 1.8
D00080,
#SCROLL 2.1
D00080
#SCROLL 2.7
D00080000
#SCROLL 0.8
D00080
#SCROLL 3
D00,
080
#SCROLL 1.4
D00080000
#SCROLL 2
D00080000000,
,
,
#END