generated from DragonRatTiger/Custom-Charts
296 lines
3.2 KiB
Plaintext
296 lines
3.2 KiB
Plaintext
// PeepoDrumKit 2022/09/10
|
|
TITLE:Kago no Tori
|
|
TITLEJA:駕篭の鳥
|
|
SUBTITLE:--Naya~n Koukyougakudan with Sakamoto Raikou / From "pop'n music 15 ADVENTURE"
|
|
SUBTITLEJA:Naya~n交響楽団 with 坂本頼光 / 「pop'n music 15 ADVENTURE」より
|
|
BPM:136
|
|
WAVE:Kago no Tori.ogg
|
|
OFFSET:-0.496
|
|
DEMOSTART:0.496
|
|
MAKER:DragonRatTiger
|
|
LYRICS:Kago no Tori.vtt
|
|
|
|
COURSE:Oni
|
|
LEVEL:7
|
|
BALLOON:8,38
|
|
SCOREINIT:
|
|
SCOREDIFF:
|
|
|
|
#START
|
|
1022102010000020,
|
|
1121102010001000,
|
|
1022102010002220,
|
|
2012221020002010,
|
|
102101202101,
|
|
201202101201,
|
|
201212201202,
|
|
200020001000200000002000100010002000000000200200,
|
|
1010102110101021,
|
|
2010102110102011,
|
|
2222111122221110,
|
|
2222111122221110,
|
|
2222111122221110,
|
|
2222111122221110,
|
|
1021102010112000,
|
|
1011201012201000,
|
|
2010211021101000,
|
|
202101101201,
|
|
101202101101,
|
|
201202101102,
|
|
100000001000100000001000200000002000200000200200,
|
|
2000221020101020,
|
|
0020102011202000,
|
|
1120200011202000,
|
|
2022112010001000,
|
|
2111202020221021,
|
|
1000112020002211,
|
|
#GOGOSTART
|
|
500
|
|
#GOGOEND
|
|
8,
|
|
101120101220,
|
|
100020202000700000000800,
|
|
#GOGOSTART
|
|
5000801120001110,
|
|
101101202202,
|
|
5000801120001111,
|
|
101101202202,
|
|
5000802210002000,
|
|
5000802110002000,
|
|
#GOGOEND
|
|
111001100000,
|
|
111001100000,
|
|
111001100110,
|
|
00300300,
|
|
302102101202,
|
|
101201202111,
|
|
201201202102,
|
|
100122122112,
|
|
2210102211202210,
|
|
1011211010002022,
|
|
1021101020001000,
|
|
2022112120001010,
|
|
2022102210221021,
|
|
1021102110001000,
|
|
2211200020002000,
|
|
2111200020002000,
|
|
#GOGOSTART
|
|
9,
|
|
,
|
|
#GOGOEND
|
|
8,
|
|
#END
|
|
|
|
COURSE:Hard
|
|
LEVEL:6
|
|
BALLOON:6,30
|
|
SCOREINIT:
|
|
SCOREDIFF:
|
|
|
|
#START
|
|
10122002,
|
|
10112000,
|
|
10122002,
|
|
10222020,
|
|
101102201102,
|
|
202201102202,
|
|
201101102202,
|
|
200020200010100000000200,
|
|
21122112,
|
|
21122110,
|
|
1000100011101000,
|
|
1000100011101000,
|
|
1000100011101000,
|
|
1000100011101000,
|
|
10201120,
|
|
10101220,
|
|
2120,
|
|
202201102201,
|
|
102202201102,
|
|
201101102202,
|
|
201102202200,
|
|
2021,
|
|
02111220,
|
|
1212,
|
|
20101111,
|
|
2020202020202220,
|
|
00102021,
|
|
#GOGOSTART
|
|
500
|
|
#GOGOEND
|
|
8,
|
|
101110101110,
|
|
100010101000700000000800,
|
|
#GOGOSTART
|
|
50803011,
|
|
101102202202,
|
|
50803001,
|
|
101101102202,
|
|
5841,
|
|
5841,
|
|
#GOGOEND
|
|
111001100000,
|
|
111001100000,
|
|
111001100110,
|
|
00300300,
|
|
301101102201,
|
|
102202200002,
|
|
202202201101,
|
|
1001,
|
|
1110100022202000,
|
|
11011020,
|
|
2220200011101000,
|
|
22022010,
|
|
2222,
|
|
1110,
|
|
2220100020002000,
|
|
1110100020002000,
|
|
#GOGOSTART
|
|
9,
|
|
,
|
|
#GOGOEND
|
|
8,
|
|
#END
|
|
|
|
COURSE:Normal
|
|
LEVEL:5
|
|
BALLOON:4,22
|
|
SCOREINIT:
|
|
SCOREDIFF:
|
|
|
|
#START
|
|
10222000,
|
|
10111000,
|
|
10222000,
|
|
10222000,
|
|
1122,
|
|
1122,
|
|
1122,
|
|
1110,
|
|
2121,
|
|
2120,
|
|
10101110,
|
|
10101110,
|
|
10101110,
|
|
1110,
|
|
10201110,
|
|
10201110,
|
|
2020,
|
|
2211,
|
|
2211,
|
|
2211,
|
|
2222,
|
|
2021,
|
|
0110,
|
|
1010,
|
|
1122,
|
|
20202222,
|
|
00102021,
|
|
#GOGOSTART
|
|
500
|
|
#GOGOEND
|
|
8,
|
|
101000101000,
|
|
100010000000700000000800,
|
|
#GOGOSTART
|
|
50803011,
|
|
1122,
|
|
50803001,
|
|
1112,
|
|
5841,
|
|
5841,
|
|
#GOGOEND
|
|
101000100000,
|
|
101000100000,
|
|
101000100000,
|
|
00300300,
|
|
3112,
|
|
1220,
|
|
2221,
|
|
1001,
|
|
11102220,
|
|
11011000,
|
|
22201110,
|
|
22022000,
|
|
2222,
|
|
1110,
|
|
11102020,
|
|
11102020,
|
|
#GOGOSTART
|
|
9,
|
|
,
|
|
#GOGOEND
|
|
8,
|
|
#END
|
|
|
|
COURSE:Easy
|
|
LEVEL:3
|
|
BALLOON:8,2,14
|
|
SCOREINIT:
|
|
SCOREDIFF:
|
|
|
|
#START
|
|
1110,
|
|
2020,
|
|
1110,
|
|
2220,
|
|
1010,
|
|
1010,
|
|
1010,
|
|
2020,
|
|
2222,
|
|
2220,
|
|
50000800,
|
|
50000800,
|
|
50000800,
|
|
50000800,
|
|
1110,
|
|
2220,
|
|
1110,
|
|
1010,
|
|
1010,
|
|
1010,
|
|
1,
|
|
2022,
|
|
0220,
|
|
1010,
|
|
1170,
|
|
00000008,
|
|
,
|
|
#GOGOSTART
|
|
500
|
|
#GOGOEND
|
|
8,
|
|
3030,
|
|
30007008,
|
|
#GOGOSTART
|
|
5830,
|
|
1010,
|
|
5830,
|
|
1010,
|
|
5840,
|
|
5840,
|
|
#GOGOEND
|
|
5008,
|
|
5008,
|
|
5008,
|
|
,
|
|
1111,
|
|
2220,
|
|
2222,
|
|
2,
|
|
1020,
|
|
1,
|
|
2010,
|
|
2,
|
|
2220,
|
|
1110,
|
|
1020,
|
|
1122,
|
|
#GOGOSTART
|
|
9,
|
|
,
|
|
#GOGOEND
|
|
8,
|
|
#END
|