Files
2025-04-13 14:20:35 -04:00

588 lines
6.6 KiB
Plaintext

TITLE:White : Revolve
SUBTITLE:--adaptor/RAVON
BPM:143
WAVE:White Revolve.ogg
OFFSET:-1.427
DEMOSTART:28.228
MAKER:DiamondN1nja, DragonRatTiger
COURSE:Edit
LEVEL:9
BALLOON:1,1,1,1,1,1,1,1
SCOREINIT:570
SCOREDIFF:40
NOTESDESIGNER4:DragonRatTiger
#START
1002002002002002,
0020020020020020,
1002002002002002,
0020020020020020,
1002002002002002,
0020020020020020,
1002002002002002,
0020020020020020,
1002102012001002,
1020120010021020,
1002102012001002,
1020120010021020,
1012101012101012,
1010121010121010,
100200100200100200100200102010201020102010201020,
101010200000200200100000200000102020100000200000,
#GOGOSTART
4000
#SCROLL 3
78
#SCROLL 1
0011212112,
1211212112112121,
100000000000
#SCROLL 3
7008
#SCROLL 1
00000000101020200100100200100200,
100000000000
#SCROLL 3
7008
#SCROLL 1
00000000101020200100100200100200,
1000
#SCROLL 3
78
#SCROLL 1
0011121112,
100200100200100200100200102020102020102020102020,
1002102012001002,
1020120010021020,
4000
#SCROLL 3
78
#SCROLL 1
0011211121,
1121112111211121,
100000000000
#SCROLL 3
7008
#SCROLL 1
00000000101010200100100100200100,
100000000000
#SCROLL 3
7008
#SCROLL 1
00000000101010200100100100200100,
1000
#SCROLL 3
78
#SCROLL 1
0011211121,
100100200100200100200100201010201010201010201010,
2200200020220222,
22221010,
#GOGOEND
#SCROLL 3
58
#SCROLL 1
00201201201012,
2201201201202222,
#SCROLL 3
58
#SCROLL 1
00102102102021,
#SCROLL 3
58
#SCROLL 1
02102102101111,
#SCROLL 3
58
#SCROLL 1
00201201201012,
2201201201202222,
100222200100100000200222,
1120202112112000,
2222202222202222,
2022222022222220,
1222201222201222,
2012222012222220,
2222202222202222,
2022222022222220,
1222201222201222,
2012222012222220,
1222102212201222,
1022122012221220,
1222101212201222,
1012122012221220,
1212101212101212,
1012121012121210,
1212121211111111,
10022222,
1010000111101010,
1010110101101010,
1010000101101010,
1010110101101010,
2111211121112111,
2111211121112111,
200100200100200100200100201020102010201020102010,
202020100000200100200000200000201010200000200000,
#GOGOSTART
100000200200100000200200100200101010100000100100,
2221201121221220,
100211100200100200211100,
200100200100211100200100,
2010211010101110,
1020112010201220,
200000202020100000200000100000200000102020200000,
100211100200100200111200,
2021202120212020,
200000201010200000200100200000201010200000200100,
2021202120212021,
200000201010200000200100200000201010200000200100,
200000201010200000200100200000201010200000200100,
200000201010200000201010200000201010200000201010,
200000201010200000201010200000201010200000201010,
200100201010200100201010200100201010200100201010,
#GOGOEND
#SCROLL 3
6,
,
8,
#END
COURSE:Oni
LEVEL:9
BALLOON:35,40
SCOREINIT:770
SCOREDIFF:30
NOTESDESIGNER3:DiamondN1nja
#START
1001001001001001,
0010010010010010,
1001001001001001,
0010010010010010,
2001001001001001,
0010010010010010,
2001001001001001,
0010010010010010,
2001201020012010,
2001201020012010,
2001201020012010,
2001201020012110,
41212121,
41212121,
100100100100100100100100101010100200101010101010,
1011201111102000,
#GOGOSTART
4000100011221010,
1122122211221222,
1000300011221122,
1000300011221120,
4000200011222020,
1122122211202020,
1021102011102011,
1022101122112120,
4000100011221010,
1122122211221222,
1000300011221122,
1000300011221120,
4000200011222020,
1122122211202020,
2200100020120121,
2010201202102000,
#GOGOEND
300000100100200000200200000200200000000000002020,
2202202202212120,
300000002020200000200200000200200001010100000200,
0002202202212110,
300000100100200000200200000200200000000000002020,
2202202202212120,
100222100100200100100222,
1210201150802122,
7,
00000008,
1122101122101122,
1012221011121112,
2212102212102212,
1021121011121112,
1212101212101212,
1011221011121112,
2001211020012110,
2001221020012210,
2001211020012110,
2001221020021210,
41212121,
41212121,
1111111111111111,
10022212,
1010100110111010,
1010110111111000,
1010100110111010,
1010110111112020,
41212121,
41212121,
100100100100100100100100101010202020101010202020,
1011201111202020,
#GOGOSTART
100000200200100000200200100000202020100000200000,
1120102011221220,
2021102022121020,
1011201211102010,
1011201220112010,
2021201220212020,
200222100200100000200222,
1020100011221120,
100000200200100000200200100000202020100000200000,
1120102011221220,
2021102022121020,
1011201211102010,
1011201220112010,
2021201220212020,
2211221210002211,
2212100022111020,
#GOGOEND
7,
,
8,
#END
COURSE:Hard
LEVEL:7
BALLOON:20,30
SCOREINIT:880
SCOREDIFF:40
NOTESDESIGNER2:DiamondN1nja
#START
1001001001001001,
0010010010010010,
1001001001001001,
0010010010010010,
2001001001001001,
0010010010010010,
2001001001001001,
0010010010010010,
20212021,
20212021,
20212021,
20212021,
41212121,
41212121,
1010101011101110,
1011201110102000,
#GOGOSTART
4000100011201020,
1120102011201020,
10301212,
10301212,
4000200011202020,
1110102011101020,
12121210,
12121210,
4000100011201020,
1120102011201020,
10301212,
10301212,
4000200011202020,
1110102011101020,
2200100020120110,
2010201101102000,
#GOGOEND
3000202202200002,
2202202202201010,
3002202202200020,
1002202202201010,
3000202202200002,
2202202202201010,
12112022,
12102122,
7,
00000008,
12112112,
11211111,
22122122,
12211111,
12112112,
11211111,
2001201020012010,
2001201020012010,
2001201020012010,
2001201020021010,
41212121,
41212121,
1010101011101110,
10022212,
1111,
1111,
1111,
10101022,
41212121,
41212121,
1010101011101110,
5008,
#GOGOSTART
12121221,
12121012,
21212021,
11221012,
10101012,
20202211,
2022201020002022,
2010200020222010,
12121221,
12121012,
21212021,
11221112,
10101012,
20202211,
22112022,
11202211,
#GOGOEND
7,
,
8,
#END
COURSE:Normal
LEVEL:4
BALLOON:16,20
SCOREINIT:1480
SCOREDIFF:40
NOTESDESIGNER1:DiamondN1nja
#START
10010010,
01001010,
10010010,
01001010,
20010010,
01001010,
20010010,
01001010,
2021,
2021,
2021,
2021,
4111,
4111,
6,
0008,
#GOGOSTART
4111,
1212,
1311,
1311,
4222,
4444,
1311,
1312,
4111,
1212,
1311,
1311,
4222,
4444,
10201120,
10201130,
#GOGOEND
32,
10012000,
32,
11002020,
32,
10012000,
1121,
2121,
7,
00000008,
10010010,
01001010,
20020020,
02002020,
10010010,
01001010,
2222,
2222,
2222,
2221,
4111,
4111,
5,
8,
1111,
1111,
1111,
1110,
4111,
4111,
6,
0008,
#GOGOSTART
1111,
1211,
2121,
1211,
1111,
2221,
2122,
10201110,
1111,
1211,
2121,
1211,
1111,
2221,
2122,
10201110,
#GOGOEND
7,
,
8,
#END
COURSE:Easy
LEVEL:3
BALLOON:10,13
SCOREINIT:1980
SCOREDIFF:50
NOTESDESIGNER0:DiamondN1nja
#START
11,
11,
11,
1,
2,
1,
2,
1,
11,
11,
11,
11,
4,
4,
6,
0008,
#GOGOSTART
3101,
0101,
3101,
0101,
4202,
44,
11,
11,
3101,
0101,
3101,
0101,
4202,
44,
5008,
11,
#GOGOEND
32,
12,
32,
12,
32,
12,
11,
11,
7,
00000008,
,
,
22,
22,
22,
22,
11,
11,
11,
11,
4,
4,
5,
8,
11,
11,
11,
11,
4,
4,
6,
0008,
#GOGOSTART
11,
12,
21,
12,
11,
22,
21,
1011,
11,
12,
21,
12,
11,
22,
21,
1021,
#GOGOEND
7,
,
8,
#END