Files
DynGMDOfficial 732f1b4d9b Added main charts
added all main charts, have fun lolz
2026-02-02 20:18:47 -05:00

120 lines
1.6 KiB
Plaintext

// PeepoDrumKit 2025/05/20
TITLE:Balloon
SUBTITLE:Tyler, The Creator (ft. Doechii)「CHROMAKOPIA」より
BPM:112
WAVE:Balloon.ogg
PREIMAGE:Chromakopia_CD_cover.jpg
OFFSET:-0.036667
DEMOSTART:0
MAKER:よるん
COURSE:Oni
LEVEL:8.3
BALLOON:20
SCOREINIT:
SCOREDIFF:
#START
#SCROLL 1
0,
,
,
,
,
,
,
,
#SCROLL 1
3000401121212200,
1121212020212100,
4000222120002221,
1000000001201040,
3021202020210202,
1010201120210202,
1021202010120202,
1010201120212020,
#SCROLL 2
3
#SCROLL 1
000102220212020,
#SCROLL 2
4
#SCROLL 1
000102022212020,
3000112120212020,
111020102011
#SCROLL 2
40
#SCROLL 1
10,
#SCROLL 2
4
#SCROLL 1
001201120102010,
4001202120102010,
3000400030004011,
2110202120404000,
#SCROLL 1.5
3021201020102120,
1011201020102210,
1221201020102220,
1022102011112020,
1121201101012022,
1020120022122000,
#SCROLL 0.5
5858,
6868,
#SCROLL 1
1101101110202012,
1101101020102220,
1101101010000000,
1021201000100100,
1021202012021020,
1011101020112010,
1122112211221122,
1F00,
1022012210200112,
1122112110200122,
1121221120200122,
1121122120200122,
1000021120000211,
1122122120001221,
2212212220001221,
2211221020000022,
#GOGOSTART
2010201120102112,
2011212020102222,
1021201020102220,
1021201020102100,
1021201020102222,
1021201020102222,
1221201022101211,
2010112122012011,
#GOGOEND
2012012020102120,
1021201020102222,
1021201000102120,
1022102000212210,
1011211210212210,
2011210220120120,
1021201020120120,
2010212010222210,
#GOGOSTART
10020020F0200200,
#SCROLL 0.9
10020020F0200200,
#SCROLL 0.8
10020020F0200200,
#SCROLL 0.7
10020020F0200200,
#GOGOEND
#SCROLL 0.6
10020020F0200200,
#SCROLL 0.5
10020020F0200200,
#SCROLL 0.4
30040040F0400400,
#SCROLL 1
70080000,
#END