Files
DynGMDOfficial 732f1b4d9b Added main charts
added all main charts, have fun lolz
2026-02-02 20:18:47 -05:00

54 lines
753 B
Plaintext

// PeepoDrumKit 2025/05/20
TITLE:Beat Canyon
SUBTITLE:Jai Heart (ft. Biz Markie)
BPM:158.5
WAVE:Beat Canyon.ogg
BGMOVIE:Beat Canyon.mp4
OFFSET:-0.073333
DEMOSTART:0
MAKER:よるん
COURSE:Oni
LEVEL:8
BALLOON:15,4
SCOREINIT:
SCOREDIFF:
#START
1011202011112020,
1110201011102000,
1120201011112022,
1001001020211111,
2020101020101110,
1001001020002010,
2010221011112010,
7000000000000008,
#GOGOSTART
#SCROLL 2
40000000
#SCROLL 1
22101020,
1110202022102222,
1010102020101110,
2112
#GOGOEND
4000,
2010102020112000,
2012021121202000,
2020112020101020,
1201201020007008,
#GOGOSTART
1010201022201022,
1002001002003040,
1020121010201211,
1020121210201020,
2201102020100010,
2201102020100020,
2201102020102020,
222011112000
#GOGOEND
#SCROLL 1.5
4000,
,
#END