generated from DragonRatTiger/Custom-Charts
81 lines
1.0 KiB
Plaintext
81 lines
1.0 KiB
Plaintext
// PeepoDrumKit 2025/09/03
|
|
TITLE:Sandwich Freestyle
|
|
SUBTITLE:Tyler, The Creator & Earl Sweatshirt
|
|
BPM:143
|
|
WAVE:Tyler & Earl freestyle🔥🔥.ogg
|
|
OFFSET:-0.27
|
|
DEMOSTART:13.0672
|
|
MAKER:よるん
|
|
BGMOVIE:Tyler & Earl freestyle🔥🔥.mp4
|
|
MOVIEOFFSET:0
|
|
|
|
COURSE:Oni
|
|
LEVEL:7
|
|
|
|
#START
|
|
#HBSCROLL
|
|
0,
|
|
,
|
|
,
|
|
,
|
|
,
|
|
,
|
|
,
|
|
0000000000222222,
|
|
#GOGOSTART
|
|
1101101040111010,
|
|
1101101040111010,
|
|
1011101040112212,
|
|
22
|
|
#GOGOEND
|
|
10
|
|
#BPMCHANGE 137
|
|
000000000000,
|
|
#GOGOSTART
|
|
#BPMCHANGE 143
|
|
1102111040122101,
|
|
1022120210102210,
|
|
1012101040112210,
|
|
1101222211112222,
|
|
1022101020
|
|
#BPMCHANGE 137
|
|
002010,
|
|
111010202
|
|
#BPMCHANGE 143
|
|
0000000,
|
|
1101101040221202,
|
|
1011101040012210,
|
|
10111
|
|
#BPMCHANGE 137
|
|
01210104000,
|
|
11011
|
|
#BPMCHANGE 143
|
|
01210104022,
|
|
1021221011012021,
|
|
110121
|
|
#GOGOEND
|
|
0120102000,
|
|
#GOGOSTART
|
|
3010111040112210,
|
|
1111201022102212,
|
|
1010211020202101,
|
|
21
|
|
#GOGOEND
|
|
#BPMCHANGE 137
|
|
200000,
|
|
#GOGOSTART
|
|
#BPMCHANGE 143
|
|
3022203022203022,
|
|
2030222030221022,
|
|
1122101222121022,
|
|
1010221012221212,
|
|
#BPMCHANGE 137
|
|
1021010010210100,
|
|
2012
|
|
#BPMCHANGE 143
|
|
021020120200,
|
|
1112020011120200,
|
|
#GOGOEND
|
|
0,
|
|
#END
|