Files
2026-06-09 16:27:23 -04:00

174 lines
1.7 KiB
Plaintext

// PeepoDrumKit 2025/11/19
TITLE:Unusual
SUBTITLE:Intelligentz
BPM:90
WAVE:unusual.ogg
PREIMAGE:unusual cover.png
OFFSET:-1.43041
MAKER:よるん & TaikoFan10
COURSE:Oni
LEVEL:9
#START
#MEASURE 2/4
#SCROLL 1
0,
#MEASURE 4/4
0000000000012010,
#BPMCHANGE 180
#SCROLL 1
32212120,
1020201020121000,
11212212,
21112120,
1010210020102100,
201120112110
#SCROLL 2
40
#SCROLL 1
10,
1120201022112022,
1010201022102010,
10102101,
02112021,
1020111020102110,
1020102210102010,
112121
#SCROLL 5
4
#SCROLL 1
1,
1120201010212010,
#SCROLL 2
30
#SCROLL 1
202010
#SCROLL 2
30
#SCROLL 1
222120,
#SCROLL 2
30
#SCROLL 1
1120
#SCROLL 2
30
#SCROLL 2
40
#SCROLL 1
10
#SCROLL 2
3
#SCROLL 1
210,
#SCROLL 2
30
#SCROLL 1
20211022101020,
1020201022202210,
1010201021212010,
1022101011212040,
1010102010101011,
112021122012
#SCROLL 2
4
#SCROLL 1
000,
201010201000
#SCROLL 2
4
#SCROLL 1
010,
211210101020
#SCROLL 2
4
#SCROLL 1
000,
11212221,
1010201220201020,
1012102010102010,
1020101020122000,
1012101010201010,
12112122,
#SCROLL 2
30
#SCROLL 1
202010
#SCROLL 2
30
#SCROLL 1
222120,
#SCROLL 2
30
#SCROLL 1
1120
#SCROLL 2
30
#SCROLL 2
40
#SCROLL 1
10
#SCROLL 2
3
#SCROLL 1
210,
#SCROLL 2
3000
#SCROLL 1
000020111020,
1010102020121020,
1000000022201020,
0011101020201020,
10012021,
2020101011212010,
1010121010221020,
2011202012221020,
1011102010202010,
2010201210201022,
1001221022102010,
2010101120112110,
1011201020201010,
2011201022201120,
#SCROLL 2
30
#SCROLL 1
202010
#SCROLL 2
30
#SCROLL 1
222120,
#SCROLL 2
30
#SCROLL 1
1120
#SCROLL 2
30
#SCROLL 2
40
#SCROLL 1
10
#SCROLL 2
3
#SCROLL 1
210,
#SCROLL 2
3
#SCROLL 1
2202011,
12212210,
11212211,
2010200010201022,
1010221010201010,
21201000,
11112021,
22112120,
10212012,
02111120,
12021012,
1010200200100100,
2000100201001002,
0101001010002000,
,
#END