generated from DragonRatTiger/Custom-Charts
414 lines
4.4 KiB
Plaintext
414 lines
4.4 KiB
Plaintext
// PeepoDrumKit 2026/07/30
|
|
TITLE:jeans
|
|
SUBTITLE:2hollis
|
|
BPM:286
|
|
WAVE:jeans.ogg
|
|
PREIMAGE:jeans.png
|
|
OFFSET:0
|
|
MAKER:よるん
|
|
|
|
COURSE:Oni
|
|
LEVEL:10
|
|
BALLOON:2
|
|
|
|
#START
|
|
#MEASURE 8/4
|
|
#SCROLL 0.5
|
|
3022203022203020,
|
|
2220302220302210,
|
|
3022203022203020,
|
|
2220302220302210,
|
|
3022203022203020,
|
|
2220302220302210,
|
|
3022203022203022,
|
|
2030202210100000,
|
|
1020201021102000,
|
|
1000112022102012,
|
|
1020001021102020,
|
|
1020122020102020,
|
|
1020201021102020,
|
|
1011211022102000,
|
|
#SCROLL 1
|
|
40
|
|
#SCROLL 0.5
|
|
21012101021010,
|
|
000000101020201120100000,
|
|
#GOGOSTART
|
|
2021201022201120,
|
|
2010211022201120,
|
|
2212201110212110,
|
|
221020101120
|
|
#GOGOEND
|
|
2000,
|
|
#SCROLL 1
|
|
3
|
|
#SCROLL 0.5
|
|
221
|
|
#SCROLL 1
|
|
3
|
|
#SCROLL 0.5
|
|
221
|
|
#SCROLL 1
|
|
4
|
|
#SCROLL 0.5
|
|
11
|
|
#SCROLL 1
|
|
4
|
|
#SCROLL 0.5
|
|
11
|
|
#SCROLL 1
|
|
40,
|
|
#SCROLL 0.5
|
|
2110221020111210,
|
|
1110201120102010,
|
|
#SCROLL 0.3
|
|
0000000020202100,
|
|
#GOGOSTART
|
|
#SCROLL 0.5
|
|
1110201222102101,
|
|
1210221020
|
|
#GOGOEND
|
|
#SCROLL 1
|
|
404
|
|
#SCROLL 0.5
|
|
1
|
|
#SCROLL 1
|
|
40,
|
|
#GOGOSTART
|
|
#SCROLL 0.5
|
|
1121201122012210,
|
|
#SCROLL 1
|
|
3
|
|
#SCROLL 0.5
|
|
222
|
|
#SCROLL 1
|
|
3
|
|
#SCROLL 0.5
|
|
222
|
|
#SCROLL 1
|
|
3
|
|
#SCROLL 0.5
|
|
22
|
|
#SCROLL 1
|
|
300
|
|
#GOGOEND
|
|
#SCROLL 0.2
|
|
40,
|
|
#GOGOSTART
|
|
#SCROLL 0.5
|
|
1021221022120120,
|
|
1121221022112010,
|
|
1120102211212110,
|
|
#SCROLL 1
|
|
3
|
|
#SCROLL 0.5
|
|
222
|
|
#SCROLL 1
|
|
3
|
|
#SCROLL 0.5
|
|
222
|
|
#SCROLL 1
|
|
4
|
|
#SCROLL 0.5
|
|
11
|
|
#SCROLL 1
|
|
4
|
|
#SCROLL 0.5
|
|
11
|
|
#SCROLL 1
|
|
40,
|
|
#GOGOEND
|
|
#SCROLL 0.5
|
|
0F,
|
|
0000112021
|
|
#SCROLL 1
|
|
30
|
|
#SCROLL 0.5
|
|
20
|
|
#SCROLL 1
|
|
30,
|
|
#GOGOSTART
|
|
#SCROLL 1
|
|
30
|
|
#SCROLL 0.5
|
|
22101022012010,
|
|
2110
|
|
#SCROLL 1
|
|
3
|
|
#SCROLL 0.5
|
|
222
|
|
#SCROLL 1
|
|
30
|
|
#SCROLL 0.5
|
|
2
|
|
#SCROLL 1
|
|
330
|
|
#SCROLL 0.5
|
|
20,
|
|
#MEASURE 4/32
|
|
1,
|
|
#BARLINEOFF
|
|
0,
|
|
#GOGOEND
|
|
#BARLINEON
|
|
#SCROLL 0.1
|
|
4,
|
|
#SCROLL 0.2
|
|
0,
|
|
#SCROLL 0.3
|
|
0,
|
|
#SCROLL 0.4
|
|
0,
|
|
#MEASURE 8/4
|
|
#GOGOSTART
|
|
#SCROLL 0.5
|
|
1220210120101201,
|
|
0211112010202102,
|
|
100200000100000200200200100100100000000000100010,
|
|
002000
|
|
#GOGOEND
|
|
200010102000100000000000
|
|
#GOGOSTART
|
|
100100200100200200,
|
|
1022112210120122,
|
|
1021021120112211,
|
|
2021202210102121,
|
|
2221112020301022,
|
|
1020122221222122,
|
|
1022122112102122,
|
|
1022122210112020,
|
|
1020102222
|
|
#GOGOEND
|
|
000000,
|
|
,
|
|
#MEASURE 1/4
|
|
#BARLINEOFF
|
|
0,
|
|
,
|
|
,
|
|
,
|
|
,
|
|
#MEASURE 8/4
|
|
#BARLINEON
|
|
1000100010010010,
|
|
1000100010010010,
|
|
1000100010010010,
|
|
1000100010010010,
|
|
#SCROLL 2
|
|
3000
|
|
#SCROLL 0.5
|
|
100010010010,
|
|
1000100010010010,
|
|
1000100010010010,
|
|
1000000010102222,
|
|
3001201001102000,
|
|
1001201001102001,
|
|
1001201001102010,
|
|
1001201001102000,
|
|
1001201001102000,
|
|
1001201001102001,
|
|
1001201001102010,
|
|
1001201001102000,
|
|
1001201001102000,
|
|
1001201001102001,
|
|
1001201001102010,
|
|
1001201001102000,
|
|
1001201001102000,
|
|
1001201001102001,
|
|
1001201001102010,
|
|
#MEASURE 1/8
|
|
#SCROLL 0.5
|
|
0,
|
|
#SCROLL 0.53125
|
|
0,
|
|
#SCROLL 0.5625
|
|
0,
|
|
#SCROLL 0.59375
|
|
0,
|
|
#SCROLL 0.625
|
|
0,
|
|
#SCROLL 0.65625
|
|
0,
|
|
#SCROLL 0.6875
|
|
0,
|
|
#SCROLL 0.71875
|
|
0,
|
|
#SCROLL 0.75
|
|
0,
|
|
#SCROLL 0.78125
|
|
0,
|
|
#SCROLL 0.8125
|
|
0,
|
|
#SCROLL 0.84375
|
|
0,
|
|
#SCROLL 0.875
|
|
4,
|
|
#SCROLL 0.90625
|
|
4,
|
|
#SCROLL 0.9375
|
|
4,
|
|
#SCROLL 0.96875
|
|
4,
|
|
#MEASURE 4/4
|
|
#GOGOSTART
|
|
#SCROLL 2
|
|
3000
|
|
#SCROLL 1
|
|
111020001020,
|
|
1120101020002220,
|
|
1010101020001122,
|
|
1112
|
|
#GOGOEND
|
|
4444,
|
|
#GOGOSTART
|
|
#SCROLL 2
|
|
3000
|
|
#SCROLL 1
|
|
111020002220,
|
|
1110
|
|
#GOGOEND
|
|
#GOGOSTART
|
|
#SCROLL 2
|
|
30
|
|
#GOGOEND
|
|
#SCROLL 1
|
|
20
|
|
#GOGOSTART
|
|
#SCROLL 2
|
|
30
|
|
#GOGOEND
|
|
#SCROLL 1
|
|
20
|
|
#GOGOSTART
|
|
#SCROLL 2
|
|
30
|
|
#GOGOEND
|
|
#SCROLL 1
|
|
20,
|
|
#GOGOSTART
|
|
#SCROLL 2
|
|
3000
|
|
#SCROLL 1
|
|
111120002220,
|
|
10201020
|
|
#GOGOEND
|
|
#GOGOSTART
|
|
#SCROLL 2
|
|
3
|
|
#GOGOEND
|
|
0
|
|
#GOGOSTART
|
|
#SCROLL 2
|
|
3
|
|
#GOGOEND
|
|
0
|
|
#GOGOSTART
|
|
#SCROLL 2
|
|
3
|
|
#GOGOEND
|
|
0
|
|
#GOGOSTART
|
|
#SCROLL 2
|
|
3
|
|
#GOGOEND
|
|
0,
|
|
#GOGOSTART
|
|
#SCROLL 2
|
|
30
|
|
#SCROLL 1
|
|
20112210202220,
|
|
1110201110202222,
|
|
100000100000200200200000100010001000200200200000,
|
|
100010001000200200100000
|
|
#GOGOEND
|
|
#SCROLL 0.5
|
|
200000002000200000002000,
|
|
#GOGOSTART
|
|
#SCROLL 2
|
|
30
|
|
#SCROLL 1
|
|
10222210102222,
|
|
1010221110102211,
|
|
1010122210101222,
|
|
1010222011221222,
|
|
1010221110102211,
|
|
1022221022221020,
|
|
1012221010122210,
|
|
10102222
|
|
#GOGOEND
|
|
#SCROLL 2
|
|
30
|
|
#SCROLL 2
|
|
40
|
|
#SCROLL 2
|
|
40
|
|
#SCROLL 2
|
|
40,
|
|
#GOGOSTART
|
|
#SCROLL 2
|
|
30
|
|
#SCROLL 1
|
|
10122210101222,
|
|
1010221110102211,
|
|
1010222210102222,
|
|
10102222
|
|
#GOGOEND
|
|
#SCROLL 2
|
|
3000
|
|
#SCROLL 3
|
|
4000,
|
|
#GOGOSTART
|
|
#SCROLL 1
|
|
3010222010102220,
|
|
1010221210101122,
|
|
1020222210101112,
|
|
10101210
|
|
#GOGOEND
|
|
#SCROLL 2
|
|
3
|
|
#SCROLL 2
|
|
3
|
|
#SCROLL 2
|
|
3
|
|
#SCROLL 2
|
|
3
|
|
#SCROLL 2
|
|
4
|
|
#SCROLL 2
|
|
4
|
|
#SCROLL 2
|
|
4
|
|
#SCROLL 2
|
|
4,
|
|
#SCROLL 1
|
|
3010222210102222,
|
|
1020122210201222,
|
|
1020111020111020,
|
|
1111102211112222,
|
|
#BPMCHANGE 143
|
|
#SCROLL 4
|
|
3000
|
|
#SCROLL 1
|
|
100010010010,
|
|
1010100010010010,
|
|
1000100010010010,
|
|
1010100010010010,
|
|
1002102012012010,
|
|
1010100010010010,
|
|
1000100010010010,
|
|
10101000
|
|
#SCROLL 2
|
|
40403333,
|
|
#SCROLL 1
|
|
3000002012001000,
|
|
0000112012001000,
|
|
0000002012001000,
|
|
0010112012201000,
|
|
0000102021201000,
|
|
7080011021022121,
|
|
1000112212221000,
|
|
000000000000100010002000200010102000100200200200,
|
|
,
|
|
,
|
|
#END
|