Files
DynGMD-Charts/Alors on danse/Alors on danse.tja
T

151 lines
2.3 KiB
Plaintext

// PeepoDrumKit 2025/11/19
TITLE:Alors on danse - Radio Edit
SUBTITLE:Stromae「Cheese」より
BPM:120
WAVE:Alors on danse.ogg
PREIMAGE:ab67616d0000b273ae373174b14e3eac81554402.jpg
OFFSET:-0.366666
MAKER:よるん
SEVOL:56
COURSE:Oni
LEVEL:7
#START
1001002000200020,
1002001000100100,
1001002000200020,
1002001000100100,
1021002000200020,
1012001020102120,
1021002000200020,
1012001020102120,
1002101001002022,
0001202202021201,
2001101001102102,
2001201020102212,
2001101101022021,
1010101102112122,
1101102012022020,
1102102201022222,
1101102211011022,
1102102011012211,
1101102211011022,
1102102011012221,
1001002000200020,
3
#SCROLL 0.7
3
#SCROLL 0.5
3
#SCROLL 0.3
3,
#SCROLL 1
1001002000200020,
1002001000222010,
#GOGOSTART
#SCROLL 1.5
3022102010221020,
1202102012221120,
3002102011121022,
1020112210120220,
#GOGOEND
#SCROLL 1
3022102010221020,
1202102012221120,
3002102011121022,
1020112210120220,
#GOGOSTART
#SCROLL 1.5
3022102010221020,
1202102012221120,
3002102011121022,
1020112210120220,
#GOGOEND
#SCROLL 1
3022102010221020,
1202102012221120,
3002102011121022,
1020112210120220,
3
#SCROLL 0.5
000300030003000,
3333,
,
0000000002112102,
#GOGOSTART
#SCROLL 1.5
3022102010221020,
1202102012221120,
3002102011121022,
1020112210120220,
3022102010221020,
1202102012221120,
3002102011121022,
1020112210120220,
#GOGOEND
#SCROLL 1
3001001020020020,
1001001020020220,
1001001020020020,
1001001020020220,
1001001020020020,
1001001020020220,
1001001020020020,
1001001020020220,
10111021,
2010210220220221,
10111021,
2010210220220221,
10111021,
2010210220220221,
1,
0000000000222010,
#GOGOSTART
#SCROLL 1.5
3022102010221020,
1202102012221120,
3002102011121022,
1020112210120220,
#GOGOEND
#SCROLL 1
3022102010221020,
1202102012221120,
3002102011121022,
1020112210120220,
#GOGOSTART
#SCROLL 1.5
3022102010221020,
1202102012221120,
3002102011121022,
1020112210120220,
#GOGOEND
#SCROLL 1
3022102010221020,
1202102012221120,
3002102011121022,
1020120000000000,
1021002011200120,
1021002210120222,
1021012011200120,
1101101120102222,
1201201120102220,
1121021010221210,
1011210210102220,
1021021020102220,
#GOGOSTART
#SCROLL 1.5
3022102010221020,
1202102012221120,
3002102011121022,
1020112210120220,
#GOGOEND
#SCROLL 1
3022102010221020,
1202102012221120,
3002102011121022,
1020112210120220,
3003004000400040,
3004003000000000,
#END