Files
DynGMD-Charts/Backseat Freestyle (Lena Ver.)/main.tja
T
DynGMDOfficial 732f1b4d9b Added main charts
added all main charts, have fun lolz
2026-02-02 20:18:47 -05:00

1100 lines
106 KiB
Plaintext

TITLE:Backseat Freestyle (Lena Ver.)
SUBTITLE:Kendrick Lamar「good kid, m.A.A.d city」より
BPM:240
WAVE:Backseat Freestyle.ogg
OFFSET:0
COURSE:0
LEVEL:2
#START
#SCROLL 0.6
0000000000000100000000000000000000000000000000000000000000000000000000000000000000000000000000000000,
0000000000000000000000000000000000000000000000000000000000000000000000000000000000000000001000000000,
0000000000000000000000000000000000000000000000200000000000000000000000000000000000000020000000000000,
0000000000000000000000000000000000000000000000000000000000000000000000000000000000000000000000000000,
0000000000000000000000000000000000000000000000000000000000000000000000000000000000000000000000000000,
0100000000000000000000000000000000000000000000000000000000200000000000000000002000000000000000000000,
0000000000000000000000000000000000001000000000000000000000000000000000000000000000000000000000000000,
0000000000000000000000000000000000000000000000000000000000000000000000000000000000000000000000000000,
0000000000000010000000000000000000000000000000000000000000000000000002000000000000000000002000000000,
0000000002000000000000000000000000000000000000001000000000000000000000000000000000000000000000000000,
0000000000000000000000000000000000000000000000000000000000000000000000000000000000000000000000000000,
0000000000000000000000000100000000000000000000000000000000000000000000000000000002000000000000000000,
0200000000000000000020000000000000000000000000000000000000010000000000000000000000000000000000000000,
0000000000000000000000000000000000000000000000000000000000000000000000000000000000000000000000000000,
0000000000000000000000000000000000000000000000000000001000000000000000000000000000000000000000000000,
0000000000000000000000000000000000000000000000000000000000000000000000000000000000000000000000000000,
0000000000000000000000000000000000000000000000000000000000000000000000000000000000000001000000000000,
0000000000000000000000000000000000000000000000000000000000000000001000000000000000000000000000000000,
0000000000000000000000000000000000000000000000000000000000000000000000000000000000000000000000000000,
0000000000000000000000000000000000000000000000000000000000000000000000000000000000000000000000000000,
1000000000000000000000000000000000000000000000000000000000000000000000000000001000000000000000000000,
0000000000000000000000000000000000000000000000000000000000000000000000000000000000000000000000100000,
0000000000000000000000000000000000000000000000000000000000000000000000000000000000000000000000000000,
0000000000000000000000000000000000000000000000000000000000000000000000000000000000000000000000000000,
0000000000000000000000000000000000000000000000000000000000000000000100000000000000000000000000000000,
0000000100000000000000000000000000000000000000000000000000000000000000000000000000000000000000000000,
0000000000000000000000010000000000000000000000000000000000000000000000000000000000000000000000000000,
0000000000000000000000000000000000000000000000000000000000000000000000000000000000000000000000000000,
0000000000000000000000000000000000000000000000000000000000000000000000000000000000000000000000000000,
0000000000000000000000000000000000000000000000000000000000002000000000000000000000000000000000000000,
0000000000000000000000000000000000000000000000000000000000000000000000000000000000000000000000000000,
0000000000000000000000000000000000000000000000000000000000000000000000000000000000000000000000000000,
0000000000000000000000000000000000000000000000000000000000000000000000000000000000000000000000000000,
0000000000000000000000000000000000000000000000000000000000000000000000000000000000000000000000000000,
0000000000000000000000000000000000000000000000000000000000000000000000000000000000000000000000000000,
0000000000000000000000000000000000000000000000000000000000000000000000000000000000000000000000000000,
0000000000000000000000000000000000000000000000000000000000000000000000000000000000000000000000000000,
0000000000000000000000000000000001000000000000000000000000000000000000000000000000000000000000000000,
0000000000000000000000000000000100000000000000000000000000000000000000000000000000000000000000100000,
0000000000000000000000000000000000000000000000000000000000000000000000000000000000000002000000000000,
0000000000000000000000000000000000000000000000000000000000000000000000000000000000000000000000000000,
0000010000000000000000000000000000000000000200000000000000000000000000000000000000000000000000000000,
0000010000000000000000000000000000000000000100000000000000000000000000000000000000000000000000000002,
0000000000000000000000000000000000000000000000000000000000000000000000000000000000000000000000000020,
0000000000000000000000000000000000000000000000000000002000000000000000000000000000000000000000000000,
0000000000000000000000000000000000000000000000000000000000000000000000000000000000000000000000000000,
0000000000200000000000000000000000000000000000000000000000000000000000020000000000000000000000000000,
0000000010000000000000000000000000000000000000000000000000000000002000000000000000000000000000000000,
0000000000000000000000000000000000000000000000000000000000000000000000000000000000000000000000000000,
0000000000000000000000200000000000000000000000000000000000000000000000000000000000000000000000000000,
0000000000000000000000000000000000000000000000000000000000100000000000000000020000000000000000000000,
0000000000000000000000000000000000000000000000000000000000000000000000000000000000000000000000000000,
0000000000000000000200000000000000000000000000000000000000000000000000000000000000000000000000000000,
0000000000000000000000000000000000000000000000000000000000000000000000000000000000000000002000000000,
0000000000000000000000000000000000000000000000000000000000000000000000000000000000000000000000000000,
0000000000000000000000000000000000000000000000200000000000000000000000000000000000000000000000000000,
0000000000000000000000000000000000000000000000000000000000000000000000000000000000000000000000000000,
0200000000000000000000000000000000000000000000000000000000000000000000000000000000000000000000000002,
0000000000000000000000000000000000000000000000000000000002000000000000000000000000000000000000000000,
0000000000000000000000000000000000000000000000000000000000000000000000000000000000000000000000000000,
0000000000000200000000000000000000000000000000000000000000000000000000000000000000000000000000000000,
0000000000000000000000000000000000000000000000000000000000000000000001000000000000000000000000000000,
0000000100000000000000000000000000000000000000100000000000000000000000000000000000000000000000000000,
0000000000000000000000002000000000000000000000000000000000000000000000000000000000000000000000000000,
0000000000000000000000000000000000000000000000000000000000000000000000000000000020000000000000000000,
0000000000000000000000000000000000000000000000000000000000000000000000000000000000000000000000000000,
0000000000000000000000000000000000000200000000000000000000000000000000000000000000000000000000000000,
0010000000000000000000000000000000000000000000000000000000000000000000000000000000000000000000000000,
0000000000000000000000000000000000000000000000000000000000000000000000000000000000000000000000000000,
1000000000000000000000000000000000000000000000002000000000000000000000000000000000000000000000000000,
0000000000000000000000000000000000000000000000000000000000000000000000000000000000000000000000000000,
0000100000000000000000000000000000000000000000000000000000000000000000000000000000000000000000000000,
0000000000000000000000000000000000000000000000000000000000002000000000000000000000000000000000000000,
0000000000000000000000000000000000000000000000000000000000000000000000000000000000000000000000000000,
0000000000000001000000000000000000000000000000000000000000000000000000000000000000000000000000000000,
0000000000000000000000000000000000000000000000000000000000000000000000020000000000000000000000000000,
0000000000000000000000000000000000000000000000000000000000000000000000000000000000000000000000000000,
0000000000000000000000000002000000000000000000000000000000000000000000000000000000000000000000000000,
0000000000000000000000000000000000000000000000000000000000000000000000000000000000020000000000000000,
0000000000000000000000000000000000000000000000000000000000000000000000000000000000000000000000000000,
0000000000000000000000000000000000000020000000000000000000000000000000000000000000000000000000000000,
0000000000000000000000000000000000000000000000100000000000000000000000000000000000000000000000020000,
0000000000000000000000000000000000000000000000000000000000000000000000000000000000000000000000000000,
0000000000000000000000000000000000000000000000000001000000000000000000000000000000000000000000000000,
0000000000000000000000000000000000000000000000000000000000000000000000000000000000000000000010000000,
0000000000000000000000000000000000000000000000000000000000000000000000000000000000000000000000000000,
0000001000000000000000000000000000000000000000000000000000000100000000000000000000000000000000000000,
0200000000000000000000000000000000000000000000000000000000000000000000000000000000000000000000000000,
0000000000000000002000000000000000000000000000000000000001000000000000000000000000000000000000000000,
0000000000000000000000000000000000100000000000000000000000000000000000000020000000000000000000000000,
0000000000001000000000000000000000000000000000000000000000000000000000000000000000000000000000000000,
0000000000000000000000000000001000000000000000000000000000000000000000000010000000000000000000000000,
0000000000000000000000000000000000000000000000000000000100000000000000000000000000000100000000000000,
0000000000000000000000001000000000000000000010000000000000000000000001000000000000000000000000000000,
0000000000000000000000000002000000000000010000000000000000000000000000000000000000000002000000000000,
0000000000000000000000000000000000000000000000000000000000000000000000000000000000000000000000000200,
0000000000000000000000000000000000000000000000000000000000000000000000000000000000000000000000000000,
0000000000000000000000000000000000000000000000000000010000000000000000000000000000000000000000000000,
0000000000000000000000000000000000000000000000000000000000000000000000000000000000000000000000000000,
0000000002000000000000000000000000000000000000000000000000000000000100000000000000000000000000000000,
0000000000000000000000000000000000000000000000000000000000000000010000000000000000000000000000000000,
0000000000000000000000000000000000000000000000000000000000000000000000000000000000000000000000000000,
0000002000000000000001000000000000000000000000000000000000000000000000000000000100000000000000000000,
0000000000000000000000010000000000000000000000000000000000000000000000000000010000000000000000000000,
0000000000000000000000000000000000000000000000000000000000000000000000000000000000000000000000000000,
0010000000000000000000000000000010000000000000000000000000000000000000000000000000000000000000000000,
0000000000000000000000000000000000000000000000000000000000000000000000000000000000000000200000000000,
0000000000000000000000000000000000000000000000000000000000000000000000000000000000000000000000000000,
0000100000000000000000000000000000000000000010000000000000000000000000000000000000100000000000000000,
0000000000000000000000000000000000000000000000000000000000000000000000000000000000000000000000000001,
0000000000000000000000000000000000000000000000000000000000000000000000000000000000000000000000000000,
0000000000000000000000000000000000000000000000000000000000000010000000000000000000000000000000000000,
0000000000000000000000000000000001000000000000000000000000000000000100000000000000000000000000000000,
0000000000002000000000000000000000000000000000000000000000000000000000000000000000000000000000000000,
0000000000000000000000000000000000000000000000000000000000000000000010000000000000000000000000000000,
0000000000000000000000000000000000000000000000000000000000000000000000000000000000000000000000000000,
0000000000000000000000020000000000000000000000000000000000000000000000000000000000000000000000000000,
0000000000000000000000000000000000000000000000000000000000000000000000000000000200000000000000000000,
0000000000000000000000000000000000000000000000000000000000000000000000000000000000000010000000000000,
0000000000000000000000200000000000020000000000000000000000000000000000000000000000000000000000000000,
0000000000000000000000000000000000000000000000000000000000000000000000000000000000000000000100000000,
0000000000000000000000000000000000000000000000000000000000000000000000000000000000000000000000000000,
0000000000000000000000000000000000000000000000200000000000000000000000000000000000000100000000000000,
0000000000000000000000000000000000000000000000000000000000000000100000000000000000000000000000000000,
0020000000000000000000000000000000000000000000000000000000000000000000000000000000000000000000000000,
0000000000000000000000000000000000000000000000000000000000200000000000000000000000000000000000000000,
0000000000000000000000200000000000000000000000000000000000000000000000000000000000000000000000000000,
0000000000000020000000000000000000000000000000000000000000000000000000000000000000000000000000000000,
0000000000000000000000000000000000000000000000000000000000000000000000200000000000000000000000000000,
0000000000000000000000000000000000000000000000000000000000000000000000000000000000000000000000000000,
0000000000200000000000000020000000000000000000000000000000000000000000000000000000000000000000000000,
0000100000000000000000000000000000000000000000000000000000000000000000000000000000200000000000000000,
0000000000000000000000000000000000000000000000000000000000000000000000000000000000000000000000000000,
0000000000000000000000000000000000000020000000000000000000000000000000000000100000000000000000000000,
0000000000000000000000000000000000000000000000000000000000000000000000000000000000000000000000000000,
0000000000000000000000000000000000000000000000000000000000000000000000000000000000000000000000000000,
0000000000000000000000000000000000000000000000000000000000000000000000000000000000000000000000000000,
0000000000000000000000000001000000000000000000000000000000000000000000000000000000000000000000000000,
0000000000000000000000000000000000000000000000000000000000000000000000000000000000000000000000000000,
0000000000000000000000000000000000000000000000000000000000000000000000000000000000000000000000000000,
0000000000000000000000000000000000000000000000000000000000000000000000000000000000000000000000000000,
0000000000000000000000000000000000000000000200000000000000000000000000000000000000000000000000000000,
0000000000000000000000000000000000000000000000000000000000000000000000000000000000000000000000000000,
0000000000000000000000000000000000000200000000000000000000000000000000000000000000000000000000000000,
0000000000000000000000000000000000000000000000000000000000000000000000000000000000000000000000000000,
0000000000000000000000000000000000000000000000000000000000000000000000000000000000000000000000000000,
0000000000000000000000000000000000000000000000200000000000000000000000000000000000000000000000000000,
0000000000000000000000000000000000000000000000000000000000000000000000000000000000000000000000000000,
0000020000000000000000000000000000000000000000000000000000000000000000000000000000000000000000000000,
0000000000000000000000000000000000010000000000000000000000000000000000000000000000000000000000000000,
0000000000000000000000000000000000000000000000000000000000000000000000000000000000000000000000000000,
0000000000000000000000000000000000000000000000000000000000000000000000000000000000000000000000000000,
0000000000000000000000000000000000000000000000000000000000000000000000000000000000000000000000000000,
0000000000000000000000000000000000000000000000000000000000000000000000000000000000000000000000000000,
0000000000000000000000000000000000000000000000000000000000000000000000000000000000000000000000000000,
0000000000000000000000000000000000000000000000000000000000000000000000000000000000000001000000000000,
0000000000000000000000000000000000000000000000000000000000000000000000000000000000000000000000000000,
0000000000000000000000000000000000000000000000000000000000000000000000000000000000000000000000000000,
0000000000000000000000000000000000000000000000000000000000000000000000000000000000000000000000000001,
0000000000000000000000000000000000000000000000000000000000000000000000000000000000000000000000000000,
0000000000000000000000000000000000000000000000000000000000000000000000000000000000000000000000000000,
0000000000000000000000000000000000000000000000000000000000000000000000000000000000000000000000000000,
0000000000000000000000000000000000000000000000000000000000000000020000000000000000000000000000000001,
0000000000000000000000000000000000000000000000000000000000000000000000000000000000000000000000000000,
0000000000000000000000000000000000000000000000000000002000000000000000000000000000000000000000000000,
0000000000000000000000000000000000000000000000000000000000000000000000000000000000000000000000000000,
0000000000100000000000000000000000000000000000000000000000000000000000000000000000000000000000000000,
0000000000020000000000000000000000000000000000000000000000000000002000000000000000000000000000000000,
0000000000000000000000000000000000000000000000000000000000000000000000000000000000000000000000000000,
0000000000000000000000100000000000000000000000000000000000000000000000000000000000000000000000000000,
0000000000000000000000000000000000000000000000000000000000000000000000000000010000000000000000000000,
0000000000000000000000000000000000000000000000000000000000000000000000000000000000000000000000000000,
0000000000000000000000000000000000000000000000000000000000000000000000000000000000000000000000000000,
0000000000000000000000000000000000000000000000000000000000000000000000000000000000000000000000000000,
0000000000000000000000000000000000000000000000000000000000000000000100000000000000000000000000000000,
0100000000000000000000000000000000000000000000100000000000000000000000000000000000001000000000000000,
0000000000000000000000000000000000000000000000000000000000000000000000000000000000000000000000000000,
0200000000000000000000000000000000000000000000000000000000000000000000000000000000000000000000000000,
0000000000000000000000000000000000000000000000000000000002000000000000000000000000000000000000000000,
0000000000000000000000000000000000000000000000000000000000000000000000000000000000000000000000000000,
0000000000000100000000000000000000000000000000000000000000000000000000000000000000000000000000000000,
0000000000000000000000000000000000000000000000000000000000000000000002000000000000000000000000000000,
0000000000000000000000000000000000000000000000000000000000000000000000000000000000000000000000000000,
0000000000000000000000001000000000000000000000000000000000000000000000000000000000000000000100000000,
0000000000000000000000000000000000000000000000000000000000000000000000000000000020000000000000000000,
0000000000000000000000000000000000000000000000000000000000000000000000000000000000000000000000000000,
0000000000000000000000000000000000001000000000000000000000000000000000000000000000000000000000000000,
0000000000000010000000000000000000000000000000000000000000000000000000000000000000000000000002000000,
0000000000000000000000000000000000000000000000000000002000000000000000000000000000000000000000000000,
0000000000000002000000000000000000000000000000002000000000000000000000000000000000000000000000000000,
0000000000000000000000000000000000000000000000000000000000000000000000000000000000000000000000000000,
0000200000000000000000000000000000000000001000000000000000000000000000000000000000000000000000000000,
0000000000000000000000000000000000000000000000000000000000002000000000000000000000000000000000000000,
0000000000000000010000000000000000000000000000000000000000000000000000000000000000000000000000000000,
0000000000000002000000000000000000000000000000000000000000000000000000000000000000000000000000000000,
0000000000000000000000000000000000000000000000000000000000000000000000010000000000000000000000000000,
0000000000000000000000000000000000000000000000000000000000000000000000000000000000000000000000000000,
0000000000000000000000000000000000000000000000000000000000000000000000000000000000000000000000000000,
0000000000000000000000000000000000000000000000000000000000000000000000000000000000000000000000000000,
0000000000000000000000000000000000000000000000000000000000000000000000000000000000000000000000000000,
0000000000000000000100000000000000000010000000000000000000000000000000000000000000000000000000000000,
0000010000000000000000000000000000000000000000000000000010000000000000000000000000000000000000200000,
0000000000000000000000000000000000000000000000000000000000000000000000000000000000000000000000000000,
0000000000000000000000000000000000000000000000000001000000000000000000000000000000000000000000000000,
0000000000000000000000000000000000000000000000000000000000000000000100000000000000000000000000000000,
0000000200000000000000000000000000000000000001000000000000000000000000000000000000000000000000000000,
0000000000000000000000000000000000000000000000000000000000000020000000000000000000000000000000000000,
0000000000000000000000000000000000000000000000000000000000000000000000000000000100000000000000000000,
0000000000000000002000000000000000000000000000000000000000000000000000000000000000000000000000001000,
0000000000000000000000000000000000000000000000000000000000000000000000000000000000000000000000000000,
#END
COURSE:1
LEVEL:4
#START
#SCROLL 0.7
0000000000000100000000000000000000000000000000000000000000000000000000000000000000000000020000000000,
0000000000000000000000000000020000000000000000000000000000000000000000200000000000000000001000000000,
0000000000000000000000000000020000000000000000200000000000000000002000000000000000000020000000000000,
0000000000000000000000000200000000000000000000000000000000000000000000000000000000000000000000000000,
0200000000000000000000000000000000000000002000000000000000000000000000000000000000000000000000000000,
0100000000000000000000000000000000000000000000000000000000200000000000000000002000000000000000002000,
0000000000000000000000000000000000001000000000000000000000000000000000000000000000000000000000000000,
0000000000020000000000000000000000000000000000000000200000000000000000000000000000000000000000000000,
0000000000000010000000000000000000000000000000000000200000000000000002000000000000000000002000000000,
0000000002000000000000000000000000000000000000001000000000000000000000000000000000000000000000000000,
0000000000000000000000000000000000000000000000000000000000000000020000000000000000000000000000000000,
0000000000000000000000000100000000000000000000000000000000000000000000000000000002000000000000000000,
0200000000000000000020000000000000000000000000000000000000010000000000000000000000000000000000000000,
0000000000000000010000000000000000000000000000000000000000000000000000000000100000000000000000000000,
0000000000000000000000000000000000000000000000000000001000000000000000000000000000000000000000000000,
0000000000000000000000000000000002000000000000000000000000000000000000020000000000000000000000000000,
0000000000000000000000000000000000000000000000000000000000000000000000000000000000000001000000000000,
0000000000000000000000000000000000000000000000000000000000000000001000000000000000000000000000000000,
0000000000000000000000000000000000000000000010000000000000000000000000000000000000020000000000000000,
0000000000000000000000000000000000000000010000000000000000000000000000000000000000000000000000000000,
1000000000000000000000000000000000000000000000000000000000000000000000000000001000000000000000000000,
0000000000000000000000000000000000000000000000000000000000000000000000000000000000000000000000100000,
0000000000000000000000000000000000200000000000000000000000000000000000000200000000000000000002000000,
0000000000020000000000000000000000000000000000000000000000000000000000000000000000000000020000000000,
0000000000000000000000000000020000000000000000000000000000000000000100000000000000000020000000000000,
0000000100000000000000000000000000000010000000000000000000000000000000001000000000000000000000000000,
0000000000200000000000010000000000000000000000000000000000000000000000000000000000000002000000000000,
0000000000000000000000000000000000000000000000000000000000000000000000000000000000000000000000000000,
0000000000000000000000000000000000000000000000001000000000000000000000000000000000000000000000000000,
0000000000000000000000020000000000000000000000000000000000002000000000000000000000000000000000000000,
0000000000000000000100000000000000000000000000000000000000000000000000000000000000000000001000000000,
0000000000000000000000000000000000000000000000000000000000000020000000000000000000000000000000010000,
0000000000000000000000000000000000000000000000100000000000000000000001000000000000000000000000000000,
0000000000200000000000000100000000000000000000000000000000000000000000000000000000000000000000000000,
0000000000000000000000000000000200000000000000000000000000000000000000000000000000000000000000000000,
0000002000000000000000000000000000000000000000000000000000000000000000000000000000000000000000000000,
0000100000000000000000000000000000000010000000000000000000000000000000000000000000000000000000000000,
0000000000000000000000000000000001000000000000000000020000000000000000000000000000000000000000000020,
0000000000000000000000000000000100000000000000000000000000000000000000200000000000000000000000100000,
0000000000000000000000000000000000000000000000001000000000000000000000200000000000000002000000000000,
0000000000000000000000000000000000000000000000020000000000000000010000000000000000000001000000000000,
0000010000000000000000001000000000000000000200000000000000000000000000000000000000000000000000000000,
0000010000000000000000000000000000000000000100000000000000010000000000000000000000200000000000000002,
0000000000000000000000000000000000000000000000000000000000000000000000000000000000000000000000000020,
0000000000000000002000000000000000000000000000000000002000000000000000000000000000000000000001000000,
0000000000000000000100000000000000000000000000000000000000000000000000000000000000000000000000000000,
0000000000200000000000000000000000000000000000000000000000000000000000020000000000000000000000000000,
0000000010000000000000000000000000000000000000000000000000000000002000000000000000000000000000000000,
0000000000000000000000000000000000000000000000000020000000000000002000000000000000000000000000000000,
0000000200000000000000200000000000000000000000000000000000002000000000000000000010000000000000000000,
0000000000000000000000002000000000000000000200000000000000100000000000000000020000000000000000000000,
0000000000000000020000000000000000000000000000000000000000000000000000000000000200000000000000000000,
0000000000000000000200000000000000000000000000000000000000000000000000000000000000000000000000000000,
0000000000000000000000000000000001000000000000000000000000000000000000000000000000000000002000000000,
0000000000000000000000000000000000020000000000000000000000000000000000000000000000000000000020000000,
0000000000000000000000000000000002000000000000200000000000000000000000000000000000000000000000000000,
0000000000000000000000000000000100000000000000000000000000000000000020000000000000000002000000000000,
0200000000000000000000000000000000000000000000000000000000000000200000000000000000000000000000000002,
0000000000000000001000000000000000000000020000000000000002000000000000000000000000000000000000000000,
0000000000000000000000000000000000000000000000000000000010000000000000000000000000000000000000000000,
0000000000000200000000000000000000000000000000000000000000000100000000000000000000000000000000000000,
0000000000000000200000000000000000000000000000000000000000000000000001000000000000000000000000000000,
0000000100000000000000000000000000000000000000100000000000000000000000000000020000000000000000000000,
0000000000000000000000002000000000000000000000000020000000000001000000000000000000000000000000000000,
0000000000000000000000000000000000000000000000000000000000000000000000000000000020000000000000000000,
0000000000000000001000000000000000000000000000000000000000000000200000000000000000000000010000000000,
0000000000000000000000000000000000000200000000000000000000000000000000000000000000000000000000000000,
0010000000000000000000000000000000000000000000000000010000000000000000000000000000000000000000000000,
0000000000000000000000000000000000000000000000000000000000010000000000000000000000000000000000000000,
1000000000000000000000000000000000200000000000002000000000000000000000000000000000000000000000000000,
0000000000100000000000000000000200000000000000000000200000000000010000000000000000000000002000000000,
0000100000000000000000000000000000000000001000000000000000000000000000200000000000000000000000000000,
0000000000000000000000000000000000000000000000000000000000002000000000000000000000000000000000000020,
0000000000000000000000010000000000000000000020000000000000000000000000000000010000000000000000000000,
0000000000000001000000000000000000000000000000000000000200000000000000000010000000000000000000000000,
0000000000000000000000000000000000020000000000000001000000000000000000020000000000000000000000000000,
0000000000000000000000000000000000000000000000000000000000000000000000000000000000000000000001000000,
0000000000000000000000000002000000000000000000000000000000000000000000000000000000000000000000000000,
0000010000000000000000000002000000000000000000020000000000000000000000000000000000020000000000000000,
0000000000000000000001000000000000000000000000000000000000000000002000000000000000020000000000000000,
1000000000000000000000200000000000000020000000000000000000000000000000000000000000000000000000000100,
0000000000000000100000000000000000000000000000100000000000000000000000000000000000000000000000020000,
0000000000000000000020000000000000000000000000000000000000000000000000000000000000000000000000000020,
0000000000000000000000000000000000000000000000000001000000000000000000000000000000000000000000000000,
0000000000000000000000000000000000200000000000000000000000000000000000000000000000000000000010000000,
0000000000000000000000000000000001000000000000000000000000000000000000020000000000000000000000000000,
0000001000000000000000000000000000000000000010000000000000000100000000000000000000200000000000000000,
0200000000000000000000002000000000000000000000000000000000000000000000000000000000000200000000000010,
0000000000000000002000000000000000000000000000000000000001000000000000000000000000200000000000000000,
0000000000000000000000000000000000100000000000000000000000000000000000000020000000000000000000000000,
0000000000001000000000000000000000000000000000000000000000200000000000000000000000000000000000000000,
0000000000000000200000000000001000000000000000000000000000000000000000000010000000000000000000000000,
0000000000000001000000000000000000000000000000000000000100000000000000000000000000000100000000000000,
0000000000000000000000001000000000000000000010000000000000000000000001000000000000000000000000000000,
0000002000000000000000000002000000000000010000000000000000000000000000000000000000000002000000000000,
0000000000000000000000000000000000000000000000000000000000100000000200000000000000000000000000000200,
0000000000000000000000000000000000000000000000000000000000000000000000000000000000000000000000000000,
0000000000000000000000000000000000000000000000000000010000001000000000000000000000000000000100000000,
0100000000000000000000000000000000000000000000000000000200000000000000000000000000000000000000000000,
0000000002000000000000000000000000000000000000001000000000000000000100000000000000000000000000000000,
0000000000020000000000000000200000000000000000000000000000000000010000000000000000000000000000000000,
0000000000000000000000000000010000000000000000000000000000000000000000000000000000000000000000000000,
0000002000000000000001000000000000000000000000000000000000000000000000000000000100000000000000000000,
0000000000000000000000010000000000000000000000000000000000000000000000000000010000000000000000000000,
0000000000000000000000000000000000000000010000000000000000000200000000000000000000000000000000000000,
0010000000000000000000000000000010000000000000000000000000000000000000020000000000000000000000000000,
0000000000100000000000000000000000000000000000000010000000000000000000000000000000000000200000000000,
0000000000000000000000000020000000000000000000000000000000000000000000000001000000000000000000000000,
0000100000000000000000000000000000000000000010000000000000000000000000000000000000100000000000000000,
0000010000000000000000000000000000000000000000000000000000000000000000000000000000000000000000000001,
0000000000000000000000000000000000002000000000000000000000000000000000000000000000000200000000000000,
0000000000000000000000000000000000000000000000000000000000000010000000000000000000000000000001000000,
0000000000000000000000000000000001000000000000000000000000000000000100000000000000000000000000000000,
0000000000002000000000000000000000000002000000000100000000000000000000000000000000000000000000000000,
0000000000000000000000000000000000000000000000000000000000000000000010000000000000000000000000000000,
0000000000000000000000000000000000000000000000000002000000000000000000000000000000000000000000000000,
0000000000000000000000020000000000000000000000000000000000000000000000000000000000000010000000000000,
0000000000000000000000000000000000000000000000000000000000000000000000000000000200000000000000000000,
0000000000000000000000000000000000000000000000000000000000000000000000000000000000000010000000000000,
0000000000000000000000200000000000020000000000000000000000000000000000000100000000000000000000000000,
0000000000000000000000000000000000000000000000000000000000000000000000000000000000000000000100000000,
0000000000000000000000000000000000000000000000000000000000000000000001000000000000000000000000000000,
0000000000000000000000000000000000200000000000200000000000000000000000000000000000000100000000000000,
0000000000000000000000000000000020000000000000000000000000000000100000000000000000000000000000000000,
0020000000000000000000000000000000000000000200000000000000000000000000000000000020000000000000000000,
0000000000000000000002000000000000000000000000000000000000200000000000000000000000000000000000000100,
0000000000000000000000200000000000000000000000000000000000000000000000000000000002000000000000000000,
0000000000000020000000000000000000000000000000000000000000000000000000000000002000000000000200000000,
0000000000000000000000000000000002000000000000000010000000000000000000200000000000000000000000000000,
0000000001000000000000000000000001000000000000000000000200000000000000002000000000000000000002000000,
0000000000200000000000000020000000000000000000000000000000000000020000000000000000000000000000000000,
0000100000000000000000000000000000000000000000000000000000000000000000000000000000200000000000000000,
0000000000100000000010000000000000000000000000000000000000000000000000000000000000000000010000000010,
0000000000100000000000000000000000000020000000000000000000000000000000000000100000000000000000000000,
0000000000000000000000200000000000000000000000000000000000000000000000000000000000000000000200000000,
0000000000000000000000000000000000000000000000000000000000020000000000000000000000000000000000000000,
0000000000000000000000000000000000000000000000000000000000000000000000000000000000000000000000100000,
0000000000000001000000000001000000000000000000000000000000000000000000000000000000000000000000000000,
0000000000000000000000000000000000000000000000000000000000000000000000010000000000000000000000000000,
0000000000000000000000000000000000000000000000000000000000000000020000000000000000000000000000000000,
0000000000000000000000000020000000000000000000000000000000000002000000000000000000000000000000000000,
0000000000000000000000000000000000000000000200000000000000000000000000000000000000000000000000000000,
0000000000000000000000000000000000000000010000000000000000000000000000000000000000000000000000000000,
0000000000010000000000000000000000000200000000000010000000000000000000000000000000000000000000000000,
0000000001000000000000000000000000200000000000000002000000000000000000000000000000000000000000200000,
0000000000000000000000000000000000000000000001000000000000000000000000000000000000000000000000000000,
0000000020000000000000000000000000000000000000200000000000000000000000000000000000000000000000000000,
0000000000000000000000000000000000000000000000000000000000000000000000000000000000000000000000000000,
0000020000000000000000000000000000000000000000000000000001000000000000000000000000000000000000000000,
0000000000000000000000000000000000010000000000000000000100000000000000000000000000000000000000000000,
0000000000000000000000000000000001000000000000000000000000000000000000000000000000000000000000000000,
0000000000000000000000000000000000000000000000000000000000000000000100000000000000000000000000000000,
0000000000000000000000000000000000000000000000000000000000000000000000000000000000000000000000010000,
0000000000000000000000000000000010000000000000000000000000000000000000000000000000000000000000000000,
0000000000000000000000000000100000000000000000000000000000000000000000000000000000000000000000000000,
0000000000000000000000000000000000000000000000000000000000000000000000000000000000000001000000000000,
0000000000000000000000000000000000000000000000000000001000000000000000000000000000000000000000000000,
0000000000000000000000000000000000000000002000000000000000000000000000000000000000000000000010000000,
0000000000000000000000000000000000000000000000000000000000000000000000000000000000000000000000000001,
0000000000000000000000000000000000000000000000001000000000000000000000000000000000000000000000000000,
0000000000000000000000000000000000000000000000000000000000000000000000000000000000000000000100000000,
0000000000000000000000000000000000000000000000000000000000000000000000000000000000000000000000000000,
0000000000000000000000000000000000000000000020000000000000000000020000000000000000000000000000000001,
0000000000000000000000000000000000000000000000000000000000000000000000000000000000000000000000000002,
0000000000000000000000000000000000000000000000000000002000000000000000000000000000000000000000000000,
0000000000000000000000000000000000000000000000000000000000200000000000000000000000000000000000000000,
0000000000100000000000000000000000000000000000000100000000000000000000002000000000000000000000000000,
0000000000020000000000000002000000000000000000000000000000000000002000000000000000000000000000000000,
0000000000000000000000000000000000000000000000000000000000000000200000000000000000000000000000000000,
0010000000000000000000100000000000000000000000000000000000000000000000000000000000020000000000000000,
0020000000000000000000020000000000000001000000000000000000002000000000000000010000000000000000000000,
0000000000000000000000000000000000000000000000000000000000000000000000000000020000000000000000000000,
0000000000000000000000000000000000000000000000000000000000000000000000000000002000000000000000010000,
0000000000000020000000000000000000020000000000000000000000000000000000002000000000000000000000200000,
0000000000000000000000000000000000000000000000000000000000000000000100000000000000000000000000000000,
0100000000000000000000000000000000000000000000100000000000000000000000000000000000001000000000000000,
0000000000000000000000000000000000000000000000000000000000000010000000000000000000000000000000000000,
0200000000000000000000000000000000000000000000000000000000000000000000000000000000000002000000000000,
0000000000000000000000000000000000000000000000000000000002000000000000000000000000000000000000000000,
0000000000000000000020000000000000000000000000000000000000000000000000000000000000000000000000000000,
0000000000000100000000000000000000000000000000000000000000000000000000000000000000000000000000000000,
0000000000000000000000000000000000000000000000000000000000000000000002000000000000000000000000000000,
0000000100000000000000000000000000000000000000000000020000000000000000002000000000000000000000000000,
0000000000000000000000001000000000000000000000000000000000000001000000000000000000000000000100000000,
0010000000000000000000000000000000000000000000000000000000000000000200000000000020000000000000000000,
0000000000000000000000000000000000000000000000000000000000000000100000000000000000000000000000000000,
0000000000000000000000000000000000001000000000000000000000000000000000000002000000000000000000100000,
0000000000000010000000000000000000000000000000000000000020000000000000000000000000000000000002000000,
0000000000000000000000000000000000000000000000000000002000000000000000000000000000000000000000000000,
0000000000000002000000000000000000000000000000002000000000000000000000000000000000000000000000000000,
0000000002000000000000000100000000000000000000000000000000000000000200000000000000001000000000000000,
0000200000000000000000000000000000000000001000000000000000000000002000000000000000000000000000000000,
0000200000000000000010000000000000000000002000000000000000002000000000000000000000000000000000000020,
0000000000000000010000000000000000000020000000000000000000000000000000000000000000000000000000000000,
0000000000000002000000000000000000000000002000000000000000000000000000000000000000000000000000000000,
0000000000000000000000000000000000000000000000000000000000000000000000010000000000000000000000000000,
0000000000100000000000000000000000000000000000000000002000000000000000000000000000000000000000000000,
0000000000000000000000000000000000000000000000000000000020000000000000000000000000000000000020000000,
0000000000000000000000000000000000000000000000000000000000000000000000000000000000000000000000000000,
0000000000000000000000000000000000000000000000000000000000000200000000000000000000000000000000000000,
0000000000000000000100000000000000000010000000000000000000000000000000000000000000000000000000000000,
0000010000000000000000000000000000000000000000000000000010000000000000000000000000000000000000200000,
0000000000000000000000000000000000100000000000000000000000000000000000002000000000000000000000000000,
0000000000000000000000000000000000000000000000000001000000000000000000000000000000000000000000000000,
0000000000000000000000000000000000000000000000000000000000000000000100000000000000000000000000000000,
0000000200000000000000000000000000000000000001000000000000000000100000000000000000000100000000000000,
0000000000000000000000000000000000000000000000000000000000000020000000000000000000000000000000000000,
0000000000000000000000000000000000000000000000000000000000000000000000000000000100000000000000000000,
0000000000000000002000000000000000000000000000000000000000000000000000000000000000000000000000001000,
0000000000000000000000000000000000010000000000000000000000000000000000000020000000000000000000000000,
0000000000001000000000000000000000000000000000000000000000000000000000000000000000000000000001000000,
0000000000000000000000000000000000000000000000000000000000000000000000000000000000000000000000000000,
#END
COURSE:2
LEVEL:6
#START
#SCROLL 0.8
0000000000000100000000000000000000000000000000000000000000000000000000000000000000000000020000000000,
0000000000000000000000000000020000000000000000000000000000000000000000200000000000000000001000000000,
0000000000200000000000000000020000000000000000200000000000000000002000000000000000000020000000000000,
0000000000000000000000000200000000000000000000000000000000000000000000000000000000000000000000000000,
0200000000000000000000000000000000000000002000000000000000000000000000000000000000020000000000000000,
0100000000000000000000200000000000000000020000000000000000200000000000000000002000000000000000002000,
0000000000000000000000000000000000001000000000000000000000000000000000000000000000000000000000000000,
0000000000020000000000000000000000000000000000000000200000000000000000000000000000000000000002000000,
0000000000000010000000000000000002000000000000000000200000000000000002000000000000000000002000000000,
0000000002000000000000000000000000000000000000001000000000000000000000000000000000000001000000000000,
0000000000000000000000000200000000000000000000000000000000000000020000000000000000000000000000000000,
0000000200000000000000000100000000000000000002000000000000000000200000000000000002000000000000000000,
0200000000000000000020000000000000000000000000000000000000010000000000000000000000000000000000000020,
0000000000000000010000000000000000000000000000000000000000000000000000000000100000000000000000000000,
0000000000000000000000000000000000000000000000000000001000000000000000000000000000000000000000000000,
0000000000000000000000000000000002000000000000000000000000000000000000020000000000000000000000000000,
0000000000000000000000000000000000000000000000000000000000000000000000000000000000000001000000000000,
0000000000000000000000000000000000000000000000000000000000000000001000000000000000000000000000000000,
0000000020000000000000000000000000000000000010000000000000000002000000000000000000020000000000000000,
0000000000000000000000000000000000000000010000000000000000000000000000000000000000000000000000000000,
1000000000000000000000000000000000000000000000000000000000000000000000000000001000000000000000000000,
0000000000000000000000000000000000000000000000000000000010000000000000000000000000000000000000100000,
0000000000000000000000000000000000200000000000000000000000000000000000000200000000000000000002000000,
0000000000020000000000000000000000000000000000000000000000000000000000000000000000000000020000000000,
0000000000000000000000000000020000000000000000000000000000000000000100000000000000000020000000000000,
0000000100000000000000000000000000000010000000000000000000000000000000001000000000000000000000000000,
0000000000200000000000010000000000000000000000000000000000000000000000000000000000000002000000000000,
0000000000000000000000000000000000000000000000000000000000000000000000000000000200000000000000000000,
0000000000000000000000020000000000000000000000001000000000000000000000000000000000000000000000000000,
0000000000000000000000020000000000000000000000000000000000002000000000000000000000000000000000000000,
0000000000001000000100000000000000000000000000000000000000000000000000000000000000000000001000000000,
0000000000000000000000000000001000000000000000000000000000000020000000000000000000000000000000010000,
0000000000000000000000000000000000200000000000100000000000000000000001000000000000000000000200000000,
0000000000200000000000000100000000000000000000000001000000000000000000020000000000000000000000000000,
0010000000000000000000000000000200000000000000000000000000000000002000000000000001000020000000000000,
0000002000000000000000000000000000000000000000000000000000000200000000000000000000002000000000000000,
0000100000000000000000000000000000000010000000000000000000000000000000000000000000000000000000000000,
0000000000000000002000000000000001000000000000000000020000000000000000000000200000000000000000000020,
0000000000000000000000000000000100000000000000000000000000000000000000200000000000000000000000100000,
0000000000000000000000000000000000000000000000001000000000000000000000200000000000000002000000000000,
0000000000000000000000000002000000000000000000020000000000000000010000000000000000000001000000000000,
0000010000000000000000001000000000000000000200000000000000000000000002000000000000000020000000000000,
0000010000000000000000000000000000000000000100000000000000010000000000000000000000200000000000000002,
0000000000000000000000000000000000000200000000000000000000000020000000000000020000000000000000000020,
0000000000000000002000000000000000000000000000000000002000000000000000000000000000000000000001000000,
0000000000000000002000000000000000000000000000000000000001000000000000000000000000000000000000002000,
0000000000200000000000000000000000000000000000000000000000000000000000020000000000000000000000000000,
0000000010000000000000000000000000000000000000000020000000000000002000000000000000000000000200000000,
0000020000000000000000000000000000000000000000000020000000000000002000000000000000010000000000000000,
0000000200000000000000200000000000000000000000200000000000002000000000000000000010000000000000000001,
0000000002000000000000002000000000000000000200000000000000100000000000000000020000000000000000000000,
0200000000000000020000000000000000000000000100000000000000000000000000000000000200000000000000000000,
0000000000000000000200000000000000000000000000000000000000002000000000000000000000000000000000000000,
0000000000020000000000000000000001000000000000000000000000000000010000000000200000000000002000000000,
0000000000000002000000000000000000020000000000000000002000000000000000000002000000000000000020000000,
0000001000000200000000000000000002000000000000200000000000000000000020000000000000000000000000000000,
0000000000000000000000000000000100000000000002000000000000000000000020000000000000000002000000000000,
0200000000000000000000000000000000000000000000020000000000000000200000000000000000000200000000000002,
0000000000000000001000000000000000000000020000000000000002000000000000000000000002000000000000000000,
0002000000000000000200000000000000100000000000000000000010000000000000000020000000000000000000000000,
0000000000000200000000000000000000000000000000000000100000000100000000000000001000000000000000000000,
0000000000000000200000000000010000000000000000000000000000000000000001000000000000000000000000000000,
0000000100000000000000000010000000000000000000100000000000000000000000000000020000000000000000000000,
0000000000000200000000002000000000000000000000000020000000000001000000000000000000000000000000000000,
0000000000000000000000000000000000000000000000000000000000000000000000000000000020000000000000000000,
0000000000000000001000000000000000000000000000000000000000000000200000000000000000000000010000000000,
0000000000000000010000000000000000000200000000000000000000000000001000000010000000000000000000000000,
0010000000000000000000000000000000000000000000000000010000000000000000000000000000000000000000000000,
0000000000000000000000000000000100000000000000000000000000010000000000000000000000000000000000000000,
1000000000000000000000000000000000200000000000002000000000000000000000000020000000000000000000000000,
0000000000100000000000000000000200000000000000000000200000000000010000000000000000000000002000000000,
0000100000000000000000000000000000000000001000000000000000000000000000200000000000200000000000000000,
0000000000000000000000000020000000000000000000200000000000002000000000000000000000000000000000000020,
0000000000000000000000010000000000000000000020000000000000000000000000000000010000000000000000000000,
0000000000000001000000000000000000000000000000000000000200000000000000000010000000000000000002000000,
0000000000000000000000000000000000020000000000000001000000000000000000020000000000000000000100000000,
0000000000100000000000000000000000001000000000000000000000000000000000000000000000000000000001000000,
0000000000000000000000000002000000000000000000100000000000000000002000000000000000000000000000000000,
0000010000000000000000000002000000000000000000020000000000000010000000000000000000020000000000000000,
0000000000000000000001000000000000000000000002000000000000000000002000000000000000020000000000000000,
1000000000000000000000200000000000000020000000000000000000000000000000000000002000000000000000000100,
0000000000000000100000000000000000000000000000100000000000000000000000000000000002000000000000020000,
0000000000000000000020000000000001000000000000000000000002000000000000000000000000000000000000000020,
0000000000010000000000000000000000000000000000000001000000000000000000000000000000000000100000000000,
0000000000000000000000000000000000200000000000000000000000200000000000000000000000000000000010000000,
0002000000000000000000000000000001000000000020000000000000000000000000020000000000000200000000000000,
0000001000000000000000000010000000000000000010000000000000000100000000000000000000200000000000000000,
0200000000000000000000002000000000000000100000000000000000000000200000000000000000000200000000000010,
0000000000000000002000000000000000000000000000000000000001000000000000000000000000200000000000000000,
0000002000000000000000000000000000100000000000000000000000000000000000000020000000000000000000000000,
0000000000001000000000000000000000000020000000000000000000200000000000000000000000000000000000020000,
0000000000000000200000000000001000000000000000000000000000000000000000000010000000000000000000000000,
0000000000000001000000000000000000000000000000000000000100000000000000000000000000000100000000000000,
0000000000002000000000001000000000000000000010000000000000000000000001000000000000000000000000000000,
0000002000000000000000000002000000000000010000000000000000000000000000000000000000000002000000000000,
0000000000000000000000000000000000000000000000000000000000100000000200000000000000000000000000000200,
0000000000000000000000000000000000000000000000000000000000000002000000000010000000200000000000000000,
0000000000000001000000000000000000000000000000000000010000001000000000000000000000000000000100000000,
0100000000000020000000000000000000000200000000000000000200000000000000000000000000000000000000000000,
0000000002000000000000000000000000000000000000001000000000000000000100000000000000000010000000000000,
0000000000020000000000000000200000000000000001000000000000000000010000000000000000000000000000000000,
0000000000100000000000000000010000000000000000000000000000000000000200000000000000000000000000000000,
0000002000000000000001000000000000000000000000000000000000000000000000000000000100000000000000000002,
0000000000000000000000010000000000000000000000000000000010000000000000000000010000000000000000000000,
0000000000000000100000000000000000000000010000000000000000000200000000000000000000000000000001000000,
0010000000000000000000000000000010000000000000000000000000000000000000020000000000000000001000000000,
0000000000100000000000000000000000000000000000000010000000000000000000000000000000000000200000000000,
0000000000000000000000000020000000000000000000000000000000000000000000000001000000000000000000000000,
0000100000000000000000000000000000000000000010000000000000000000000000000000000000100000000000000000,
0000010000000000000000000000020000000000000000000000000000000100000000000000000000000000000000000001,
0000000000000000000000000000000000002000000000000000000000000000000000000000000000000200000000000000,
0000000001000000000000000000000000000000000000000000000000000010000000000000000000000000000001000000,
0000000000000000000200000000000001000000000000000000000000000000000100000000000000000000000000000000,
0000000000002000000000000000000000000002000000000100000000000000000000000000010000000000000000000000,
0000000000000000000000000000100000000000000000000000000000000000000010000000000000000000000000000000,
0000010000000000000000000000000000000000000000000002000000000000000000000000000000000000000000000000,
0001000000000000000000020000000000000000000000000200000000000000000000000000000000000010000000000000,
0000000000000000000000000000000000000000200000000000000000000000000000000000000200000000000000000000,
0000000000000000002000000000000000000000000010000000000001000000000000000000000000000010000000000000,
0000000000000000000000200000000000020000000000000000000000000000000000000100000000000000000000000010,
0000000000000000000000000000000000002000000000000000000000000000000000000000000000000000000100000000,
0000000000000000000000000000000000000000000000000000000002000000000001000000000000000000000000000000,
0000000000000000000000000000000000200000000000200000000000000000000000000000000000000100000000000000,
0000000000000000000000000000000020000000000000020000000000000000100000000000000000000000000000000000,
0020000000000000000000000000000000000000000200000000000000000000000000000000000020000000000000000000,
0000000000000000000002000000000000000000000000000000000000200000000000000000000000000000000000000100,
0000000000000000000000200000000000000000000000000000000000000000000000000000000002000000000000000000,
0000000000000020000000000000000000000000000000000000020000000000000000000000002000000000000200000000,
0000000000000000000000000000000002000000000000000010000000000000000000200000000000000000000000000000,
0000000001000000000000000000000001000000000000000000000200000000000000002000000000000000000002000000,
0000000000200000000000000020000000000000000000000002000000000000020000000000000000002000000000000000,
0000100000000000000000000000000002000000000000000000000000000010000000000000000000200000000000000000,
0000000000100000000010000000000000000000000000000000000000000000000000000000000000000000010000000010,
0000000000100000000000000000000000000020000000000000000020000000000000000000100000000000000000000000,
0000000000000001000000200000000000000000000000000000000000000000000000000000000001000000000200000000,
0000000000000000000010000000000200000000000000000000000000020000000000000000002000000000000000200000,
0000000000000000000000000000000000000000000000000000000000000000000000000000000000000000000000100000,
0000000000000001000000000001000000000000000000000000000000000000000000000000000000000000000000000000,
0000000000000000000000000000000000000000000000000000000000000000000000010000000000000000000000000000,
0000000000000000000000000000000000000000000000200000000000000000020000000000000000000000000000000000,
0000000000000000000000000020000000000010000000000000000000000002000000000000000000000000000000000000,
0000000000000000000000000100000000000000000200000000000000000002000000000000000010000002000000000000,
0000000000000000000020000000000000000000010000000000000000000000000000000000000200000000000000000000,
0000000000010000000000000000000000000200000000000010000000000000000000000000000000000000000000000000,
0000000001000000000000000000000000200000000000000002000000000000000000000000000000000000000000200000,
0000000000000000000000000000000000000000000001000000000000000000000000000000000000000000000000000000,
0000000020000000000000000000000000000000000000200000000000000020000000000000000000000000000000000000,
0000000000000000000002000000000000000000000000020000000000000000000100000000000000000000000000000000,
0000020000000000000000000000000000000000000000000000000001000000000000000000000000000000000000000020,
0000000000000000002000000000000000010000000000000000000100000000000000000010000000000000000000100000,
0001000000000000000000000000000001000000000000000000002000000000000000000000000000000000000000000000,
0000000000000002000000000000000000000010000000000000000000000000000100000000000000000000000000000000,
0000000100000000000000000000000000000000000000000000200000000000000000000000000000000100000000010000,
0000000000000000000000000000000010000000000000000000010000000000000000200000000000000000000000000000,
0000000000000000000000000000100000000000000000000020000000000000000200000000000000000000000000000000,
0000000000000000000000000000000000000000000000000000000000000000000000000000000000000001000000000000,
0000000000000000000000000000000000000000000000000000001000000000000000000000000000000000000000000000,
0002000000000000000000000000000000000000002000000000000000000000000000000000000000000000000010000000,
0000000000000000000000000000000000000000000000000000000000000000000000000000000000000000000000000001,
0000000020000000000000000000000000000000000000001000000000000000000000000000000000000000000000000000,
0000000000000000000000000002000000000000000000000200000000000000000000000000000000000000000100000000,
0000000000000000000000000000000000000000000100000000000000000000002000000000000000000000000000000000,
0000002000000000000000000000000000000000000020000000000000000000020000000000000000000020000000000001,
0000000000000000000000000000000000000000100000000000000000000000000000000000000000200000000000000002,
0000000000000020000000000000000000000000000000000000002000000000000000000000000000000000000000000000,
0000000000000000000000000000000000000000000000000000000000200000000000000000000000000000000000000000,
0000000000100000000000000000000000000000000000000100000000000000000000002000000000000000200000000000,
0000000000020000000000000002000000000000000000000000000000000000002000000000000000000000000000000000,
0000000000000000000000000000000000000000000000000000000000000000200000000000000000000000000000000000,
0010000000000000000000100000000000000000000000000000000000000000000000000000000000020000000000000000,
0020000000000000000000020000000000000001000000000000000000002000000000000000010000000000000000000000,
0000000000000000100000000000000000000000000000000000000000020000000000000000020000000000000000000000,
0000000000000000000000000000000000000000000000000000002000000000000000000000002000000000000000010000,
0000000000000020000000000000000000020000000000000000002000000000000000002000000000000000000000200000,
0000000000000000000000000000000000000000000000000000020000000000000100000000000000000000000000000000,
0100000000000000000000000000000000000000000000100000000000000000000000000000000000001000000000000000,
0000000000001000000000000000000000000000000000000000000000000010000000010000000000000000000000000000,
0200000000000000000000000000000000000000100000000000000000000000000000000000000000000002000000000000,
0000000000000000000000000000000000000000000000000000000002000000000000000000000000020000000000000000,
0000000000000000000020000000000000000000000000000000000000000000000000000000000200000000000000000000,
0000000000000100000000000000000000000000000000000000000000000000000000000000000010000000000000000000,
0000000000000000000000200000000000000000000000000000000200000000000002000000000000000000000000000000,
0000000100000000000000000000000000000000000000000000020000000000000000002000000000000010000000000000,
0000000000000000000000001000000000000000000000000000000000000001000000000000000000000000000100000000,
0010000000000000000000000002000000000000001000000000000000000000000200000000000020000000000000000000,
0000000000000000000200000000000000000000000000000000000000000000100000000000000000000000000000000100,
0000000000000000000000000000000000001000000000000000000000000000000000000002000000000000000000100000,
0000000000000010000000000000000000000000000000000000000020000000000000002000000000000000000002000000,
0000000000000000000000000000000200000000000000000000002000000000000000000000000000000000000000000000,
0000000000000002000000000000000000000000000000002000000000000000000000000000000000000000000000000000,
0000000002000000000000000100000000000000000000000000000000000000000200000000000000001000000000000000,
0000200000000000000000000000000000000000001000000000000000000000002000000000000000000020000000000000,
0000200000000000000010000000000000000000002000000000000000002000000000000000000000000000000000000020,
0000000000000000010000000000000000000020000000000000000000000000000000000000000000000000000000000000,
0002000000000002000000000000000000000000002000000000002000000000000000000000000000000000000000000000,
0000000000000000000000000000000010000000000000000000000000000000000000010000000000000000000000000000,
0000000000100000000000000000000000000000000000000000002000000000000000000000000000000000000000000000,
0000000000000000000000000000000000000000000000000000000020000000000000000000000000000000000020000000,
0000000000000000000000000000000000000000000000000000000000000000000000000000000000000000000000000000,
0000000000000000000000000000000000000000000000000000000000000200000000000000000000000000000000000000,
0000000000000000000100000000000000000010000000000000000000000200000000000000010000000000000000000000,
0000010000000000000000000000000000000000000000000000000010000000000000000000000000000000000000200000,
0000000000000000000000000000000000100000000000000000000000000000000000002000000000000000000000000000,
0000000000000000000000000000000000000000000000000001000000000000000000000000000000000000020000000000,
0000000000000000000000000000000000000000000000000000000000000000000100000000000000000000000000000000,
0000000200000000000000000000000000000000000001000000000000000000100000000000000000000100000000000000,
0000000000000000000000000000000000000000000000000000000000000020000000000000000000000000000000000000,
0200000000000000000000000000000000000000000000000000000000000000000000000000000100000000000000000000,
0000000000000000002000000000000000000000000000000000000001000002000000000000000000001000000000001000,
0000000000000000000000000000000000010000000000000000000000000000000000000020000000000000000000000000,
0000000000001000000000000000000000000000000000000000000000000000000000000000000000000000000001000000,
0000000000000000000000000000000000000000000000000000000000000000000000000000000000000000000000000000,
#END
COURSE:3
LEVEL:8
#START
#SCROLL 0.9
0000000100000100000000000000000000000000000000000000002000000000000000000000000000000000020000000000,
0000000000000000000000000000020000000000000000000000000000000000000000200000000000000000001000000000,
0000000000200000000000000000020000000000000000200000000000000000002000000000000000000020000000000000,
0000000000000000000000000200000000000000000000000000000000000001000000000000000000000000000000000000,
0200000000000000000000000000000000000000002000000000000000000000000100000000000000020000000000000000,
0100000000000000000000200000000000000000020000000000000000200000000000000000002000000000000000002000,
0000000000000000000000000000000000001000000000000000000000000000000000000010000000000000000000000000,
0000000000020000000000000000000000000000000000000000200000000000000000000000000000000000000002000000,
0000000000000010000000000000000002000000000000000000200000000000000002000000000000000000002000000000,
0000000002000000000000000000000000000000000000001000000000000000000000000000000000000001000000000000,
0000000000000000000000000200000000000000000000000000000000000000020000000000000000000000000100000000,
0000000200000000000000000100000000000000000002000000000000000000200000000000000002000000000000000000,
0200000000000000000020000000000000000000000000000000000000010000000000000000000000000000000000000020,
0000000000000000010000000000000000000000000000000000000000000000000000000000100000000000000000000000,
0000000000000000020000000000000000000000000000000000001000000000000000000000000000000000000000000020,
0000000000000000000000000000000002000000000000000000000000000000000000020000000000000000000000000000,
0000000000000000000000000200010000000000000000000200000000000000000000000000000000000001000000000000,
0000000000000000000000000000200000000000000000000000000000000000001000000000000000000000000000000000,
0000000020000000000000000000000000000000000010000000000000000002000000000000000000020000000000000000,
0000000000000000000000000000000000000000010000000000000000000020000000000000000000000000000000000000,
1000000000000000000000000000000000000002000000000000000000000000000000000000001000000000000000000000,
0000000000000000000200000000000000000000020000000000000010000000000000000000000000000000000000100000,
0000000000000000000000000000000000200000000000000000020000000000000000000200000000000000000002000000,
0000000000020000000000000000000001000000000000000000000000000000000000000000000000000000020000000000,
0000000000000000000000000000020000000000000000000000000000000000000100000000000000000020000000000000,
0000000100000000000000000000000000000010000000000000000000000001000000001000000000000000000000000000,
0000000000200000000000010000000000000000000000000000000000000020000000000000000000000002000000000000,
2000000100000000000000000000000000000000000002000000000000000000000000000000000200000000000000000000,
0000020000000000002000020000000000000000000000001000000000000000000000000000010002000000000000000000,
0000000000000000000000020000000000200000000000000000000000002000000000000000000000000000000000000200,
0000000000001000000100000000000000000000200000000000000000000000000000000000000000000000001000000000,
0000000001000000020000000000001000002000000000000000000000000020000000000000000000000001000000010000,
0000000000000000000000000000000000200000000000100000000000000000000001000000000000000000000200000000,
0000000000200000000000000100000000000000000000000001000000000000000000020000000000000000000000000000,
0010000000000000000000000000000200000000000000000000000000000000002000000000000001000020000000000000,
0000002000000000000020000000000000000002000000000000000000000200000000000000000000002000000000000000,
0000100000000000002000000000000000000010000001000000000000000000000000000000200000000000000000000000,
0000000000000000002000000000000001000000000000000000020000000000000000000000200000000000000000000020,
0000000000010000020000000000000100000000000000000000000000000000000000200000000000000000000000100000,
0000000000000000000000000000000200000000000000001000000000000000000000200000000000000002000000000000,
0000000200000000000000000002000000000000000000020000000000000000010000000000000000000001000000001000,
0000010000000000000000001000020000000000000200000000000000000000000002000000000000000020000000000000,
0000010000000000000000000000000000000000000100000000000000010000000000000000000000200000000000000002,
0000000000000000000000002000000000000200000100000000000010000020000000000000020000000000000000000020,
0000000000000000002000000000000000010000020000000000002000000000000000000000000000000000000001000000,
0000000000000000002000000000000000000000000000000000000001000000000000000000000000000000000000002000,
0000000000200000000000000000000000020000000000000020000020000000000000020000000000000000200002000000,
0000000010000000000000000000000002000000000000000020000000000000002000000000000000000000000200000000,
0000020000000000000000000020000000000000000000000020000000000000002000000000000000010000000000000000,
0000000200000000000000200000000000000000000000200000000000002000000000010000000010000000000000000001,
0000000002000000000000002000000000000000000200000000000000100000000000000000020000000000000000000000,
0200000000000000020000000000000000010000000100000000000000020000000000000000000200000000000000000000,
0200000000000000000200000000000000000000000000000000000000002000000000000100000020000000000000000002,
0000000000020000000000000000000001000000000000000000000002000000010000000000200000000000002000000000,
0000000000000002000000000001000000020000000000000000002000000000000000000002000000000000000020000000,
0000001000000200000000000000000002000000000000200000000000000000000020000000000000002000000000000000,
0001000000000000000000100000000100000000000002000000000000000000000020000000000001000002000000000000,
0200000000000000000000001000000000000000200000020000000000000000200000000000000000000200000000000002,
0000000000000000001000020000000000000000020000000000000002000000000000000000000002000000000000000000,
0002000000000000000200000000000000100000000000000000000010000000000000000020000020000000000001000002,
0000000000000200000000000000000000000020000000000000100000000100000000000000001000000000000000000200,
0000000000000000200000000000010000000200000000000000020000000000000001000000000000000000000010000000,
0000000100000020000000000010000000000000000000100000000000000000000000000000020000000000000000000000,
0000100000000200000000002000000000000000000000000020000000000001000000000000000000000000020000000000,
0002000000000000000000000020000000000000000000010000000000000000000000000000000020000000000000000000,
0000000000000000001000000000000000000000000000200000000000000000200000000000000100000000010000000000,
0000000000000000010000000000000000000200000000000000000000000000001000000010000000000000000000000000,
0010000000000000000000000000000000000000010000000000010000010000000000000000000000000000000000000000,
0000000000000000000000000000000100000000000000000000000000010000000001000000002000000000000000000000,
1000000000000000000000000000000000200000000000002000000000000000000000000020000000000002000000000000,
0000000000100000000000000000000200000000000000000000200000000000010000000000000000000000002000000000,
0000100000000000000000000000000000000000001000000000000000000000000000200000000000200000000000000000,
0000200000000000000010000020000000000000010000200000000000002000000000000000000020000000000000000020,
0000000000000000000000010000000000000000000020000000000000200000000000000000010000000200000000000000,
0000000000000001000000000000000000000000000000000000000200000000000000000010000000000000000002000000,
0000000000000002000000000000000000020000000000000001000000000000000000020000000000000000000100000000,
0000000000100002000000000000000000001000000000000000000000000000000000000200000000000000000001000000,
0000000000000000000000000002000000000000000000100000000000000000002000000000000000000000000200000000,
0000010000000000000000000002000000000000000000020000000000000010000000000000000000020000000000000000,
0010000000000000000001000000000000000000000002000000000000000000002000000000000000020000000000000000,
1000002000000000000000200000000000000020000000000000000000000000000000000000002000000000000000000100,
0000000000000000100000000000000000000000000000100000000000000000000000000001000002000000000000020000,
0000000000000000000020000000000001000000000000000000000002000000000000000000000000000000000000000020,
0000000000010000000000000000000000000000000000000001000000000000000000000000000000000000100000000000,
0000000000000000000000000000000000200000000000000000000000200000000000000000000000000000000010000000,
0002000000000000000000000000000001000000000020000000000000000000000000020000000000000200000000000000,
0000001000002000000000000010000002000000000010000000000000000100000000010000000000200000000000000000,
0200000000000000000000002000000000000000100000000000000000000000200000000000000000000200000000000010,
0000000000000000002000000000000000000000000020000000000001000000000000000000000000200000000000000000,
0000002000000000000002000000000000100000000000000000000000000000000000000020000000000000000000000000,
0000000000001000000000000000000000000020000000000000000000200000000000000000000000000000000000020000,
0000000000100000200000000000001000000000000000000000000000000000000000000010000000000000000000000000,
0000000000000001000000000000000000000000000000100000000100000000000000000000000000000100000002000000,
0000000000002000000000001000000000000000000010000000000000000000000001000000000000000000000000000000,
0000002000000000000000000002000000000000010000000000000000000000000000000000001000000002000000000000,
0000000000000000000000000000000000000000000000000000000000100000000200000000000000000000000000000200,
0000000000000000000000000000000000002000000000000000000000000002000000000010000000200000000000000002,
0000000000000001000000200000000002000000000000000000010000001000000000000000000000000000000100000000,
0100000000000020000000000000000000000200000000000000000200000000000000010002000000000000000000000000,
0000000002000000000000000000000000000000000000001000000000000000000100000000000000000010000000000000,
0000000000020000000000000000200000000000000001000000000000000000010000000000000000000000000000000000,
0001000000100000000000000000010000000000000000001000000000000000000200000000000002000000000000000000,
0000002000000000000001000000000000000000000000000010000000000000000000000000000100000000100000000002,
0000000000000000000000010000000000000000000000000000000010000000000000000000010000000000000000000000,
0000000000000000100000000000000000000000010000000000000000000200000000000000000000000000000001000000,
0010000000000000000000000000000010000000020000000000000002000000000000020000000000000000001000000010,
0000000000100000000000000000000000000000000000000010000000000000000010000020000000000000200000000000,
0000000000000000000000000020000000000000000000000000000000000000000000000001000000000000000000000000,
0000100000000000000000000000200000000000000010000001000000000000000000000000000000100000000000000000,
0000010000000000000000000000020000000000000000000000000010000100000000000000000000000000000000000001,
0000000000000000000000000000000000002000000000000000000000000200000000000000000000000200000000000000,
0000000001000000000000000000000000000002000000000000000000000010000000000000000000000000000001000000,
0000000000000000000200000000000001000002000000000000000000000000000100000000000000000000000000000000,
2000000000002000000000000000000000000002000000000100000000000000000000000000010000000000000000000000,
0000000000000000000000000000100000000200000000000000000000000000000010000000000000000000000000000000,
0000010000000000000000000000000000000000000000000002000000000000000000002000000000000000000000000000,
0001000000000000000000020000000000000000000000000200000000000020000000000000000000000010000000000000,
0200000000000000000000002000000000000000200000000000000000000000000000000000000200000000000000000000,
0000000000000000002000000000000000000000000010000000000001000000020000000000000000000010000000000000,
0000000000000000000000200000000000020000000000000000000000020000000000000100000000000000000000000010,
0000000000000000000000000000000000002000000000000000200000000000000000000000020000000000000100000000,
0000000000000000000000000000000000000000000000000000000002000000000001000000000000000000000010000000,
0000000020002000000000000010000000200000000000200000000000000000000000000000000000000100000000000000,
0000000100000000000000000000000020000000000000020000000000000000100000000000000000000000000000000000,
0020000000000000000000000000000000000000000200000000000000000020000000000000000020000000000000000000,
0000000000000000000002000000000000000002000000000000000000200000000000000000020000000000000000000100,
0000000000000000000000200000000000000000000000000000000000000000000000000000000002000000000000000000,
0000000000000020000000000000000000000000000000000000020000000000000000000000002000000000000200000000,
0000000000000000000000000000000002000000000000000010000000000000000000200000000000000000020000000000,
0000000001000000000000000000000001000000000000000000000200000000000000002000000000000010000002000000,
0000000000200000000000000020000000000000000000000002000000000000020000000000000000002000000000000000,
0000100000000000000000000000000002000000000000000000000000000010000000000000000000200000000000000000,
0000000000100000000010000000000000000000000000001000000000000000000000000000000000000000010000000010,
0000000000100000000000000000000000000020000000000000000020000000000000000000100000000000000000000000,
0000000000000001000000200000000000000000000000000200000000000000000000000000000001000000000200000000,
0000000000000000000010000000000200000000000000000000000000020000000000000000002000000000000000200000,
0000000000000000000200000000000000000000000000000000000000002000000000000000000000000000000000100000,
0000000000000001000000000001000000020000000000000000000000000000000000000020000000000010000000000000,
0000000010000000000000000000000000010000000000000000000000000000000000010000000000000000000200000000,
0000000000000000000000000000000020000000000000200000000000000000020000000000000000000000000000000001,
0000000200000000000000000020000000000010000020000000000000000002000000000000000000000200000000001000,
0002000000000000000000000100000000000000000200000000000100000002000000000000000010000002000000000000,
0000000000000000000020000000000000000000010000000000000000000000000000000000000200000000000000000000,
0000000000010000000000000000000100000200000000000010000000000000000000000000000000000000000000000000,
0000000001000000000000000000000000200000000000000002000000000000000000000000000000000000000000200000,
0000000000000000000000000000000000000000000001000000000000000000020000000000000000000000000000000000,
0000000020000000000000000000000000000000000000200000000000000020000000000000000000000000000000000000,
0200000000000000000002000000000000000000000000020000000000000000000100000000000000020000000000000000,
0000020000000000000200000000000000000000000000000000000001000000000000000000200000000000000000000020,
0000000000000000002000000000000000010000000000000000000100000000000000000010000000000000000000100000,
0001000000000200000000000000000001000000000000000000002000000000000000000000000000000000000000000000,
0000000000000002000000000000001000000010000000000000000000000000000100000000000000000000002000000000,
0000000100000000000000000000000000000000000000000000200000000000000000000020000000000100000000010000,
0000000000000000000000000000000010000000001000000000010000000000000000200000000000000020000000000000,
0000000020000000000000000000100000000000000000000020000000000000000200000000000100000000100000000000,
0000002000000000000000010000000000000000000000000000000002000000000000000000000000000001000000000200,
0000000000000000000000000000000000000000000000000000001000000000000000000000000000000000000000000000,
0002000000000000000000000000000000000000002000000000000000000000000000000000000000000000000010000000,
0000000000002000000000000000000000000000000000000000000010000200000000000000000000000000000000000001,
0000000020000000000000000000000000000000000000001000000000000020000000000000000000000001000000000000,
0000000001000000000000000002000000000000000000000200000000000000000000200000000000000000000100000000,
0000000200000000000000000000200000000000000100000000000000000000002000000000000000100000000000000000,
0000002000000000000002000000000000000000000020000000000000000000020000000000000000000020000000000001,
0000000000000000000000002000000000000000100000000000000000000200000000000000000000200000000000000002,
0000000000000020000000200000000000000020000000000000002000000000000000000000000020000000000002000002,
0000000000000000000000000000000020000000000000000000000000200000000000000000000000000000000000020000,
0000000000100000000000001000000000020000000000000100000000000000000000002000000000000000200000000000,
0000000000020000000000000002000000200000000000000200000000000000002000000000000000000000002000000000,
0000200000000000000000000000000000000000000020000000000000000000200000000000000000000000020000000000,
0010000000000000000000100000000000000000000000000000000000000100002000000000000000020000000000000000,
0020000000000000000000020000000000000001000000000000000000002000000000000000010000000000000000000000,
0002000000000000100000000000000000000002000000000000000000020000000000000000020000000000000000020000,
2000000000000000000000000000000000010000000000000000002000000000200000000000002000000000000000010000,
0000000000000020000000000000000000020000000000000000002000000000000000002000000000000000000000200000,
0000000000000000000000000000000000200000000000000000020000000000000100000000000000000000000000000000,
0100000000000000000000000000000000020000000000100000000000000000000000000000000000001000000000000000,
0000000000001000000000010000000000000000000000000020000000000010000000010000000000000000000000000000,
0200000000000000000000000000000000000000100000000000000000000000000000000000010000000002000000000000,
0000000200000000000000000000000000000010000000000000000002000000000000000000000000020000000000020000,
0000000000000000000020000000000000002000000000000000000002000000000000000100000200000000000000000000,
0000000000000100000000000000000000000000000000000002000000000000000000200000000010000000000100000002,
0000000000000000000000200000000000000000000000000000000200000000000002000000000000000000000000020000,
0000000100000000000000000000000000000000000000000000020000000000000000002000000000000010000000000000,
0000000000020000000000001000000000000000000000000000000000000001000000000000000000000000000100000000,
0010000000000000000000000002000000000000001000000000000000000000000200000000000020000000000000000000,
2000000000000000000200000000000000000000000000000000000000000000100000000000000200000000000000000100,
0000000000000000000000000000000000001000000000000000000000000000000000000002000000000000000000100000,
0000000000000010000000000000000000000000000000000000000020000000000000002000000000000000000002000000,
0000000000000000000000000000000200000000000000000000002000000000000000000000000000000000000000000000,
0000000000000002000000000000000000000000000000002000000000000000000000000000000000000002000000000000,
0000000002000000000000000100000000000000000000000000000000000000000200000000000000001000000000000000,
0000200000000000000000000000000000000000001000000000000000000000002000000000000000000020000000000000,
0000200000000000000010000020000000000000002000000000000000002000000000000000000000000000000000000020,
0000000000000000010000000000000000000020000000000000000000000000002000000000000000000000000000000000,
0002000000000002000000000000000000000000002000000000002000000000000000000000000000000000000000000000,
0000000000000000000200000000000010000100000000000000000000000000000000010000000200000000000000000000,
0000000000100000000020000000000000000200000000000000002000000000000000000000002000000000000000000000,
0000000000000200000000000000000000000000000000000000000020000000000000000000000000000000000020000000,
0000000000000000000000000000000000000000000000000002000000000000000000000000000000000000200000000000,
0000000000000000000000000000000000000000000000000000000000000200000000000000000000000000000000000000,
1000000000000000000100000000000000000010000000000000000000000200000000000000010000002000000000000000,
0000010000000010000000020000000000000000000000000000000010000000000000000000000000000000000000200000,
0000000000000000000000000000000000100000000000000000000000000000000000002000000000000000000000000000,
0000000000000000000000000000000200000000000000000001000000000000000000000000000000000000020000000000,
0000000000000000000000000000020000000000000000000000000000000000000100000000000000000000000000000000,
0000000200000000000000000000000000000000000001000000000000000000100000000000000000000100000000000000,
0000000000000000000000000000000000000000000000000000000000000020000000000000000000000000000000000000,
0200000000000000000000000000000000000000200000000000000000000000000000000000000100000000000000000000,
0000000000000000002000000000000000000000000020000000000001000002000000000000000000001000000000001000,
0000000000000000000000000000000000010000000000000000000200000000000000000020000000000000000000000000,
0000000000001000000000000000000000020000000000000000000000000000000000000000200000000000000001000000,
0000000000000000000000000000001000000000000000000000020000000000000000000000000000000000000000000000,
#END
COURSE:4
LEVEL:11
#START
#SCROLL 1.0
0000000100000100000000000000000000000000000000000000002000000000000000000000000000000000020000000000,
0000000000000000000000000000020000000000000000000000000000000000000000200000000000000000001000000000,
0000000000200000000000000000020000000000000000200000000000000000002000000000000000000020000000000000,
0000000000000000000000000200000000000000000000000000000000000001000000000000000000000000000000000000,
0200000000000000000000000000000000000000002000000000000000000000000100000000000000020000000000000000,
0100000000000000000000200000000000000000020000000000000000200000000000000000002000000000000000002000,
0000020000000000000002000000000000001000000000000000000000000000000000000010002000000000000000000000,
0000000000020000000000000000000000000000000000000000200000000000000000000000000000000000000002000000,
0000000000000010000000000000000002000000000000000000200000000000000002000000000000000000002000000000,
0000000002000000020000000000000000000000000000001000000000000000000000000000000000000001000000000000,
0000000000000000000000000200000000000000000000000000000000000000020000000000000000000000000100000000,
0000000200000000000000000100000000000000000002000000000000000000200000000000000002000000000000000000,
0200000000000000000020000000200000000000000002000000000000010000000000000000000000000100000000000020,
0000000000000000010000000000000000000020000000000000000000000000000000000000100002000000000000000000,
0000000000000000020000000000000000000000000000000000001000000000000000000000000000000000000000000020,
0000000000000000000200000000000002000000000000000002000000000000000000020000000000000000000000000000,
0000000000000000000000000200010000000000000000000200000000000000000000000000000000000001000000000000,
0000000000000000000000000000200000000000000000000000000000000000001000000000000000000000000000000000,
0000000020000000000000000000200000000000000010000000000000000002000000000000000000020000000000000000,
0020000000000000000000000000000000000000010000000000000000000020000000000000000000000000000000000000,
1000000000000000000000000000000000000002000000000000000000000000000000000000001000000000000000000000,
0000000000000000000200000000000000000000020000000000000010000100000000000000000002000000000000100000,
0000200000000000000000000000000000200000000000000000020000000000000000000200000000000000000002000000,
0000000000020000000000000000000001000000000000000000200000000000000000000000000000000000020000000000,
0000000000000000000000000000020000000000000000000000000000000000000100000000000000000020000000000000,
0000000100000000000001000000000000000010000000000000000000000001000000001000000000000200000000000000,
0000000000200000000000010000000000000000000000000200000000000020000000000000000000000002000000000000,
2000000100000000000000000000000000000000000002000000000000000000000000000000000200000000000000000000,
0000020000000000002000020000000000000000000000001000000000000000000000000000010002000000000000002000,
0000000000000000000000020000000000200000000000000000000000002000000000000002000000000000000000000200,
0000000000001000000100000000000000000000200000000000000020002000000000000000200000000000001000000000,
0000000001000000020000000000001000002000001000000000000000000020000000000000000000000001000000010000,
0000000200000000000000000000000000200000000000100000000000000000000001000000000000000000000200000000,
1000000000200000000000000100002000000000000000000001000000000001000000020000000000000000000000000000,
0010000000000000000000000000000200000000000000200000000000000000002000000000000001000020000000000000,
0000002000000000000020000000000000000002000000000000000000000200000000000000000000002000000000000000,
0000100000000000002000000000000000000010000001000000000000000000000000000000200000000200000000000000,
0000000000000002000000000000000001000000000000000000020000000000000000000000200000000000000000000020,
0000000000010000020000000000000100000000000000000000000002000000000000200000000000000000000000100000,
0002000000000000000000000000000200000000000000001000020000000000000000200000000000000002000000000000,
0000000200000000000000000002000000000000000000020000000000000000010000200000000000000001000000001000,
0000010000000000000000001000020000000000000200000000000000000000000002000000000000000020000000000000,
0000010000000000000000000020000000000000000100000000001000010000000000000000000000200000000000000002,
0000000000000000010000002000000000000200000100000000000010000020000000000000020000000000000000000020,
0000000000000000002000000000000000010000020000000000002000000000000000000000000020000000000001000000,
0100000000000000002000000000000000000000000000000000000001000000002000000000000000000000000000002000,
0000000000200000000000000000100000020000000000000020000020000000000000020000000000000000200002000000,
0000000010000000000000000000000002000000000000000020000000000000002000000000000000000000000200000000,
0000020000000000000000000020000000000000000000000020000000000000002000000000000000010000000000000000,
0000000200000000000000200000000000000000000000200000000000002000000000010000000010000000000000000001,
0000000002000000000000002000000000000000000200000000000000100000000000000000020000000000000000000000,
0200000000000000020000001000000000010000000100000000000000020000000000000000000200000000000000020000,
0200000000000000000200000000000000000000000000000000000000002000000000000100000020000000000000000002,
0000000000020000000000000000000001000000000000000000000002000000010000000000200000000000002000000000,
0000000000000002000000000001000000020000000000000000002000000000000000000002000000000000000020000000,
0000001000000200000000000000000002000000000000200000000000000000000020000000000000002000001000000000,
0001000000020000000000100000000100000000000002000000000000000000000020000000000001000002000000000000,
0200000000000000000000001000000000000000200000020000000000000000200000000000100000000200000000000002,
0000000000000000001000020000000000000000020000000000000002000000000000000000000002000000000000020000,
0002000000000000000200000000000000100000001000000000000010000000000000000020000020000000000001000002,
0000000000000200000010000000000000200020000000000000100000000100000000000000001000000000010000000200,
0000000000000000200000000000010000000200000000000000020000000000000001000000100000000000000010000000,
0000000100000020000000000010000000020000000000100000000000000000000000000000020000000020000000000000,
0000100000000200000000002000000000000000000000000020000000000001000000000000000000000000020000000000,
0002000000000000000000000020000000000000002000010000000000000000000000000000000020000000000000000000,
0000000000000000001000000000002000000000000000200000000000200000200000000000000100000000010000000000,
0000000000000000010000020000000000000200000000000000000000000000001000000010000000000000010000000000,
0010000000000000200000000000000000000000010000000000010000010000000000000000000200000000000000000000,
2000000200000000000000000000000100000000000000000000000000010000000001000000002000000000000000000000,
1000000000200000000000000000200000200000000000002000000000000000000000000020000000000002000000000000,
0000000000100000000000000000000200000000000000000000200000000000010000000000000000000000002000000000,
0000100000000000000002000000000000000000001000000000000000000000000000200000000000200000000000000000,
0000200000000000000010000020000000000000010000200000000000002000000000000000000020000000000000000020,
0000000001000000000000010000000000000000000020000000000000200000000000000000010000000200000000000000,
0000000000000001000000001000000000000000000000000000000200000000000000000010000000000000000002000000,
0000000000000002000000000000000000020000000000000001000000000000000000020000000000000000000100000000,
0000000000100002000000000000000000001000000000000000000000000000000000000200000000000000000001000000,
0000000000000020000000000002000000000000000000100000000000000000002000000000000000000000000200000000,
0000010000000000000000000002000000000000000000020000000000000010000000000000000000020000000000000000,
0010000000000000000001000000020000000000000002000000000000000000002000000000000000020000000000000000,
1000002000000000000000200000000000000020000000000000100000000020000000000000002000000000000000000100,
0000000000000000100000020000000000000000000000100000000000000000100000000001000002000000000000020000,
0000000000000000000020000000000001000000000000000000000002000000000000000200000000000000000000000020,
0000000000200000020000000000000000000000000000000001000002000000000000000000000000000000100000000000,
0000000000000002000000000000000000200000000000000000000000200000002000000000000000000000000010000000,
0002000000000000000000100000000001000000000020000000000000000000000000020000000000000200000000000000,
0000001000002000000000000010000002000000000010000000000000000100000000010000000000200000000000000000,
0200000000000000000000002000000000000000100000000000000000000000200000000000000000000200000000000010,
0000000000000000002000000000000010000000000020000000000001000000000000000000000000200000000000000000,
0000002000000000000002000000000000100000000000000000000000000000000000000020000000200000000000002000,
0000000000001000000000000000000000000020000000000001000000200000000000000100000000000000000000020000,
0000000000100000200000000000001000000000000000000000000000000000000000000010000000000000000000200000,
0000000000000001000000000020000000000000000000100000000100000000000000000200000000000100000002000000,
0000000000002000000000001000000000000000000010000000000000000000000001000000000000020000000000000000,
0000002000000000000000000002000000000000010000000000000002000000000000000000001000000002000000000000,
0002000000000000000000000000000000000100000000000000000000100000000200000000000000000000000000000200,
0000000000000000000000000000010000002000000000000000000000000002000000000010000000200000000000000002,
0000000000000001000000200000000002000000000000000000010000001000000000000002000000000000000100000000,
0100000000000020000000000000000000000200000000000000000200000000000000010002000000000000000002000000,
0000000002000000000000000000000000000000000000001000000000000000000100000000001000000010000000000000,
0000000000020000000000000000200000000000000001000000020000000000010000000000000000000000000000000000,
0001000000100000010000000000010000000000100000001000000000000000000200000000000002000000020000000000,
0000002000000000000001000000000000000000000000000010000000020000000000000000000100000000100000000002,
0000000000000000000000010000000000000000000000000000000010000000000000000000010000000000000000000000,
0200000000000000100000200000000000000000010000000000000000000200000000000000000200000000000001000000,
0010000000000000200000000000000010000000020000000000000002000000000000020000000000000000001000000010,
0000000000100000000100000000000000000010000000000010000000000000000010000020000000000000200000000000,
0000000000000000000000000020000000000000000000000001000000000100000010000001000000000001000000000000,
0000100000000000000000000000200000000000000010000001000000000000000000000000000000100000000000000000,
0000010000000000000000000000020000000000000000000000000010000100000000020000000000200000000000000001,
0000002000000000000020000000000000002000000000020000000000000200000000000000000000000200000000000100,
0000000001000000000200000000000000000002000000000020000000000010000000000000000000000000000001000000,
0000000000000000000200000000000001000002000000000000000000000000000100000000000000000000000200000000,
2000000000002000000000000000000000000002000000000100000000000000000000000000010000000000002000000000,
0000000000000002000000000000100000000200000000000000000000000000000010000010000000000000000002000000,
0000010000000000000000000000000002000000000002000002000000000000000000010000000000000000000000000000,
0001000000200000000000020000000000000000000000000200000000000020000000000000000000000010000000000000,
0200000000200000000000002000000000000000200000000000000000020000000000000000000200000000000000200000,
0000000000000000002000002000000000000200000010000000000001000000020000000000000000000010000000000000,
0000000000000002000000200000000000020000000000000000000000020000000000000100000000000000000000000010,
0000000000000020000000000000000000002000000000000000200000000000000000000000020000000000000100000000,
0000000000000000000000000000020000020000000000000000000002000000000001000000000000000000000010000000,
0000000020002000000000000010000000200000000000200000000000000000000020000000000000000100000000000000,
0000000100000000000000000000000020000000000000020000000000000000100000020000000000000000000000000000,
0020000000000000000000000000000000000000000200000000000000000020000000000000000020000000000000000000,
0000000000000000000002000000000000000002000000000000000000200000000000000000020000000000000000000100,
0000002000000000000000200000000000000000000000000000000000002000000000000000000002000000000000000000,
0000000000000020000000000000000200000000000000000000020000000000000000000000002000000000000200000000,
0000000000002000000000000000000002000000000000000010000000000000000000200000000000000000020000000000,
0000000001000000000000000000000001000000000000000000000200000000000000002000000000000010000002000000,
0000000000200000000000000020000000000000100000000002000000000000020000000000000000002000000000000000,
0000100000000000000000000000000002000000001000000000000000000010000002000000000000200000000000000000,
0000000000100000000010000000100000000010000000001000000000002000000000000000000000000000010000000010,
0000000000100000000000000000000000000020000000000000000020000000000000000000100000000000200000000000,
0002000000000001000000200000000000000001000000000200000000000000000000000000000001000000000200000000,
0000000000000000000010000000000200000000000000000000000000020000000000000000002000000000000000200000,
0000000000000000000200000000000000000000000000000001000000002000000000000000000000001000000000100000,
0000000000000001000000000001000000020000000000000000000000000000000000000020000000000010000020000000,
0000000010000020000000000000000000010000000020000000000000000000000000010000000000010000000200000000,
0010000020000000000002000000000020000000000000200000000000000000020000000000000001000000010000000001,
0000000200000000000000000020000000000010000020000000000000000002000000000002000000000200000000001000,
0002000000000000000000000100000000000000000200000000000100000002000000000000000010000002000000000000,
0000200000000000000020000000000001000000010000000000000000020000000200000000000200000000000000000020,
0000000000010000000000000000000100000200000000000010000000000000000000000000000000000000000000020000,
0000000001000000000000000000000000200000000000000002000000000000000000000010000000000000000000200000,
0000000200000000020000000000002000000000000001000000001000000000020000000000000000000000000000000000,
0000000020000000000000000200000000000000000000200000000000000020000000000000000000000000000000000000,
0200000000000000000002000000000000000000000000020000000000000000000100000000000000020000000000000000,
0000020000000000000200000000000000000000000020000000000001000000020000000000200000000000000000000020,
0000000000000000002000000000000000010000000000000000000100000000000000000010000020000000000000100000,
0001000000000200000000000000000001000000000000000000002000000010000001000000020000000000000000000000,
0001000000000002000000000000001000000010000000000000020000000000000100000020000000000000002000000000,
0000000100000010000000100000000000000000000001000000200000000000000001000020000000000100000000010000,
0000000000001000000000000000000010000000001000000000010000000000000000200000000000000020000000000000,
0000000020000000000000000000100000000000010000000020000000000000000200000000000100000000100000000000,
0000002000000000000000010000001000000000000000000000000002000000000000000000020000000001000000000200,
0000200000000000000000000000000000000000000200000000001000000000000000000000000000000000000000000000,
0002000000000000000002000000000000000000002000000000000000002000000000000000000000000000000010000000,
0010000000002000000000000000000000000000000000000000000010000200000000000000020000000000000000000001,
0000000020000000002000000000000000000010000000001000000000000020000000000000000000000001000002000000,
0000000001000000000000000002000000000000000000000200000000000000000000200000000000000000000100000000,
0000000200002000000000000000200000000000000100000000000000000000002000000000000000100000200000000000,
0000002000000000000002000000000000000000000020000000000000000000020000000000002000000020000000000001,
0000000000000010000000002000000000000000100000000000000000000200000001000000000000200000000000000002,
0000000000000020000000200000000000000020000000000000002000000000000000000000000020000000000002000002,
0000000000000000200000000000000020000020000000000000000000200000000000000000000000000000000000020000,
0000000000100000000000001000000000020000000000000100001000000000000000002000000000000000200000000000,
0000000000020000000000000002000000200000000000000200000000000000002000000000000010000000002000000000,
0000200000020000000000000000000000000000000020000000000000000000200000000000000000010000020000000000,
0010000000000000000000100000000000000000002000000000000000000100002000000000000000020000000000000000,
0020000000000000000000020000000000000001000000000000000000002000000000000000010000000000000000000000,
0002000000000000100000000000000000000002000000000000000000020000000000000000020000000000000000020000,
2000000000000001000000000000000000010000000000000000002000000000200000000000002000000000000000010000,
0000000000000020000000000000000000020000000000000000002000000000000000002000000200000000000000200000,
0000000000000000000000000000000000200000000000000000020000000000000100000010000000000000000000000000,
0100000000000000000000000200000000020000000000100000000000000010000000000000000000001000000000000000,
0000000000001000000000010000000000000000000000000020000000000010000000010000000000000002000000000000,
0200000000000000000000000000000000000000100000001000000000000000002000000000010000000002000000000000,
0000000200000000000000000000000000000010000200000000000002000000000000010000000000020000000000020000,
0000000000000000000020000000000000002000000001000000000002000000000000000100000200000000000000000002,
0000000000000100000000000000000020000020000000000002000000000000000000200000000010000000000100000002,
0000000000000000000000200000000000000000000000000200000200000000000002000000000000000000000000020000,
0000000100000000000000000000000000000000000000000000020000000010000000002000000000000010000000000000,
0000000000020000000000001000000020000020000000000000000000000001000000000000000000000000000100000000,
0010000000000000000000000002000000000000001000020000000000000100000200000000000020000000000000000000,
2000000000000000000200000020000000000000002000000000000000000000100000000000000200000000000000000100,
0000200000000000000000000000000000001000000100000000000020000000000000000002000000000000000000100000,
0000000000000010000000000000000000020000000000000000000020000000000000002000000000000000000002000000,
0000000000001000001000000000000200000020000000000000002000000000000000020000000000000000000000200000,
0000000100000002000000000000000000000000000000002000000000000000000100000000000000000002000000000000,
0000000002000000000000000100000000000000000000020000000000000000000200000000000000001000000000000000,
0000200000000000000000000002000000000000001000000000000000000000002000000000000000000020000000000000,
0000200000000000000010000020000000000000002000000000000000002000000000000000000000200000000000000020,
0000000000000000010000000000000000000020000000000000000000000000002000000000010000000000000000020000,
0002000000000002000000000000000000000000002000000000002000000000000000000000000000000000000002000000,
0000000000000000000200000000000010000100000000000000000000000000000000010000000200000000000000000020,
0000000000100000000020000000000000000200000000000000002000000000000000000000002000000000000000000000,
0000000010000200000000000000000000000000000000000000000020000000000000000000000000000000000020000000,
0000000000000002000000000000000000100000000010000002000000000000000000000000000000000000200002000000,
0000200000000000000002000000000000000000020000000000000000000200000000000000000000000000000000000000,
1000000000000000000100000000000000000010000000000000000000000200000000000000010000002000000000001000,
0000010000000010000000020000000000000000000000000000000010000000000000000000000000000000000000200000,
0000000000000000002000000000000000100000000000000000002000200000000000002000000000000010000000000000,
2000000000000000000000000000000200000000000000000001000000000000000000000000000000000000020000000000,
0000000000000000000000000000020000000000000000000000000000000000000100000000000000000000000000000000,
0000000200000000000000000000000000000000000001000000000000000000100000000000000000000100000002000000,
0000000000000000000000000000000000000000000000000000000000000020000000000000000000000000000000000000,
0200000000000000000000000000000000000000200000000000000000000000000000000000000100000000000000000000,
0000000000000000002000000200000000000000000020000000000001000002000000000000000000001000000000001000,
0000000000002000000000000000000000010000000000000000000200000000000000000020000000000000000000020000,
0000000000001000000000200000000000020000000000000000000002000000000000000000200000000000000001000000,
0000000000000000000000000000001000000020000000000000020000000000000001000000000000000000000000000000,
0000002000000000000000000000000000000000000000000000000000000000000000000000000000000000000000000000,
#END