Files
DynGMD-Charts/Ballin'/Ball.tja
T
2026-03-23 18:35:43 -04:00

300 lines
3.3 KiB
Plaintext

// PeepoDrumKit 2025/11/19
TITLE:Ballin'
SUBTITLE:Mustard (with Roddy Ricch) from "Perfect Ten"
SUBTITLEEN:Mustard (with Roddy Ricch) from "Perfect Ten"
SUBTITLEJA:Mustard (with Roddy Ricch)「Perfect Ten」より
BPM:97
WAVE:Ball.ogg
PREIMAGE:perfect ten.jpg
OFFSET:0
MAKER:よるん
SEVOL:65
COURSE:Oni
LEVEL:7
#START
,
,
,
,
,
,
,
0000000000021220,
1002100120012221,
0112222120012212,
1002100210012221,
2001200
#SCROLL 1
1
#SCROLL 1.05556
2
#SCROLL 1.11111
1
#SCROLL 1.16667
1
#SCROLL 1.22222
2
#SCROLL 1.27778
1
#SCROLL 1.33333
2
#SCROLL 1.38889
1
#SCROLL 1.44444
1,
#GOGOSTART
#SCROLL 1.5
1011201002020122,
1022201001021221,
1021201002120121,
021120100
#SCROLL 1.5
2
#SCROLL 1.42857
1
#SCROLL 1.35714
2
#SCROLL 1.28571
2
#SCROLL 1.21429
1
#SCROLL 1.14286
2
#SCROLL 1.07143
1,
#GOGOEND
#SCROLL 1
2121201000F02122,
1211201000112122,
1021201002122121,
2012112001121211,
2122212010212211,
2111212010212212,
2121222020012212,
#SCROLL 1
200000
#SCROLL 1.09375
1
#SCROLL 1.10938
1
#SCROLL 1.125
20
#SCROLL 1.15625
20
#SCROLL 1.1875
1000
#SCROLL 1.25
200000
#SCROLL 1.34375
1
#SCROLL 1.35938
1
#SCROLL 1.375
20
#SCROLL 1.40625
20
#SCROLL 1.4375
10
#SCROLL 1.46875
10,
#GOGOSTART
#SCROLL 1.5
2002122010202221,
2212211020212212,
2021221020212212,
2212212011212012,
2211202002221220,
2012202001221211,
2122102001222120,
11020
#SCROLL 1.5
1
#SCROLL 1.45455
20
#SCROLL 1.36364
1
#SCROLL 1.31818
1
#SCROLL 1.27273
2
#SCROLL 1.22727
1
#SCROLL 1.18182
2
#SCROLL 1.13636
2
#SCROLL 1.09091
10,
#GOGOEND
#SCROLL 1
1002100120012221,
0112222120012212,
1002100210012221,
2001200
#SCROLL 1
1
#SCROLL 1.05556
2
#SCROLL 1.11111
1
#SCROLL 1.16667
1
#SCROLL 1.22222
2
#SCROLL 1.27778
1
#SCROLL 1.33333
2
#SCROLL 1.38889
1
#SCROLL 1.44444
1,
#GOGOSTART
#SCROLL 1.5
1011201002020122,
1022201001021221,
1021201002120121,
02112010
#SCROLL 1.5
2
#SCROLL 1.4375
2
#SCROLL 1.375
10
#SCROLL 1.25
1
#SCROLL 1.1875
2
#SCROLL 1.125
2
#SCROLL 1.0625
2,
#GOGOEND
#SCROLL 1
1121221020001220,
2102221020012211,
20000010202011202000001020202010,
20200010202010102000001120202020,
100200100200200100200000000100100200100010002000,
2212122001121020,
00112020100020000010102020102020,
102120100
#SCROLL 1
1
#SCROLL 1.07143
1
#SCROLL 1.14286
2
#SCROLL 1.21429
2
#SCROLL 1.28571
1
#SCROLL 1.35714
20,
#GOGOSTART
#SCROLL 1.5
1000112212212120,
1000122122112120,
1020212212112010,
200000100000200010002000200200100100200100200000,
1010201120202100,
1122012210212120,
1212102211202100,
#SCROLL 1.5
1
#SCROLL 1.46875
1
#SCROLL 1.4375
1
#SCROLL 1.40625
20
#SCROLL 1.34375
2
#SCROLL 1.3125
1
#SCROLL 1.28125
2
#SCROLL 1.25
20
#SCROLL 1.1875
1
#SCROLL 1.15625
2
#SCROLL 1.125
2
#SCROLL 1.09375
2
#SCROLL 1.0625
1
#SCROLL 1.03125
2,
#GOGOEND
#SCROLL 1
1002100120012221,
0112222120012212,
1002100210012221,
2001200
#SCROLL 1
1
#SCROLL 1.05556
2
#SCROLL 1.11111
1
#SCROLL 1.16667
1
#SCROLL 1.22222
2
#SCROLL 1.27778
1
#SCROLL 1.33333
2
#SCROLL 1.38889
1
#SCROLL 1.44444
1,
#GOGOSTART
#SCROLL 1.5
1011201002020122,
1022201001021221,
1021201002120121,
021120100000
#GOGOEND
F000,
#GOGOSTART
3000002001202010,
0112012210212100,
1120012210212101,
#SCROLL 1.5
10
#SCROLL 1.4375
2
#SCROLL 1.40625
10
#SCROLL 1.34375
1
#SCROLL 1.3125
1
#SCROLL 1.28125
2
#SCROLL 1.25
20
#SCROLL 1.1875
1
#SCROLL 1.15625
1
#SCROLL 1.125
2
#SCROLL 1.09375
1
#SCROLL 1.0625
20,
#GOGOEND
#SCROLL 1
1001201001012100,
1001201002012210,
1001201000022121,
12010040,
#END