generated from DragonRatTiger/Custom-Charts
336 lines
3.7 KiB
Plaintext
336 lines
3.7 KiB
Plaintext
// PeepoDrumKit 2025/11/19
|
|
TITLE:DEATHCAMP
|
|
SUBTITLE:Tyler, The Creator「Cherry Bomb」より
|
|
BPM:102
|
|
WAVE:DEATHCAMP.ogg
|
|
PREIMAGE:Cherry_Bomb.jpg
|
|
OFFSET:-0.045005
|
|
MAKER:よるん
|
|
SEVOL:48
|
|
|
|
COURSE:Oni
|
|
LEVEL:10
|
|
BALLOON:10,10,10,10,10,10,20,10,10,10,10,10,10,10,10,10
|
|
|
|
#START
|
|
#MEASURE 1/4
|
|
3,
|
|
#SCROLL 1.5
|
|
3,
|
|
#SCROLL 1.7
|
|
3,
|
|
#SCROLL 1.9
|
|
3,
|
|
#MEASURE 4/4
|
|
#GOGOSTART
|
|
#BPMCHANGE 204
|
|
#SCROLL 1
|
|
30301121,
|
|
0020200020222020,
|
|
10111021,
|
|
0010200010112020,
|
|
10201021,
|
|
01201121,
|
|
#GOGOEND
|
|
#BPMCHANGE 102
|
|
2102002010700008,
|
|
#GOGOSTART
|
|
#BPMCHANGE 204
|
|
30301021,
|
|
0010200010102022,
|
|
12112010,
|
|
2010102000102220,
|
|
1010400040001011,
|
|
2010002000002220,
|
|
#GOGOEND
|
|
#BPMCHANGE 102
|
|
2102002010700008,
|
|
#GOGOSTART
|
|
#BPMCHANGE 204
|
|
30301021,
|
|
0120
|
|
#SCROLL 1.5
|
|
4040,
|
|
#SCROLL 1
|
|
01201121,
|
|
0010200010112020,
|
|
10221021,
|
|
0010200010112020,
|
|
#GOGOEND
|
|
#BPMCHANGE 102
|
|
2102002010700008,
|
|
#GOGOSTART
|
|
#BPMCHANGE 204
|
|
30301021,
|
|
01211221,
|
|
11201021,
|
|
0010200010112020,
|
|
10211121,
|
|
0010201010112020,
|
|
#GOGOEND
|
|
#BPMCHANGE 102
|
|
2102002010700008,
|
|
#GOGOSTART
|
|
#BPMCHANGE 204
|
|
30301121,
|
|
0020200010222020,
|
|
11221021,
|
|
0010200020222010,
|
|
10221021,
|
|
0011202020111010,
|
|
#GOGOEND
|
|
#BPMCHANGE 102
|
|
2102002010700008,
|
|
#GOGOSTART
|
|
#BPMCHANGE 204
|
|
30301121,
|
|
0011202010002020,
|
|
10221121,
|
|
0010202011102020,
|
|
10221212,
|
|
1000202020112010,
|
|
#GOGOEND
|
|
#BPMCHANGE 102
|
|
2102002010700008,
|
|
#GOGOSTART
|
|
#BPMCHANGE 204
|
|
30302102,
|
|
01201022,
|
|
12112012,
|
|
01221221,
|
|
12122012,
|
|
021120
|
|
#GOGOEND
|
|
10,
|
|
,
|
|
00700008,
|
|
#GOGOSTART
|
|
21211221,
|
|
22102120,
|
|
1000201120201020,
|
|
01121120,
|
|
1000201120201020,
|
|
01201122,
|
|
#GOGOEND
|
|
#BPMCHANGE 102
|
|
2102002010700008,
|
|
#GOGOSTART
|
|
#BPMCHANGE 204
|
|
30301212,
|
|
02120222,
|
|
1000101120201020,
|
|
01221122,
|
|
1000101022102010,
|
|
0010111020102010,
|
|
#GOGOEND
|
|
#BPMCHANGE 102
|
|
2102002000000000,
|
|
#GOGOSTART
|
|
#BPMCHANGE 204
|
|
30301121,
|
|
21012211,
|
|
20112012,
|
|
01221020,
|
|
1010200010112010,
|
|
01201121,
|
|
#GOGOEND
|
|
#BPMCHANGE 102
|
|
2102002010700008,
|
|
#BPMCHANGE 204
|
|
#SCROLL 0.5
|
|
21212212,
|
|
0
|
|
#SCROLL 1
|
|
444,
|
|
400
|
|
#SCROLL 0.5
|
|
12211,
|
|
20
|
|
#SCROLL 1
|
|
400400,
|
|
400
|
|
#SCROLL 0.5
|
|
22211,
|
|
2,
|
|
#GOGOSTART
|
|
#BPMCHANGE 102
|
|
#SCROLL 2
|
|
4304004030700008,
|
|
#GOGOEND
|
|
#BPMCHANGE 204
|
|
#SCROLL 0.5
|
|
21112102,
|
|
0
|
|
#SCROLL 1
|
|
303,
|
|
300
|
|
#SCROLL 0.5
|
|
12211,
|
|
2
|
|
#SCROLL 1
|
|
330,
|
|
30
|
|
#SCROLL 0.5
|
|
102211,
|
|
2
|
|
#SCROLL 1
|
|
4
|
|
#SCROLL 0.5
|
|
1
|
|
#SCROLL 1
|
|
4,
|
|
#GOGOSTART
|
|
#BPMCHANGE 102
|
|
#SCROLL 2
|
|
4304004030700008,
|
|
#GOGOEND
|
|
#BPMCHANGE 204
|
|
#SCROLL 0.5
|
|
21102102,
|
|
00100222,
|
|
10112210,
|
|
10
|
|
#SCROLL 1
|
|
40
|
|
#SCROLL 0.5
|
|
1222,
|
|
10112210,
|
|
#SCROLL 1
|
|
3040
|
|
#SCROLL 0.5
|
|
11
|
|
#SCROLL 1
|
|
40,
|
|
#GOGOSTART
|
|
#BPMCHANGE 102
|
|
#SCROLL 2
|
|
4304004030700008,
|
|
#GOGOEND
|
|
#BPMCHANGE 204
|
|
#SCROLL 0.5
|
|
20112012,
|
|
01221022,
|
|
21011221,
|
|
01201120,
|
|
10222112,
|
|
01201120,
|
|
1,
|
|
#MEASURE 1/8
|
|
#SCROLL 0.3
|
|
0,
|
|
#SCROLL 0.4
|
|
0,
|
|
#SCROLL 0.5
|
|
0,
|
|
#SCROLL 0.6
|
|
0,
|
|
#SCROLL 0.7
|
|
0,
|
|
#SCROLL 0.8
|
|
0,
|
|
#SCROLL 0.9
|
|
0,
|
|
#SCROLL 0.95
|
|
0,
|
|
#MEASURE 4/4
|
|
#GOGOSTART
|
|
#SCROLL 1
|
|
1120201120201120,
|
|
2011202011202011,
|
|
2020112020112020,
|
|
1120201120201111,
|
|
10210120,
|
|
2000111120101010,
|
|
#GOGOEND
|
|
#BPMCHANGE 102
|
|
2102002010700008,
|
|
#GOGOSTART
|
|
#BPMCHANGE 204
|
|
30301121,
|
|
02202210,
|
|
11201121,
|
|
0010200010112010,
|
|
10102121,
|
|
0020200022221010,
|
|
#MEASURE 1/8
|
|
#GOGOEND
|
|
#SCROLL 1
|
|
3,
|
|
#SCROLL 0.9
|
|
0,
|
|
#SCROLL 0.8
|
|
0,
|
|
#SCROLL 0.7
|
|
0,
|
|
#SCROLL 0.6
|
|
0,
|
|
#SCROLL 0.5
|
|
0,
|
|
#SCROLL 0.4
|
|
0,
|
|
#SCROLL 0.3
|
|
0,
|
|
#SCROLL 0.2
|
|
0,
|
|
#SCROLL 0.3
|
|
0,
|
|
#SCROLL 0.4
|
|
0,
|
|
#SCROLL 0.5
|
|
0,
|
|
#SCROLL 0.6
|
|
0,
|
|
#SCROLL 0.7
|
|
0,
|
|
#SCROLL 0.8
|
|
0,
|
|
#SCROLL 0.9
|
|
0,
|
|
#MEASURE 4/4
|
|
#GOGOSTART
|
|
#SCROLL 1
|
|
3000200010112010,
|
|
01202210,
|
|
1010200010112010,
|
|
0010200020222020,
|
|
10112022,
|
|
2020112020101010,
|
|
#GOGOEND
|
|
#BPMCHANGE 102
|
|
2102002010700008,
|
|
#GOGOSTART
|
|
#BPMCHANGE 204
|
|
30112021,
|
|
20222022,
|
|
10112121,
|
|
01222111,
|
|
10112212,
|
|
01222121,
|
|
#GOGOEND
|
|
#BPMCHANGE 102
|
|
2102002010700008,
|
|
#GOGOSTART
|
|
#BPMCHANGE 204
|
|
30112012,
|
|
01210120,
|
|
11201121,
|
|
01202211,
|
|
10201121,
|
|
01211020,
|
|
#GOGOEND
|
|
#BPMCHANGE 102
|
|
2102002010700008,
|
|
#GOGOSTART
|
|
#BPMCHANGE 204
|
|
1120201120201120,
|
|
2011202011202011,
|
|
2020112020112020,
|
|
1120201120201110,
|
|
1011202011202011,
|
|
2020112020112020,
|
|
#GOGOEND
|
|
#BPMCHANGE 102
|
|
#SCROLL 2
|
|
4304004030000000,
|
|
#END
|