Files
DynGMD-Charts/DNA/DNA..tja
T
DynGMDOfficial 732f1b4d9b Added main charts
added all main charts, have fun lolz
2026-02-02 20:18:47 -05:00

251 lines
2.9 KiB
Plaintext

// PeepoDrumKit 2025/11/19
TITLE:DNA.
SUBTITLE:Kendrick Lamar 「DAMN.」より
BPM:140
WAVE:DNA..ogg
PREIMAGE:Kendrick_Lamar_-_Damn.png
OFFSET:0.01595
DEMOSTART:1.69834
MAKER:よるん
COURSE:Oni
LEVEL:9.4
BALLOON:2
#START
,
#GOGOSTART
3022201020102220,
20102210
#GOGOEND
20002220,
#GOGOSTART
3022101010221010,
20102210
#GOGOEND
10002020,
#GOGOSTART
31212122,
20102210
#GOGOEND
20001010,
#GOGOSTART
41122221,
10101110
#GOGOEND
20002010,
#GOGOSTART
41221212,
11212112,
32112211,
21212121,
31212121,
10102210
#GOGOEND
20002010,
2020221020002010,
,
#GOGOSTART
4010201022102020,
10202210
#GOGOEND
20002020,
#GOGOSTART
3010201022202010,
20102210
#GOGOEND
20002020,
#GOGOSTART
32211121,
20102210
#GOGOEND
20002020,
#GOGOSTART
32211121,
20102210
#GOGOEND
2000
#SCROLL 0.5
2020,
12221222,
122120
#SCROLL 0.6
22,
12212211,
221210
#SCROLL 0.7
11,
21111122,
112210
#SCROLL 0.8
11,
2111
#SCROLL 0.9
1122,
1,
#GOGOSTART
#SCROLL 1
3010201120102020,
20102210
#GOGOEND
20002020,
#GOGOSTART
3000202022101010,
20102210
#GOGOEND
20002010,
#GOGOSTART
31202122,
20102210
#GOGOEND
20002010,
#GOGOSTART
32102111,
2212
#GOGOEND
1021,
#GOGOSTART
4010201022102010,
2211
#GOGOEND
2022,
#GOGOSTART
4010221020102010,
20102210
#GOGOEND
20002020,
#GOGOSTART
3022102010221020,
1011101020022020,
1022102020022020,
1011201020022020,
4444,
#MEASURE 1/16
#GOGOEND
#SCROLL 1
3,
#SCROLL 1.1
0,
#SCROLL 1.2
0,
#SCROLL 1.3
0,
#SCROLL 1.4
0,
#SCROLL 1.5
0,
#SCROLL 1.6
0,
#SCROLL 1.7
0,
#SCROLL 1.8
0,
#SCROLL 1.7
0,
#SCROLL 1.6
0,
#SCROLL 1.5
0,
#SCROLL 1.4
0,
#SCROLL 1.3
0,
#SCROLL 1.2
0,
#SCROLL 1.1
0,
#MEASURE 4/4
#GOGOSTART
#SCROLL 1
3020100210201020,
10102020
#GOGOEND
10022020,
#GOGOSTART
30212121,
20101010
#GOGOEND
20022020,
#GOGOSTART
30222122,
20102010
#GOGOEND
10022020,
#GOGOSTART
3002202010102110,
1010403030012011,
2021403030012022,
2022403030012011,
2021403030012010,
2011403040012011,
2121
#GOGOEND
4000,
,
#BPMCHANGE 130
1111100000000000,
,
1111100000000000,
,
1111100000000000,
1111100000000000,
,
000000
#SCROLL 3
33,
#GOGOSTART
300
#SCROLL 1.5
000000000200020002000200000000000100020102000,
201020101110100000201110,
201010202110200000201110,
201010211020100000201110,
201010221020100000201110,
201010202120101110201011,
102010212010102011201011,
201020111022101020
#GOGOEND
#SCROLL 3
300300,
300000
#GOGOSTART
3
#SCROLL 1.5
01010201011102020,
101020102120202010200022,
202010201020102220101020,
102010100020002020100002,
110200200021101020201011,
201020101020201010202011,
121212211212,
102020201022102010201010,
102020200020112010200020,
002010200020102110200011,
102010200020101110200020,
101010200020102010200011,
102010200010102011200012,
101020200021102010200021,
202010200011102010
#GOGOEND
200000,
000000
#SCROLL 3
33,
300030
#GOGOSTART
3
#SCROLL 1.5
02010201120102020,
101120201010221010200001,
110201020201010201020001,
011201020201110201020010,
102010111020201010
#GOGOEND
200011,
102010200011102010200010,
002010201111102010200000,
000000000000000000
#SCROLL 3
780000,
#END