generated from DragonRatTiger/Custom-Charts
222 lines
2.7 KiB
Plaintext
222 lines
2.7 KiB
Plaintext
// PeepoDrumKit 2025/11/19
|
|
TITLE:DeathValley
|
|
SUBTITLE:Tyler, The Creator from "Scum Fuck Flower Boy"
|
|
SUBTITLEEN:Tyler, The Creator from "Scum Fuck Flower Boy"
|
|
SUBTITLEJP:Tyler, The Creator 「Scum Fuck Flower Boy」より
|
|
BPM:140
|
|
WAVE:DeathValley.ogg
|
|
PREIMAGE:Scum Fuck Flower Boy Cover (1).png
|
|
OFFSET:-0.01706
|
|
DEMOSTART:13.7313
|
|
MAKER:よるん & TFD500
|
|
SEVOL:59
|
|
|
|
COURSE:Oni
|
|
LEVEL:9
|
|
|
|
#START
|
|
,
|
|
,
|
|
,
|
|
,
|
|
,
|
|
,
|
|
,
|
|
,
|
|
32212122,
|
|
1022012020004030,
|
|
4001201020112010,
|
|
2011201020004000,
|
|
2012020120304000,
|
|
2012020120304000,
|
|
2012022020120211,
|
|
2010201120304020,
|
|
#GOGOSTART
|
|
#SCROLL 1.5
|
|
3011201020102011,
|
|
2010221020112021,
|
|
2011201020112021,
|
|
2201201020
|
|
#GOGOEND
|
|
#SCROLL 1
|
|
112010,
|
|
#GOGOSTART
|
|
#SCROLL 1.5
|
|
4011201210221021,
|
|
2210201021122021,
|
|
2212201120112111,
|
|
2011221120012000,
|
|
#GOGOEND
|
|
000
|
|
#SCROLL 1
|
|
120102000F000,
|
|
221020102000F000,
|
|
11212212,
|
|
#MEASURE 1/16
|
|
#BARLINEOFF
|
|
#JPOSSCROLL 1.71571 800 1
|
|
1,
|
|
,
|
|
2,
|
|
,
|
|
2,
|
|
,
|
|
1,
|
|
,
|
|
2,
|
|
#SCROLL -0.2
|
|
0,
|
|
#SCROLL -0.3
|
|
0,
|
|
#SCROLL -0.4
|
|
0,
|
|
#BARLINEON
|
|
#SCROLL -0.5
|
|
1,
|
|
#SCROLL -0.6
|
|
0,
|
|
#SCROLL -0.7
|
|
0,
|
|
#SCROLL -0.8
|
|
0,
|
|
#MEASURE 4/4
|
|
#SCROLL -1
|
|
#JPOSSCROLL 6.64429 -800 1
|
|
10
|
|
#SCROLL -0.975806
|
|
20
|
|
#SCROLL -0.951613
|
|
10
|
|
#SCROLL -0.927419
|
|
1
|
|
#SCROLL -0.915323
|
|
1
|
|
#SCROLL -0.903226
|
|
20
|
|
#SCROLL -0.879032
|
|
10
|
|
#SCROLL -0.854839
|
|
1
|
|
#SCROLL -0.842742
|
|
1
|
|
#SCROLL -0.830645
|
|
2
|
|
#SCROLL -0.818548
|
|
2,
|
|
#SCROLL -0.806452
|
|
20
|
|
#SCROLL -0.782258
|
|
20
|
|
#SCROLL -0.758065
|
|
10
|
|
#SCROLL -0.733871
|
|
1
|
|
#SCROLL -0.721774
|
|
1
|
|
#SCROLL -0.709677
|
|
20
|
|
#SCROLL -0.685484
|
|
10
|
|
#SCROLL -0.66129
|
|
20
|
|
#SCROLL -0.637097
|
|
2
|
|
#SCROLL -0.625
|
|
1,
|
|
#SCROLL -0.612903
|
|
2
|
|
#SCROLL -0.600806
|
|
2
|
|
#SCROLL -0.58871
|
|
10
|
|
#SCROLL -0.564516
|
|
20
|
|
#SCROLL -0.540323
|
|
10
|
|
#SCROLL -0.516129
|
|
20
|
|
#SCROLL -0.491935
|
|
2
|
|
#SCROLL -0.479839
|
|
1
|
|
#SCROLL -0.467742
|
|
2
|
|
#SCROLL -0.455645
|
|
2
|
|
#SCROLL -0.443548
|
|
20,
|
|
#SCROLL -0.419355
|
|
10
|
|
#SCROLL -0.395161
|
|
20
|
|
#SCROLL -0.370968
|
|
10
|
|
#SCROLL -0.346774
|
|
10
|
|
#SCROLL -0.322581
|
|
20
|
|
#SCROLL -0.298387
|
|
2
|
|
#SCROLL -0.28629
|
|
1
|
|
#SCROLL -0.274194
|
|
20
|
|
#SCROLL -0.25
|
|
10,
|
|
#GOGOSTART
|
|
#SCROLL 2
|
|
#JPOSSCROLL 0.016 0-40i 1
|
|
3
|
|
#JPOSSCROLL 0.016 0+80i 1
|
|
0
|
|
#JPOSSCROLL 0.016 0-60i 1
|
|
0
|
|
#JPOSSCROLL 0.016 0+40i 1
|
|
0
|
|
#JPOSSCROLL 0.016 0-20i 1
|
|
00000000
|
|
#SCROLL 1.5
|
|
100000000000200000000000100000000000200000000000200000000000100000000000200000000000,
|
|
11212122,
|
|
21212211,
|
|
22112122,
|
|
21221212,
|
|
2010201021122010,
|
|
#GOGOEND
|
|
22122112,
|
|
100000000000100000000000200000000000200000000000
|
|
#SCROLL 3
|
|
#JPOSSCROLL 0.016 0-40i 1
|
|
4
|
|
#JPOSSCROLL 0.016 0+80i 1
|
|
0
|
|
#JPOSSCROLL 0.016 0-60i 1
|
|
0
|
|
#JPOSSCROLL 0.016 0+40i 1
|
|
0
|
|
#JPOSSCROLL 0.016 0-20i 1
|
|
00000000
|
|
#JPOSSCROLL 0.016 0-40i 1
|
|
3
|
|
#JPOSSCROLL 0.016 0+80i 1
|
|
0
|
|
#JPOSSCROLL 0.016 0-60i 1
|
|
0
|
|
#JPOSSCROLL 0.016 0+40i 1
|
|
0
|
|
#JPOSSCROLL 0.016 0-20i 1
|
|
00000000
|
|
#JPOSSCROLL 0.016 0-40i 1
|
|
4
|
|
#JPOSSCROLL 0.016 0+80i 1
|
|
0
|
|
#JPOSSCROLL 0.016 0-60i 1
|
|
0
|
|
#JPOSSCROLL 0.016 0+40i 1
|
|
0
|
|
#JPOSSCROLL 0.016 0-20i 1
|
|
00000000000000000000,
|
|
#SCROLL 1.5
|
|
0,
|
|
#END
|