generated from DragonRatTiger/Custom-Charts
89 lines
1.6 KiB
Plaintext
89 lines
1.6 KiB
Plaintext
// PeepoDrumKit 2026/07/30
|
|
TITLE:Moonlight
|
|
TITLEEN:Moonlight
|
|
TITLEJA:ムーンライト
|
|
SUBTITLE:XXXTENTACION from "?"
|
|
SUBTITLEEN:XXXTENTACION from "?"
|
|
SUBTITLEJA:XXXTENTACION「?」より
|
|
BPM:128
|
|
WAVE:moonlight.ogg
|
|
PREIMAGE:moonlight.jpg
|
|
OFFSET:-0.038913
|
|
DEMOSTART:14.5702
|
|
MAKER:よるん
|
|
|
|
COURSE:Oni
|
|
LEVEL:8
|
|
|
|
#START
|
|
,
|
|
,
|
|
,
|
|
00000002,
|
|
10002002,
|
|
000200100000200100202020,
|
|
10002002,
|
|
02102022,
|
|
1022101020001121,
|
|
2211201000002210,
|
|
1011201020102122,
|
|
1120201020112010,
|
|
2011201020101121,
|
|
2211201020212021,
|
|
1011202010102211,
|
|
2122101020112020,
|
|
1011202010102211,
|
|
2122102010001120,
|
|
2012201020002122,
|
|
1120201020012020,
|
|
1001202010001121,
|
|
2211201020201222,
|
|
1021201020001121,
|
|
200200100200200000200000100000000000100010001000,
|
|
200100112122,
|
|
100200200100200000202020,
|
|
100100200000101020201010,
|
|
200200100200100100202010,
|
|
200200100000202010102010,
|
|
200200200100200000102020,
|
|
100100200200102020102010,
|
|
200100200100201020201020,
|
|
11112121,
|
|
2210102000000000,
|
|
1210101120102210,
|
|
100000000222,
|
|
1011201020002210,
|
|
100000200000200000100100200000100000200020002000,
|
|
1011101020102210,
|
|
1011201020102210,
|
|
1000102010002211,
|
|
2122102010001120,
|
|
2011201020001222,
|
|
1120201020102020,
|
|
1000202010001121,
|
|
2210201020001120,
|
|
2012201020001121,
|
|
2210201010002020,
|
|
1022101020001121,
|
|
2211201020102210,
|
|
1011201020102122,
|
|
1120201020112010,
|
|
2011201020101121,
|
|
2211201020212021,
|
|
1011202010102211,
|
|
2122101020110000,
|
|
3011202010102211,
|
|
2122102010201120,
|
|
2012201020202122,
|
|
1120201020012020,
|
|
1011202010201121,
|
|
200200100100200000100000200000100000200020002000,
|
|
1011201020201121,
|
|
200200100200200000100000200000100000200020002000,
|
|
1012101020102210,
|
|
100000100100100000100000200000100000200020002000,
|
|
1,
|
|
,
|
|
,
|
|
#END
|