Files
DynGMD-Charts/Name Game/Name Game.tja
T
DynGMDOfficial 732f1b4d9b Added main charts
added all main charts, have fun lolz
2026-02-02 20:18:47 -05:00

82 lines
1.3 KiB
Plaintext

// PeepoDrumKit 2025/09/03
TITLE:Name Game
SUBTITLE:Yo Gabba Gabba!
BPM:120
WAVE:23. Yo Gabba Gabba - Name Game.ogg
PREIMAGE:Hello Friends!.jpeg
OFFSET:-0.286666
DEMOSTART:0.286666
MAKER:よるん
COURSE:Oni
LEVEL:7
#START
3011203000302100,
3001203000302100,
3011203000302100,
3021202202022120,
1011201000102100,
1011202101012020,
1000201001102100,
1011202202022120,
1011201000102100,
1011202101012020,
1000201001102100,
1011202022022120,
1011201000102100,
1011202101012020,
1000201001102100,
1011202022022120,
1011201000102100,
1011202101012020,
1000201001102100,
1011202022022120,
1011201000102100,
1011202101012020,
1000201001102100,
1011202022022120,
1011201000102100,
1011202101012020,
1000201001102100,
1011202022022120,
1011201000102100,
1011202101012020,
1000201001102100,
1011202022022120,
1011201000102100,
1011202101012020,
1000201001102100,
1011202022022120,
1011201000102100,
1011202101012020,
1000201001102100,
1011202022022120,
1011201000102100,
1011202101012020,
1000201001102100,
1011202022022120,
11201120,
1011202101012020,
11201120,
1011202022022120,
1011201000102100,
1011202101012020,
1010201001102100,
1011202022022120,
1011201010102110,
1011202101012020,
1020201001102100,
1011202022022120,
1110221010102101,
10112021010120
#SCROLL 1.3
40,
#SCROLL 1.7
3
#SCROLL 2
4000000,
,
,
#END