Files
DynGMD-Charts/ONIGIRI FREEWAY/ONIGIRI FREEWAY.tja
T
DynGMDOfficial 732f1b4d9b Added main charts
added all main charts, have fun lolz
2026-02-02 20:18:47 -05:00

365 lines
3.7 KiB
Plaintext

// PeepoDrumKit 2025/09/03
TITLE:ONIGIRI FREEWAY
SUBTITLE:OISHII
BPM:210
WAVE:song.ogg
PREIMAGE:onigiri.png
OFFSET:-1.40667
DEMOSTART:1.40667
MAKER:よるん
COURSE:Oni
LEVEL:10.8
BALLOON:4,4,4,4,4,4,4,4,4,4
#START
#SCROLL 0.5
11211212,
11211212,
11212112,
11212212,
11211212,
11211212,
11211212,
11212212,
#SCROLL 1
1010201010201022,
11211210,
1010201010201122,
11211212,
1010201010201022,
11211211,
2211221122111122,
1122112211221122,
2010201010201022,
11211210,
1010201010201122,
11211212,
1010201010201022,
1010201010201011,
2011112222112211,
2222112222112210,
#SCROLL 0.5
10112001,
01102101,
1000101020002212,
1000101020102211,
1
#SCROLL 1
1011011,
22112120,
22011022,
01102125,
,
0800,
#MEASURE 1/16
#SCROLL 0.5
1,
#BARLINEOFF
0,
#BARLINEON
2,
1,
2,
#BARLINEOFF
0,
#BARLINEON
2,
#BARLINEOFF
0,
#BARLINEON
1,
2,
1,
#BARLINEOFF
0,
#BARLINEON
1,
#BARLINEOFF
0,
#BARLINEON
2,
1,
2,
#BARLINEOFF
0,
#BARLINEON
2,
#BARLINEOFF
0,
#BARLINEON
1,
2,
1,
#BARLINEOFF
0,
#BARLINEON
1,
#BARLINEOFF
0,
#BARLINEON
2,
1,
2,
#BARLINEOFF
0,
#MEASURE 4/4
#BARLINEON
#SCROLL 1
11
#GOGOSTART
20002010001010,
22122102,
02021011,
2020102010221111,
2220202010221111,
2220202010221111,
2220212212202020,
1221
#GOGOEND
7000,
8
#GOGOSTART
1021011,
22101022,
21010211,
2020102010221111,
2220202010221111,
2220202010221111,
2220212212202020,
1221
#GOGOEND
7000,
8
#GOGOSTART
1021011,
22122102,
02021011,
2020102010221111,
2220202010221111,
2220202010221111,
2220212212202020,
1221
#GOGOEND
7000,
80
#GOGOSTART
10010020002020,
1010010020002020,
1010010020010020,
1020101020221111,
2220111120221111,
2220202011221111,
2220212212202020,
1221
#GOGOEND
7000,
#MEASURE 1/8
#SCROLL 0.1
8,
#SCROLL 0.2
0,
#SCROLL 0.3
0,
#SCROLL 0.4
0,
#SCROLL 0.5
0,
#SCROLL 0.6
0,
#SCROLL 0.7
0,
#SCROLL 0.8
0,
#SCROLL 0.9
0,
#SCROLL 1
3,
#BARLINEOFF
0,
#BARLINEON
#SCROLL 1.5
3,
#BARLINEOFF
0,
#BARLINEON
#SCROLL 2
3,
#BARLINEOFF
0,
#MEASURE 4/4
#BARLINEON
#SCROLL 3
40
#SCROLL 1
00201111201122,
1020111120112210,
2220222211112222,
1111222211112211,
200200100100200000101010101010200000101010202020,
100200111111200111222100,
2211102000101010,
1010202020
#SCROLL 2
4000
#SCROLL 1
22,
1110201111201122,
1020111120112210,
2220222211112222,
1111222211112211,
200200100100202020101010101010200000101010202020,
100200111111200111222100,
2211101110200010,
21221201,
21
#SCROLL 0.5
100001,
12201201,
12212102,
1010202010200011,
2210
#SCROLL 1
201110201110,
2011102011102011,
2011202220201110,
1022202011201122,
25000000,
8,
#MEASURE 1/16
#BARLINEOFF
0,
,
,
,
#BARLINEON
#SCROLL 0.5
1,
#BARLINEOFF
0,
#BARLINEON
2,
1,
2,
#BARLINEOFF
0,
#BARLINEON
2,
#BARLINEOFF
0,
#BARLINEON
1,
2,
1,
#BARLINEOFF
0,
#BARLINEON
1,
#BARLINEOFF
0,
#BARLINEON
2,
1,
2,
#BARLINEOFF
0,
#BARLINEON
2,
#BARLINEOFF
0,
#BARLINEON
1,
2,
1,
#BARLINEOFF
0,
#BARLINEON
1,
#BARLINEOFF
0,
#BARLINEON
2,
1,
2,
#BARLINEOFF
0,
#MEASURE 4/4
#BARLINEON
1120002010001010,
22122102,
02021011,
22121211,
22221211,
22221211,
22212222,
1221
#SCROLL 2
7000,
#SCROLL 1
8
#GOGOSTART
1021011,
22101022,
21010211,
2020102010221111,
2220202010221111,
2220202010221111,
2220212212202020,
1221
#GOGOEND
7000,
8
#GOGOSTART
1021011,
22122102,
02021011,
2020102010221111,
2220202010221111,
2220202010221111,
2220212212202020,
1221
#GOGOEND
7000,
80
#GOGOSTART
10010020002020,
1010010020002020,
1010010020010020,
1020101020221111,
2220111120221111,
2220202011221111,
2220212212202020,
1221
#GOGOEND
7000,
8
#GOGOSTART
1021011,
22122102,
02021011,
2020102010221111,
2220202010221111,
2220202010221111,
2220212212202020,
1221
#GOGOEND
7000,
80
#GOGOSTART
10010020002020,
1010010020002020,
1010010020010020,
1020101020221111,
2220111120221111,
2220202011221111,
2220212212202020,
1221
#GOGOEND
7000,
85000000,
80
#SCROLL 3
30303040002210,
,
#END