generated from DragonRatTiger/Custom-Charts
10019 lines
59 KiB
Plaintext
10019 lines
59 KiB
Plaintext
// PeepoDrumKit 2025/05/20
|
|
TITLE:Untitled Chart
|
|
SUBTITLE:
|
|
BPM:10000
|
|
WAVE:
|
|
OFFSET:0
|
|
DEMOSTART:0
|
|
MAKER:よるん
|
|
|
|
COURSE:Oni
|
|
LEVEL:1
|
|
SCOREINIT:
|
|
SCOREDIFF:
|
|
|
|
#START
|
|
#MEASURE 1/4
|
|
#SCROLL 0.03
|
|
1111,
|
|
1111,
|
|
1111,
|
|
1111,
|
|
1111,
|
|
1111,
|
|
1111,
|
|
1111,
|
|
1111,
|
|
1111,
|
|
1111,
|
|
1111,
|
|
1111,
|
|
1111,
|
|
1111,
|
|
1111,
|
|
1111,
|
|
1111,
|
|
1111,
|
|
1111,
|
|
1111,
|
|
1111,
|
|
1111,
|
|
1111,
|
|
1111,
|
|
1111,
|
|
1111,
|
|
1111,
|
|
1111,
|
|
1111,
|
|
1111,
|
|
1111,
|
|
1111,
|
|
1111,
|
|
1111,
|
|
1111,
|
|
1111,
|
|
1111,
|
|
1111,
|
|
1111,
|
|
1111,
|
|
1111,
|
|
1111,
|
|
1111,
|
|
1111,
|
|
1111,
|
|
1111,
|
|
1111,
|
|
1111,
|
|
1111,
|
|
1111,
|
|
1111,
|
|
1111,
|
|
1111,
|
|
1111,
|
|
1111,
|
|
1111,
|
|
1111,
|
|
1111,
|
|
1111,
|
|
1111,
|
|
1111,
|
|
1111,
|
|
1111,
|
|
1111,
|
|
1111,
|
|
1111,
|
|
1111,
|
|
1111,
|
|
1111,
|
|
1111,
|
|
1111,
|
|
1111,
|
|
1111,
|
|
1111,
|
|
1111,
|
|
1111,
|
|
1111,
|
|
1111,
|
|
1111,
|
|
1111,
|
|
1111,
|
|
1111,
|
|
1111,
|
|
1111,
|
|
1111,
|
|
1111,
|
|
1111,
|
|
1111,
|
|
1111,
|
|
1111,
|
|
1111,
|
|
1111,
|
|
1111,
|
|
1111,
|
|
1111,
|
|
1111,
|
|
1111,
|
|
1111,
|
|
1111,
|
|
1111,
|
|
1111,
|
|
1111,
|
|
1111,
|
|
1111,
|
|
1111,
|
|
1111,
|
|
1111,
|
|
1111,
|
|
1111,
|
|
1111,
|
|
1111,
|
|
1111,
|
|
1111,
|
|
1111,
|
|
1111,
|
|
1111,
|
|
1111,
|
|
1111,
|
|
1111,
|
|
1111,
|
|
1111,
|
|
1111,
|
|
1111,
|
|
1111,
|
|
1111,
|
|
1111,
|
|
1111,
|
|
1111,
|
|
1111,
|
|
1111,
|
|
1111,
|
|
1111,
|
|
1111,
|
|
1111,
|
|
1111,
|
|
1111,
|
|
1111,
|
|
1111,
|
|
1111,
|
|
1111,
|
|
1111,
|
|
1111,
|
|
1111,
|
|
1111,
|
|
1111,
|
|
1111,
|
|
1111,
|
|
1111,
|
|
1111,
|
|
1111,
|
|
1111,
|
|
1111,
|
|
1111,
|
|
1111,
|
|
1111,
|
|
1111,
|
|
1111,
|
|
1111,
|
|
1111,
|
|
1111,
|
|
1111,
|
|
1111,
|
|
1111,
|
|
1111,
|
|
1111,
|
|
1111,
|
|
1111,
|
|
1111,
|
|
1111,
|
|
1111,
|
|
1111,
|
|
1111,
|
|
1111,
|
|
1111,
|
|
1111,
|
|
1111,
|
|
1111,
|
|
1111,
|
|
1111,
|
|
1111,
|
|
1111,
|
|
1111,
|
|
1111,
|
|
1111,
|
|
1111,
|
|
1111,
|
|
1111,
|
|
1111,
|
|
1111,
|
|
1111,
|
|
1111,
|
|
1111,
|
|
1111,
|
|
1111,
|
|
1111,
|
|
1111,
|
|
1111,
|
|
1111,
|
|
1111,
|
|
1111,
|
|
1111,
|
|
1111,
|
|
1111,
|
|
1111,
|
|
1111,
|
|
1111,
|
|
1111,
|
|
1111,
|
|
1111,
|
|
1111,
|
|
1111,
|
|
1111,
|
|
1111,
|
|
1111,
|
|
1111,
|
|
1111,
|
|
1111,
|
|
1111,
|
|
1111,
|
|
1111,
|
|
1111,
|
|
1111,
|
|
1111,
|
|
1111,
|
|
1111,
|
|
1111,
|
|
1111,
|
|
1111,
|
|
1111,
|
|
1111,
|
|
1111,
|
|
1111,
|
|
1111,
|
|
1111,
|
|
1111,
|
|
1111,
|
|
1111,
|
|
1111,
|
|
1111,
|
|
1111,
|
|
1111,
|
|
1111,
|
|
1111,
|
|
1111,
|
|
1111,
|
|
1111,
|
|
1111,
|
|
1111,
|
|
1111,
|
|
1111,
|
|
1111,
|
|
1111,
|
|
1111,
|
|
1111,
|
|
1111,
|
|
1111,
|
|
1111,
|
|
1111,
|
|
1111,
|
|
1111,
|
|
1111,
|
|
1111,
|
|
1111,
|
|
1111,
|
|
1111,
|
|
1111,
|
|
1111,
|
|
1111,
|
|
1111,
|
|
1111,
|
|
1111,
|
|
1111,
|
|
1111,
|
|
1111,
|
|
1111,
|
|
1111,
|
|
1111,
|
|
1111,
|
|
1111,
|
|
1111,
|
|
1111,
|
|
1111,
|
|
1111,
|
|
1111,
|
|
1111,
|
|
1111,
|
|
1111,
|
|
1111,
|
|
1111,
|
|
1111,
|
|
1111,
|
|
1111,
|
|
1111,
|
|
1111,
|
|
1111,
|
|
1111,
|
|
1111,
|
|
1111,
|
|
1111,
|
|
1111,
|
|
1111,
|
|
1111,
|
|
1111,
|
|
1111,
|
|
1111,
|
|
1111,
|
|
1111,
|
|
1111,
|
|
1111,
|
|
1111,
|
|
1111,
|
|
1111,
|
|
1111,
|
|
1111,
|
|
1111,
|
|
1111,
|
|
1111,
|
|
1111,
|
|
1111,
|
|
1111,
|
|
1111,
|
|
1111,
|
|
1111,
|
|
1111,
|
|
1111,
|
|
1111,
|
|
1111,
|
|
1111,
|
|
1111,
|
|
1111,
|
|
1111,
|
|
1111,
|
|
1111,
|
|
1111,
|
|
1111,
|
|
1111,
|
|
1111,
|
|
1111,
|
|
1111,
|
|
1111,
|
|
1111,
|
|
1111,
|
|
1111,
|
|
1111,
|
|
1111,
|
|
1111,
|
|
1111,
|
|
1111,
|
|
1111,
|
|
1111,
|
|
1111,
|
|
1111,
|
|
1111,
|
|
1111,
|
|
1111,
|
|
1111,
|
|
1111,
|
|
1111,
|
|
1111,
|
|
1111,
|
|
1111,
|
|
1111,
|
|
1111,
|
|
1111,
|
|
1111,
|
|
1111,
|
|
1111,
|
|
1111,
|
|
1111,
|
|
1111,
|
|
1111,
|
|
1111,
|
|
1111,
|
|
1111,
|
|
1111,
|
|
1111,
|
|
1111,
|
|
1111,
|
|
1111,
|
|
1111,
|
|
1111,
|
|
1111,
|
|
1111,
|
|
1111,
|
|
1111,
|
|
1111,
|
|
1111,
|
|
1111,
|
|
1111,
|
|
1111,
|
|
1111,
|
|
1111,
|
|
1111,
|
|
1111,
|
|
1111,
|
|
1111,
|
|
1111,
|
|
1111,
|
|
1111,
|
|
1111,
|
|
1111,
|
|
1111,
|
|
1111,
|
|
1111,
|
|
1111,
|
|
1111,
|
|
1111,
|
|
1111,
|
|
1111,
|
|
1111,
|
|
1111,
|
|
1111,
|
|
1111,
|
|
1111,
|
|
1111,
|
|
1111,
|
|
1111,
|
|
1111,
|
|
1111,
|
|
1111,
|
|
1111,
|
|
1111,
|
|
1111,
|
|
1111,
|
|
1111,
|
|
1111,
|
|
1111,
|
|
1111,
|
|
1111,
|
|
1111,
|
|
1111,
|
|
1111,
|
|
1111,
|
|
1111,
|
|
1111,
|
|
1111,
|
|
1111,
|
|
1111,
|
|
1111,
|
|
1111,
|
|
1111,
|
|
1111,
|
|
1111,
|
|
1111,
|
|
1111,
|
|
1111,
|
|
1111,
|
|
1111,
|
|
1111,
|
|
1111,
|
|
1111,
|
|
1111,
|
|
1111,
|
|
1111,
|
|
1111,
|
|
1111,
|
|
1111,
|
|
1111,
|
|
1111,
|
|
1111,
|
|
1111,
|
|
1111,
|
|
1111,
|
|
1111,
|
|
1111,
|
|
1111,
|
|
1111,
|
|
1111,
|
|
1111,
|
|
1111,
|
|
1111,
|
|
1111,
|
|
1111,
|
|
1111,
|
|
1111,
|
|
1111,
|
|
1111,
|
|
1111,
|
|
1111,
|
|
1111,
|
|
1111,
|
|
1111,
|
|
1111,
|
|
1111,
|
|
1111,
|
|
1111,
|
|
1111,
|
|
1111,
|
|
1111,
|
|
1111,
|
|
1111,
|
|
1111,
|
|
1111,
|
|
1111,
|
|
1111,
|
|
1111,
|
|
1111,
|
|
1111,
|
|
1111,
|
|
1111,
|
|
1111,
|
|
1111,
|
|
1111,
|
|
1111,
|
|
1111,
|
|
1111,
|
|
1111,
|
|
1111,
|
|
1111,
|
|
1111,
|
|
1111,
|
|
1111,
|
|
1111,
|
|
1111,
|
|
1111,
|
|
1111,
|
|
1111,
|
|
1111,
|
|
1111,
|
|
1111,
|
|
1111,
|
|
1111,
|
|
1111,
|
|
1111,
|
|
1111,
|
|
1111,
|
|
1111,
|
|
1111,
|
|
1111,
|
|
1111,
|
|
1111,
|
|
1111,
|
|
1111,
|
|
1111,
|
|
1111,
|
|
1111,
|
|
1111,
|
|
1111,
|
|
1111,
|
|
1111,
|
|
1111,
|
|
1111,
|
|
1111,
|
|
1111,
|
|
1111,
|
|
1111,
|
|
1111,
|
|
1111,
|
|
1111,
|
|
1111,
|
|
1111,
|
|
1111,
|
|
1111,
|
|
1111,
|
|
1111,
|
|
1111,
|
|
1111,
|
|
1111,
|
|
1111,
|
|
1111,
|
|
1111,
|
|
1111,
|
|
1111,
|
|
1111,
|
|
1111,
|
|
1111,
|
|
1111,
|
|
1111,
|
|
1111,
|
|
1111,
|
|
1111,
|
|
1111,
|
|
1111,
|
|
1111,
|
|
1111,
|
|
1111,
|
|
1111,
|
|
1111,
|
|
1111,
|
|
1111,
|
|
1111,
|
|
1111,
|
|
1111,
|
|
1111,
|
|
1111,
|
|
1111,
|
|
1111,
|
|
1111,
|
|
1111,
|
|
1111,
|
|
1111,
|
|
1111,
|
|
1111,
|
|
1111,
|
|
1111,
|
|
1111,
|
|
1111,
|
|
1111,
|
|
1111,
|
|
1111,
|
|
1111,
|
|
1111,
|
|
1111,
|
|
1111,
|
|
1111,
|
|
1111,
|
|
1111,
|
|
1111,
|
|
1111,
|
|
1111,
|
|
1111,
|
|
1111,
|
|
1111,
|
|
1111,
|
|
1111,
|
|
1111,
|
|
1111,
|
|
1111,
|
|
1111,
|
|
1111,
|
|
1111,
|
|
1111,
|
|
1111,
|
|
1111,
|
|
1111,
|
|
1111,
|
|
1111,
|
|
1111,
|
|
1111,
|
|
1111,
|
|
1111,
|
|
1111,
|
|
1111,
|
|
1111,
|
|
1111,
|
|
1111,
|
|
1111,
|
|
1111,
|
|
1111,
|
|
1111,
|
|
1111,
|
|
1111,
|
|
1111,
|
|
1111,
|
|
1111,
|
|
1111,
|
|
1111,
|
|
1111,
|
|
1111,
|
|
1111,
|
|
1111,
|
|
1111,
|
|
1111,
|
|
1111,
|
|
1111,
|
|
1111,
|
|
1111,
|
|
1111,
|
|
1111,
|
|
1111,
|
|
1111,
|
|
1111,
|
|
1111,
|
|
1111,
|
|
1111,
|
|
1111,
|
|
1111,
|
|
1111,
|
|
1111,
|
|
1111,
|
|
1111,
|
|
1111,
|
|
1111,
|
|
1111,
|
|
1111,
|
|
1111,
|
|
1111,
|
|
1111,
|
|
1111,
|
|
1111,
|
|
1111,
|
|
1111,
|
|
1111,
|
|
1111,
|
|
1111,
|
|
1111,
|
|
1111,
|
|
1111,
|
|
1111,
|
|
1111,
|
|
1111,
|
|
1111,
|
|
1111,
|
|
1111,
|
|
1111,
|
|
1111,
|
|
1111,
|
|
1111,
|
|
1111,
|
|
1111,
|
|
1111,
|
|
1111,
|
|
1111,
|
|
1111,
|
|
1111,
|
|
1111,
|
|
1111,
|
|
1111,
|
|
1111,
|
|
1111,
|
|
1111,
|
|
1111,
|
|
1111,
|
|
1111,
|
|
1111,
|
|
1111,
|
|
1111,
|
|
1111,
|
|
1111,
|
|
1111,
|
|
1111,
|
|
1111,
|
|
1111,
|
|
1111,
|
|
1111,
|
|
1111,
|
|
1111,
|
|
1111,
|
|
1111,
|
|
1111,
|
|
1111,
|
|
1111,
|
|
1111,
|
|
1111,
|
|
1111,
|
|
1111,
|
|
1111,
|
|
1111,
|
|
1111,
|
|
1111,
|
|
1111,
|
|
1111,
|
|
1111,
|
|
1111,
|
|
1111,
|
|
1111,
|
|
1111,
|
|
1111,
|
|
1111,
|
|
1111,
|
|
1111,
|
|
1111,
|
|
1111,
|
|
1111,
|
|
1111,
|
|
1111,
|
|
1111,
|
|
1111,
|
|
1111,
|
|
1111,
|
|
1111,
|
|
1111,
|
|
1111,
|
|
1111,
|
|
1111,
|
|
1111,
|
|
1111,
|
|
1111,
|
|
1111,
|
|
1111,
|
|
1111,
|
|
1111,
|
|
1111,
|
|
1111,
|
|
1111,
|
|
1111,
|
|
1111,
|
|
1111,
|
|
1111,
|
|
1111,
|
|
1111,
|
|
1111,
|
|
1111,
|
|
1111,
|
|
1111,
|
|
1111,
|
|
1111,
|
|
1111,
|
|
1111,
|
|
1111,
|
|
1111,
|
|
1111,
|
|
1111,
|
|
1111,
|
|
1111,
|
|
1111,
|
|
1111,
|
|
1111,
|
|
1111,
|
|
1111,
|
|
1111,
|
|
1111,
|
|
1111,
|
|
1111,
|
|
1111,
|
|
1111,
|
|
1111,
|
|
1111,
|
|
1111,
|
|
1111,
|
|
1111,
|
|
1111,
|
|
1111,
|
|
1111,
|
|
1111,
|
|
1111,
|
|
1111,
|
|
1111,
|
|
1111,
|
|
1111,
|
|
1111,
|
|
1111,
|
|
1111,
|
|
1111,
|
|
1111,
|
|
1111,
|
|
1111,
|
|
1111,
|
|
1111,
|
|
1111,
|
|
1111,
|
|
1111,
|
|
1111,
|
|
1111,
|
|
1111,
|
|
1111,
|
|
1111,
|
|
1111,
|
|
1111,
|
|
1111,
|
|
1111,
|
|
1111,
|
|
1111,
|
|
1111,
|
|
1111,
|
|
1111,
|
|
1111,
|
|
1111,
|
|
1111,
|
|
1111,
|
|
1111,
|
|
1111,
|
|
1111,
|
|
1111,
|
|
1111,
|
|
1111,
|
|
1111,
|
|
1111,
|
|
1111,
|
|
1111,
|
|
1111,
|
|
1111,
|
|
1111,
|
|
1111,
|
|
1111,
|
|
1111,
|
|
1111,
|
|
1111,
|
|
1111,
|
|
1111,
|
|
1111,
|
|
1111,
|
|
1111,
|
|
1111,
|
|
1111,
|
|
1111,
|
|
1111,
|
|
1111,
|
|
1111,
|
|
1111,
|
|
1111,
|
|
1111,
|
|
1111,
|
|
1111,
|
|
1111,
|
|
1111,
|
|
1111,
|
|
1111,
|
|
1111,
|
|
1111,
|
|
1111,
|
|
1111,
|
|
1111,
|
|
1111,
|
|
1111,
|
|
1111,
|
|
1111,
|
|
1111,
|
|
1111,
|
|
1111,
|
|
1111,
|
|
1111,
|
|
1111,
|
|
1111,
|
|
1111,
|
|
1111,
|
|
1111,
|
|
1111,
|
|
1111,
|
|
1111,
|
|
1111,
|
|
1111,
|
|
1111,
|
|
1111,
|
|
1111,
|
|
1111,
|
|
1111,
|
|
1111,
|
|
1111,
|
|
1111,
|
|
1111,
|
|
1111,
|
|
1111,
|
|
1111,
|
|
1111,
|
|
1111,
|
|
1111,
|
|
1111,
|
|
1111,
|
|
1111,
|
|
1111,
|
|
1111,
|
|
1111,
|
|
1111,
|
|
1111,
|
|
1111,
|
|
1111,
|
|
1111,
|
|
1111,
|
|
1111,
|
|
1111,
|
|
1111,
|
|
1111,
|
|
1111,
|
|
1111,
|
|
1111,
|
|
1111,
|
|
1111,
|
|
1111,
|
|
1111,
|
|
1111,
|
|
1111,
|
|
1111,
|
|
1111,
|
|
1111,
|
|
1111,
|
|
1111,
|
|
1111,
|
|
1111,
|
|
1111,
|
|
1111,
|
|
1111,
|
|
1111,
|
|
1111,
|
|
1111,
|
|
1111,
|
|
1111,
|
|
1111,
|
|
1111,
|
|
1111,
|
|
1111,
|
|
1111,
|
|
1111,
|
|
1111,
|
|
1111,
|
|
1111,
|
|
1111,
|
|
1111,
|
|
1111,
|
|
1111,
|
|
1111,
|
|
1111,
|
|
1111,
|
|
1111,
|
|
1111,
|
|
1111,
|
|
1111,
|
|
1111,
|
|
1111,
|
|
1111,
|
|
1111,
|
|
1111,
|
|
1111,
|
|
1111,
|
|
1111,
|
|
1111,
|
|
1111,
|
|
1111,
|
|
1111,
|
|
1111,
|
|
1111,
|
|
1111,
|
|
1111,
|
|
1111,
|
|
1111,
|
|
1111,
|
|
1111,
|
|
1111,
|
|
1111,
|
|
1111,
|
|
1111,
|
|
1111,
|
|
1111,
|
|
1111,
|
|
1111,
|
|
1111,
|
|
1111,
|
|
1111,
|
|
1111,
|
|
1111,
|
|
1111,
|
|
1111,
|
|
1111,
|
|
1111,
|
|
1111,
|
|
1111,
|
|
1111,
|
|
1111,
|
|
1111,
|
|
1111,
|
|
1111,
|
|
1111,
|
|
1111,
|
|
1111,
|
|
1111,
|
|
1111,
|
|
1111,
|
|
1111,
|
|
1111,
|
|
1111,
|
|
1111,
|
|
1111,
|
|
1111,
|
|
1111,
|
|
1111,
|
|
1111,
|
|
1111,
|
|
1111,
|
|
1111,
|
|
1111,
|
|
1111,
|
|
1111,
|
|
1111,
|
|
1111,
|
|
1111,
|
|
1111,
|
|
1111,
|
|
1111,
|
|
1111,
|
|
1111,
|
|
1111,
|
|
1111,
|
|
1111,
|
|
1111,
|
|
1111,
|
|
1111,
|
|
1111,
|
|
1111,
|
|
1111,
|
|
1111,
|
|
1111,
|
|
1111,
|
|
1111,
|
|
1111,
|
|
1111,
|
|
1111,
|
|
1111,
|
|
1111,
|
|
1111,
|
|
1111,
|
|
1111,
|
|
1111,
|
|
1111,
|
|
1111,
|
|
1111,
|
|
1111,
|
|
1111,
|
|
1111,
|
|
1111,
|
|
1111,
|
|
1111,
|
|
1111,
|
|
1111,
|
|
1111,
|
|
1111,
|
|
1111,
|
|
1111,
|
|
1111,
|
|
1111,
|
|
1111,
|
|
1111,
|
|
1111,
|
|
1111,
|
|
1111,
|
|
1111,
|
|
1111,
|
|
1111,
|
|
1111,
|
|
1111,
|
|
1111,
|
|
1111,
|
|
1111,
|
|
1111,
|
|
1111,
|
|
1111,
|
|
1111,
|
|
1111,
|
|
1111,
|
|
1111,
|
|
1111,
|
|
1111,
|
|
1111,
|
|
1111,
|
|
1111,
|
|
1111,
|
|
1111,
|
|
1111,
|
|
1111,
|
|
1111,
|
|
1111,
|
|
1111,
|
|
1111,
|
|
1111,
|
|
1111,
|
|
1111,
|
|
1111,
|
|
1111,
|
|
1111,
|
|
1111,
|
|
1111,
|
|
1111,
|
|
1111,
|
|
1111,
|
|
1111,
|
|
1111,
|
|
1111,
|
|
1111,
|
|
1111,
|
|
1111,
|
|
1111,
|
|
1111,
|
|
1111,
|
|
1111,
|
|
1111,
|
|
1111,
|
|
1111,
|
|
1111,
|
|
1111,
|
|
1111,
|
|
1111,
|
|
1111,
|
|
1111,
|
|
1111,
|
|
1111,
|
|
1111,
|
|
1111,
|
|
1111,
|
|
1111,
|
|
1111,
|
|
1111,
|
|
1111,
|
|
1111,
|
|
1111,
|
|
1111,
|
|
1111,
|
|
1111,
|
|
1111,
|
|
1111,
|
|
1111,
|
|
1111,
|
|
1111,
|
|
1111,
|
|
1111,
|
|
1111,
|
|
1111,
|
|
1111,
|
|
1111,
|
|
1111,
|
|
1111,
|
|
1111,
|
|
1111,
|
|
1111,
|
|
1111,
|
|
1111,
|
|
1111,
|
|
1111,
|
|
1111,
|
|
1111,
|
|
1111,
|
|
1111,
|
|
1111,
|
|
1111,
|
|
1111,
|
|
1111,
|
|
1111,
|
|
1111,
|
|
1111,
|
|
1111,
|
|
1111,
|
|
1111,
|
|
1111,
|
|
1111,
|
|
1111,
|
|
1111,
|
|
1111,
|
|
1111,
|
|
1111,
|
|
1111,
|
|
1111,
|
|
1111,
|
|
1111,
|
|
1111,
|
|
1111,
|
|
1111,
|
|
1111,
|
|
1111,
|
|
1111,
|
|
1111,
|
|
1111,
|
|
1111,
|
|
1111,
|
|
1111,
|
|
1111,
|
|
1111,
|
|
1111,
|
|
1111,
|
|
1111,
|
|
1111,
|
|
1111,
|
|
1111,
|
|
1111,
|
|
1111,
|
|
1111,
|
|
1111,
|
|
1111,
|
|
1111,
|
|
1111,
|
|
1111,
|
|
1111,
|
|
1111,
|
|
1111,
|
|
1111,
|
|
1111,
|
|
1111,
|
|
1111,
|
|
1111,
|
|
1111,
|
|
1111,
|
|
1111,
|
|
1111,
|
|
1111,
|
|
1111,
|
|
1111,
|
|
1111,
|
|
1111,
|
|
1111,
|
|
1111,
|
|
1111,
|
|
1111,
|
|
1111,
|
|
1111,
|
|
1111,
|
|
1111,
|
|
1111,
|
|
1111,
|
|
1111,
|
|
1111,
|
|
1111,
|
|
1111,
|
|
1111,
|
|
1111,
|
|
1111,
|
|
1111,
|
|
1111,
|
|
1111,
|
|
1111,
|
|
1111,
|
|
1111,
|
|
1111,
|
|
1111,
|
|
1111,
|
|
1111,
|
|
1111,
|
|
1111,
|
|
1111,
|
|
1111,
|
|
1111,
|
|
1111,
|
|
1111,
|
|
1111,
|
|
1111,
|
|
1111,
|
|
1111,
|
|
1111,
|
|
1111,
|
|
1111,
|
|
1111,
|
|
1111,
|
|
1111,
|
|
1111,
|
|
1111,
|
|
1111,
|
|
1111,
|
|
1111,
|
|
1111,
|
|
1111,
|
|
1111,
|
|
1111,
|
|
1111,
|
|
1111,
|
|
1111,
|
|
1111,
|
|
1111,
|
|
1111,
|
|
1111,
|
|
1111,
|
|
1111,
|
|
1111,
|
|
1111,
|
|
1111,
|
|
1111,
|
|
1111,
|
|
1111,
|
|
1111,
|
|
1111,
|
|
1111,
|
|
1111,
|
|
1111,
|
|
1111,
|
|
1111,
|
|
1111,
|
|
1111,
|
|
1111,
|
|
1111,
|
|
1111,
|
|
1111,
|
|
1111,
|
|
1111,
|
|
1111,
|
|
1111,
|
|
1111,
|
|
1111,
|
|
1111,
|
|
1111,
|
|
1111,
|
|
1111,
|
|
1111,
|
|
1111,
|
|
1111,
|
|
1111,
|
|
1111,
|
|
1111,
|
|
1111,
|
|
1111,
|
|
1111,
|
|
1111,
|
|
1111,
|
|
1111,
|
|
1111,
|
|
1111,
|
|
1111,
|
|
1111,
|
|
1111,
|
|
1111,
|
|
1111,
|
|
1111,
|
|
1111,
|
|
1111,
|
|
1111,
|
|
1111,
|
|
1111,
|
|
1111,
|
|
1111,
|
|
1111,
|
|
1111,
|
|
1111,
|
|
1111,
|
|
1111,
|
|
1111,
|
|
1111,
|
|
1111,
|
|
1111,
|
|
1111,
|
|
1111,
|
|
1111,
|
|
1111,
|
|
1111,
|
|
1111,
|
|
1111,
|
|
1111,
|
|
1111,
|
|
1111,
|
|
1111,
|
|
1111,
|
|
1111,
|
|
1111,
|
|
1111,
|
|
1111,
|
|
1111,
|
|
1111,
|
|
1111,
|
|
1111,
|
|
1111,
|
|
1111,
|
|
1111,
|
|
1111,
|
|
1111,
|
|
1111,
|
|
1111,
|
|
1111,
|
|
1111,
|
|
1111,
|
|
1111,
|
|
1111,
|
|
1111,
|
|
1111,
|
|
1111,
|
|
1111,
|
|
1111,
|
|
1111,
|
|
1111,
|
|
1111,
|
|
1111,
|
|
1111,
|
|
1111,
|
|
1111,
|
|
1111,
|
|
1111,
|
|
1111,
|
|
1111,
|
|
1111,
|
|
1111,
|
|
1111,
|
|
1111,
|
|
1111,
|
|
1111,
|
|
1111,
|
|
1111,
|
|
1111,
|
|
1111,
|
|
1111,
|
|
1111,
|
|
1111,
|
|
1111,
|
|
1111,
|
|
1111,
|
|
1111,
|
|
1111,
|
|
1111,
|
|
1111,
|
|
1111,
|
|
1111,
|
|
1111,
|
|
1111,
|
|
1111,
|
|
1111,
|
|
1111,
|
|
1111,
|
|
1111,
|
|
1111,
|
|
1111,
|
|
1111,
|
|
1111,
|
|
1111,
|
|
1111,
|
|
1111,
|
|
1111,
|
|
1111,
|
|
1111,
|
|
1111,
|
|
1111,
|
|
1111,
|
|
1111,
|
|
1111,
|
|
1111,
|
|
1111,
|
|
1111,
|
|
1111,
|
|
1111,
|
|
1111,
|
|
1111,
|
|
1111,
|
|
1111,
|
|
1111,
|
|
1111,
|
|
1111,
|
|
1111,
|
|
1111,
|
|
1111,
|
|
1111,
|
|
1111,
|
|
1111,
|
|
1111,
|
|
1111,
|
|
1111,
|
|
1111,
|
|
1111,
|
|
1111,
|
|
1111,
|
|
1111,
|
|
1111,
|
|
1111,
|
|
1111,
|
|
1111,
|
|
1111,
|
|
1111,
|
|
1111,
|
|
1111,
|
|
1111,
|
|
1111,
|
|
1111,
|
|
1111,
|
|
1111,
|
|
1111,
|
|
1111,
|
|
1111,
|
|
1111,
|
|
1111,
|
|
1111,
|
|
1111,
|
|
1111,
|
|
1111,
|
|
1111,
|
|
1111,
|
|
1111,
|
|
1111,
|
|
1111,
|
|
1111,
|
|
1111,
|
|
1111,
|
|
1111,
|
|
1111,
|
|
1111,
|
|
1111,
|
|
1111,
|
|
1111,
|
|
1111,
|
|
1111,
|
|
1111,
|
|
1111,
|
|
1111,
|
|
1111,
|
|
1111,
|
|
1111,
|
|
1111,
|
|
1111,
|
|
1111,
|
|
1111,
|
|
1111,
|
|
1111,
|
|
1111,
|
|
1111,
|
|
1111,
|
|
1111,
|
|
1111,
|
|
1111,
|
|
1111,
|
|
1111,
|
|
1111,
|
|
1111,
|
|
1111,
|
|
1111,
|
|
1111,
|
|
1111,
|
|
1111,
|
|
1111,
|
|
1111,
|
|
1111,
|
|
1111,
|
|
1111,
|
|
1111,
|
|
1111,
|
|
1111,
|
|
1111,
|
|
1111,
|
|
1111,
|
|
1111,
|
|
1111,
|
|
1111,
|
|
1111,
|
|
1111,
|
|
1111,
|
|
1111,
|
|
1111,
|
|
1111,
|
|
1111,
|
|
1111,
|
|
1111,
|
|
1111,
|
|
1111,
|
|
1111,
|
|
1111,
|
|
1111,
|
|
1111,
|
|
1111,
|
|
1111,
|
|
1111,
|
|
1111,
|
|
1111,
|
|
1111,
|
|
1111,
|
|
1111,
|
|
1111,
|
|
1111,
|
|
1111,
|
|
1111,
|
|
1111,
|
|
1111,
|
|
1111,
|
|
1111,
|
|
1111,
|
|
1111,
|
|
1111,
|
|
1111,
|
|
1111,
|
|
1111,
|
|
1111,
|
|
1111,
|
|
1111,
|
|
1111,
|
|
1111,
|
|
1111,
|
|
1111,
|
|
1111,
|
|
1111,
|
|
1111,
|
|
1111,
|
|
1111,
|
|
1111,
|
|
1111,
|
|
1111,
|
|
1111,
|
|
1111,
|
|
1111,
|
|
1111,
|
|
1111,
|
|
1111,
|
|
1111,
|
|
1111,
|
|
1111,
|
|
1111,
|
|
1111,
|
|
1111,
|
|
1111,
|
|
1111,
|
|
1111,
|
|
1111,
|
|
1111,
|
|
1111,
|
|
1111,
|
|
1111,
|
|
1111,
|
|
1111,
|
|
1111,
|
|
1111,
|
|
1111,
|
|
1111,
|
|
1111,
|
|
1111,
|
|
1111,
|
|
1111,
|
|
1111,
|
|
1111,
|
|
1111,
|
|
1111,
|
|
1111,
|
|
1111,
|
|
1111,
|
|
1111,
|
|
1111,
|
|
1111,
|
|
1111,
|
|
1111,
|
|
1111,
|
|
1111,
|
|
1111,
|
|
1111,
|
|
1111,
|
|
1111,
|
|
1111,
|
|
1111,
|
|
1111,
|
|
1111,
|
|
1111,
|
|
1111,
|
|
1111,
|
|
1111,
|
|
1111,
|
|
1111,
|
|
1111,
|
|
1111,
|
|
1111,
|
|
1111,
|
|
1111,
|
|
1111,
|
|
1111,
|
|
1111,
|
|
1111,
|
|
1111,
|
|
1111,
|
|
1111,
|
|
1111,
|
|
1111,
|
|
1111,
|
|
1111,
|
|
1111,
|
|
1111,
|
|
1111,
|
|
1111,
|
|
1111,
|
|
1111,
|
|
1111,
|
|
1111,
|
|
1111,
|
|
1111,
|
|
1111,
|
|
1111,
|
|
1111,
|
|
1111,
|
|
1111,
|
|
1111,
|
|
1111,
|
|
1111,
|
|
1111,
|
|
1111,
|
|
1111,
|
|
1111,
|
|
1111,
|
|
1111,
|
|
1111,
|
|
1111,
|
|
1111,
|
|
1111,
|
|
1111,
|
|
1111,
|
|
1111,
|
|
1111,
|
|
1111,
|
|
1111,
|
|
1111,
|
|
1111,
|
|
1111,
|
|
1111,
|
|
1111,
|
|
1111,
|
|
1111,
|
|
1111,
|
|
1111,
|
|
1111,
|
|
1111,
|
|
1111,
|
|
1111,
|
|
1111,
|
|
1111,
|
|
1111,
|
|
1111,
|
|
1111,
|
|
1111,
|
|
1111,
|
|
1111,
|
|
1111,
|
|
1111,
|
|
1111,
|
|
1111,
|
|
1111,
|
|
1111,
|
|
1111,
|
|
1111,
|
|
1111,
|
|
1111,
|
|
1111,
|
|
1111,
|
|
1111,
|
|
1111,
|
|
1111,
|
|
1111,
|
|
1111,
|
|
1111,
|
|
1111,
|
|
1111,
|
|
1111,
|
|
1111,
|
|
1111,
|
|
1111,
|
|
1111,
|
|
1111,
|
|
1111,
|
|
1111,
|
|
1111,
|
|
1111,
|
|
1111,
|
|
1111,
|
|
1111,
|
|
1111,
|
|
1111,
|
|
1111,
|
|
1111,
|
|
1111,
|
|
1111,
|
|
1111,
|
|
1111,
|
|
1111,
|
|
1111,
|
|
1111,
|
|
1111,
|
|
1111,
|
|
1111,
|
|
1111,
|
|
1111,
|
|
1111,
|
|
1111,
|
|
1111,
|
|
1111,
|
|
1111,
|
|
1111,
|
|
1111,
|
|
1111,
|
|
1111,
|
|
1111,
|
|
1111,
|
|
1111,
|
|
1111,
|
|
1111,
|
|
1111,
|
|
1111,
|
|
1111,
|
|
1111,
|
|
1111,
|
|
1111,
|
|
1111,
|
|
1111,
|
|
1111,
|
|
1111,
|
|
1111,
|
|
1111,
|
|
1111,
|
|
1111,
|
|
1111,
|
|
1111,
|
|
1111,
|
|
1111,
|
|
1111,
|
|
1111,
|
|
1111,
|
|
1111,
|
|
1111,
|
|
1111,
|
|
1111,
|
|
1111,
|
|
1111,
|
|
1111,
|
|
1111,
|
|
1111,
|
|
1111,
|
|
1111,
|
|
1111,
|
|
1111,
|
|
1111,
|
|
1111,
|
|
1111,
|
|
1111,
|
|
1111,
|
|
1111,
|
|
1111,
|
|
1111,
|
|
1111,
|
|
1111,
|
|
1111,
|
|
1111,
|
|
1111,
|
|
1111,
|
|
1111,
|
|
1111,
|
|
1111,
|
|
1111,
|
|
1111,
|
|
1111,
|
|
1111,
|
|
1111,
|
|
1111,
|
|
1111,
|
|
1111,
|
|
1111,
|
|
1111,
|
|
1111,
|
|
1111,
|
|
1111,
|
|
1111,
|
|
1111,
|
|
1111,
|
|
1111,
|
|
1111,
|
|
1111,
|
|
1111,
|
|
1111,
|
|
1111,
|
|
1111,
|
|
1111,
|
|
1111,
|
|
1111,
|
|
1111,
|
|
1111,
|
|
1111,
|
|
1111,
|
|
1111,
|
|
1111,
|
|
1111,
|
|
1111,
|
|
1111,
|
|
1111,
|
|
1111,
|
|
1111,
|
|
1111,
|
|
1111,
|
|
1111,
|
|
1111,
|
|
1111,
|
|
1111,
|
|
1111,
|
|
1111,
|
|
1111,
|
|
1111,
|
|
1111,
|
|
1111,
|
|
1111,
|
|
1111,
|
|
1111,
|
|
1111,
|
|
1111,
|
|
1111,
|
|
1111,
|
|
1111,
|
|
1111,
|
|
1111,
|
|
1111,
|
|
1111,
|
|
1111,
|
|
1111,
|
|
1111,
|
|
1111,
|
|
1111,
|
|
1111,
|
|
1111,
|
|
1111,
|
|
1111,
|
|
1111,
|
|
1111,
|
|
1111,
|
|
1111,
|
|
1111,
|
|
1111,
|
|
1111,
|
|
1111,
|
|
1111,
|
|
1111,
|
|
1111,
|
|
1111,
|
|
1111,
|
|
1111,
|
|
1111,
|
|
1111,
|
|
1111,
|
|
1111,
|
|
1111,
|
|
1111,
|
|
1111,
|
|
1111,
|
|
1111,
|
|
1111,
|
|
1111,
|
|
1111,
|
|
1111,
|
|
1111,
|
|
1111,
|
|
1111,
|
|
1111,
|
|
1111,
|
|
1111,
|
|
1111,
|
|
1111,
|
|
1111,
|
|
1111,
|
|
1111,
|
|
1111,
|
|
1111,
|
|
1111,
|
|
1111,
|
|
1111,
|
|
1111,
|
|
1111,
|
|
1111,
|
|
1111,
|
|
1111,
|
|
1111,
|
|
1111,
|
|
1111,
|
|
1111,
|
|
1111,
|
|
1111,
|
|
1111,
|
|
1111,
|
|
1111,
|
|
1111,
|
|
1111,
|
|
1111,
|
|
1111,
|
|
1111,
|
|
1111,
|
|
1111,
|
|
1111,
|
|
1111,
|
|
1111,
|
|
1111,
|
|
1111,
|
|
1111,
|
|
1111,
|
|
1111,
|
|
1111,
|
|
1111,
|
|
1111,
|
|
1111,
|
|
1111,
|
|
1111,
|
|
1111,
|
|
1111,
|
|
1111,
|
|
1111,
|
|
1111,
|
|
1111,
|
|
1111,
|
|
1111,
|
|
1111,
|
|
1111,
|
|
1111,
|
|
1111,
|
|
1111,
|
|
1111,
|
|
1111,
|
|
1111,
|
|
1111,
|
|
1111,
|
|
1111,
|
|
1111,
|
|
1111,
|
|
1111,
|
|
1111,
|
|
1111,
|
|
1111,
|
|
1111,
|
|
1111,
|
|
1111,
|
|
1111,
|
|
1111,
|
|
1111,
|
|
1111,
|
|
1111,
|
|
1111,
|
|
1111,
|
|
1111,
|
|
1111,
|
|
1111,
|
|
1111,
|
|
1111,
|
|
1111,
|
|
1111,
|
|
1111,
|
|
1111,
|
|
1111,
|
|
1111,
|
|
1111,
|
|
1111,
|
|
1111,
|
|
1111,
|
|
1111,
|
|
1111,
|
|
1111,
|
|
1111,
|
|
1111,
|
|
1111,
|
|
1111,
|
|
1111,
|
|
1111,
|
|
1111,
|
|
1111,
|
|
1111,
|
|
1111,
|
|
1111,
|
|
1111,
|
|
1111,
|
|
1111,
|
|
1111,
|
|
1111,
|
|
1111,
|
|
1111,
|
|
1111,
|
|
1111,
|
|
1111,
|
|
1111,
|
|
1111,
|
|
1111,
|
|
1111,
|
|
1111,
|
|
1111,
|
|
1111,
|
|
1111,
|
|
1111,
|
|
1111,
|
|
1111,
|
|
1111,
|
|
1111,
|
|
1111,
|
|
1111,
|
|
1111,
|
|
1111,
|
|
1111,
|
|
1111,
|
|
1111,
|
|
1111,
|
|
1111,
|
|
1111,
|
|
1111,
|
|
1111,
|
|
1111,
|
|
1111,
|
|
1111,
|
|
1111,
|
|
1111,
|
|
1111,
|
|
1111,
|
|
1111,
|
|
1111,
|
|
1111,
|
|
1111,
|
|
1111,
|
|
1111,
|
|
1111,
|
|
1111,
|
|
1111,
|
|
1111,
|
|
1111,
|
|
1111,
|
|
1111,
|
|
1111,
|
|
1111,
|
|
1111,
|
|
1111,
|
|
1111,
|
|
1111,
|
|
1111,
|
|
1111,
|
|
1111,
|
|
1111,
|
|
1111,
|
|
1111,
|
|
1111,
|
|
1111,
|
|
1111,
|
|
1111,
|
|
1111,
|
|
1111,
|
|
1111,
|
|
1111,
|
|
1111,
|
|
1111,
|
|
1111,
|
|
1111,
|
|
1111,
|
|
1111,
|
|
1111,
|
|
1111,
|
|
1111,
|
|
1111,
|
|
1111,
|
|
1111,
|
|
1111,
|
|
1111,
|
|
1111,
|
|
1111,
|
|
1111,
|
|
1111,
|
|
1111,
|
|
1111,
|
|
1111,
|
|
1111,
|
|
1111,
|
|
1111,
|
|
1111,
|
|
1111,
|
|
1111,
|
|
1111,
|
|
1111,
|
|
1111,
|
|
1111,
|
|
1111,
|
|
1111,
|
|
1111,
|
|
1111,
|
|
1111,
|
|
1111,
|
|
1111,
|
|
1111,
|
|
1111,
|
|
1111,
|
|
1111,
|
|
1111,
|
|
1111,
|
|
1111,
|
|
1111,
|
|
1111,
|
|
1111,
|
|
1111,
|
|
1111,
|
|
1111,
|
|
1111,
|
|
1111,
|
|
1111,
|
|
1111,
|
|
1111,
|
|
1111,
|
|
1111,
|
|
1111,
|
|
1111,
|
|
1111,
|
|
1111,
|
|
1111,
|
|
1111,
|
|
1111,
|
|
1111,
|
|
1111,
|
|
1111,
|
|
1111,
|
|
1111,
|
|
1111,
|
|
1111,
|
|
1111,
|
|
1111,
|
|
1111,
|
|
1111,
|
|
1111,
|
|
1111,
|
|
1111,
|
|
1111,
|
|
1111,
|
|
1111,
|
|
1111,
|
|
1111,
|
|
1111,
|
|
1111,
|
|
1111,
|
|
1111,
|
|
1111,
|
|
1111,
|
|
1111,
|
|
1111,
|
|
1111,
|
|
1111,
|
|
1111,
|
|
1111,
|
|
1111,
|
|
1111,
|
|
1111,
|
|
1111,
|
|
1111,
|
|
1111,
|
|
1111,
|
|
1111,
|
|
1111,
|
|
1111,
|
|
1111,
|
|
1111,
|
|
1111,
|
|
1111,
|
|
1111,
|
|
1111,
|
|
1111,
|
|
1111,
|
|
1111,
|
|
1111,
|
|
1111,
|
|
1111,
|
|
1111,
|
|
1111,
|
|
1111,
|
|
1111,
|
|
1111,
|
|
1111,
|
|
1111,
|
|
1111,
|
|
1111,
|
|
1111,
|
|
1111,
|
|
1111,
|
|
1111,
|
|
1111,
|
|
1111,
|
|
1111,
|
|
1111,
|
|
1111,
|
|
1111,
|
|
1111,
|
|
1111,
|
|
1111,
|
|
1111,
|
|
1111,
|
|
1111,
|
|
1111,
|
|
1111,
|
|
1111,
|
|
1111,
|
|
1111,
|
|
1111,
|
|
1111,
|
|
1111,
|
|
1111,
|
|
1111,
|
|
1111,
|
|
1111,
|
|
1111,
|
|
1111,
|
|
1111,
|
|
1111,
|
|
1111,
|
|
1111,
|
|
1111,
|
|
1111,
|
|
1111,
|
|
1111,
|
|
1111,
|
|
1111,
|
|
1111,
|
|
1111,
|
|
1111,
|
|
1111,
|
|
1111,
|
|
1111,
|
|
1111,
|
|
1111,
|
|
1111,
|
|
1111,
|
|
1111,
|
|
1111,
|
|
1111,
|
|
1111,
|
|
1111,
|
|
1111,
|
|
1111,
|
|
1111,
|
|
1111,
|
|
1111,
|
|
1111,
|
|
1111,
|
|
1111,
|
|
1111,
|
|
1111,
|
|
1111,
|
|
1111,
|
|
1111,
|
|
1111,
|
|
1111,
|
|
1111,
|
|
1111,
|
|
1111,
|
|
1111,
|
|
1111,
|
|
1111,
|
|
1111,
|
|
1111,
|
|
1111,
|
|
1111,
|
|
1111,
|
|
1111,
|
|
1111,
|
|
1111,
|
|
1111,
|
|
1111,
|
|
1111,
|
|
1111,
|
|
1111,
|
|
1111,
|
|
1111,
|
|
1111,
|
|
1111,
|
|
1111,
|
|
1111,
|
|
1111,
|
|
1111,
|
|
1111,
|
|
1111,
|
|
1111,
|
|
1111,
|
|
1111,
|
|
1111,
|
|
1111,
|
|
1111,
|
|
1111,
|
|
1111,
|
|
1111,
|
|
1111,
|
|
1111,
|
|
1111,
|
|
1111,
|
|
1111,
|
|
1111,
|
|
1111,
|
|
1111,
|
|
1111,
|
|
1111,
|
|
1111,
|
|
1111,
|
|
1111,
|
|
1111,
|
|
1111,
|
|
1111,
|
|
1111,
|
|
1111,
|
|
1111,
|
|
1111,
|
|
1111,
|
|
1111,
|
|
1111,
|
|
1111,
|
|
1111,
|
|
1111,
|
|
1111,
|
|
1111,
|
|
1111,
|
|
1111,
|
|
1111,
|
|
1111,
|
|
1111,
|
|
1111,
|
|
1111,
|
|
1111,
|
|
1111,
|
|
1111,
|
|
1111,
|
|
1111,
|
|
1111,
|
|
1111,
|
|
1111,
|
|
1111,
|
|
1111,
|
|
1111,
|
|
1111,
|
|
1111,
|
|
1111,
|
|
1111,
|
|
1111,
|
|
1111,
|
|
1111,
|
|
1111,
|
|
1111,
|
|
1111,
|
|
1111,
|
|
1111,
|
|
1111,
|
|
1111,
|
|
1111,
|
|
1111,
|
|
1111,
|
|
1111,
|
|
1111,
|
|
1111,
|
|
1111,
|
|
1111,
|
|
1111,
|
|
1111,
|
|
1111,
|
|
1111,
|
|
1111,
|
|
1111,
|
|
1111,
|
|
1111,
|
|
1111,
|
|
1111,
|
|
1111,
|
|
1111,
|
|
1111,
|
|
1111,
|
|
1111,
|
|
1111,
|
|
1111,
|
|
1111,
|
|
1111,
|
|
1111,
|
|
1111,
|
|
1111,
|
|
1111,
|
|
1111,
|
|
1111,
|
|
1111,
|
|
1111,
|
|
1111,
|
|
1111,
|
|
1111,
|
|
1111,
|
|
1111,
|
|
1111,
|
|
1111,
|
|
1111,
|
|
1111,
|
|
1111,
|
|
1111,
|
|
1111,
|
|
1111,
|
|
1111,
|
|
1111,
|
|
1111,
|
|
1111,
|
|
1111,
|
|
1111,
|
|
1111,
|
|
1111,
|
|
1111,
|
|
1111,
|
|
1111,
|
|
1111,
|
|
1111,
|
|
1111,
|
|
1111,
|
|
1111,
|
|
1111,
|
|
1111,
|
|
1111,
|
|
1111,
|
|
1111,
|
|
1111,
|
|
1111,
|
|
1111,
|
|
1111,
|
|
1111,
|
|
1111,
|
|
1111,
|
|
1111,
|
|
1111,
|
|
1111,
|
|
1111,
|
|
1111,
|
|
1111,
|
|
1111,
|
|
1111,
|
|
1111,
|
|
1111,
|
|
1111,
|
|
1111,
|
|
1111,
|
|
1111,
|
|
1111,
|
|
1111,
|
|
1111,
|
|
1111,
|
|
1111,
|
|
1111,
|
|
1111,
|
|
1111,
|
|
1111,
|
|
1111,
|
|
1111,
|
|
1111,
|
|
1111,
|
|
1111,
|
|
1111,
|
|
1111,
|
|
1111,
|
|
1111,
|
|
1111,
|
|
1111,
|
|
1111,
|
|
1111,
|
|
1111,
|
|
1111,
|
|
1111,
|
|
1111,
|
|
1111,
|
|
1111,
|
|
1111,
|
|
1111,
|
|
1111,
|
|
1111,
|
|
1111,
|
|
1111,
|
|
1111,
|
|
1111,
|
|
1111,
|
|
1111,
|
|
1111,
|
|
1111,
|
|
1111,
|
|
1111,
|
|
1111,
|
|
1111,
|
|
1111,
|
|
1111,
|
|
1111,
|
|
1111,
|
|
1111,
|
|
1111,
|
|
1111,
|
|
1111,
|
|
1111,
|
|
1111,
|
|
1111,
|
|
1111,
|
|
1111,
|
|
1111,
|
|
1111,
|
|
1111,
|
|
1111,
|
|
1111,
|
|
1111,
|
|
1111,
|
|
1111,
|
|
1111,
|
|
1111,
|
|
1111,
|
|
1111,
|
|
1111,
|
|
1111,
|
|
1111,
|
|
1111,
|
|
1111,
|
|
1111,
|
|
1111,
|
|
1111,
|
|
1111,
|
|
1111,
|
|
1111,
|
|
1111,
|
|
1111,
|
|
1111,
|
|
1111,
|
|
1111,
|
|
1111,
|
|
1111,
|
|
1111,
|
|
1111,
|
|
1111,
|
|
1111,
|
|
1111,
|
|
1111,
|
|
1111,
|
|
1111,
|
|
1111,
|
|
1111,
|
|
1111,
|
|
1111,
|
|
1111,
|
|
1111,
|
|
1111,
|
|
1111,
|
|
1111,
|
|
1111,
|
|
1111,
|
|
1111,
|
|
1111,
|
|
1111,
|
|
1111,
|
|
1111,
|
|
1111,
|
|
1111,
|
|
1111,
|
|
1111,
|
|
1111,
|
|
1111,
|
|
1111,
|
|
1111,
|
|
1111,
|
|
1111,
|
|
1111,
|
|
1111,
|
|
1111,
|
|
1111,
|
|
1111,
|
|
1111,
|
|
1111,
|
|
1111,
|
|
1111,
|
|
1111,
|
|
1111,
|
|
1111,
|
|
1111,
|
|
1111,
|
|
1111,
|
|
1111,
|
|
1111,
|
|
1111,
|
|
1111,
|
|
1111,
|
|
1111,
|
|
1111,
|
|
1111,
|
|
1111,
|
|
1111,
|
|
1111,
|
|
1111,
|
|
1111,
|
|
1111,
|
|
1111,
|
|
1111,
|
|
1111,
|
|
1111,
|
|
1111,
|
|
1111,
|
|
1111,
|
|
1111,
|
|
1111,
|
|
1111,
|
|
1111,
|
|
1111,
|
|
1111,
|
|
1111,
|
|
1111,
|
|
1111,
|
|
1111,
|
|
1111,
|
|
1111,
|
|
1111,
|
|
1111,
|
|
1111,
|
|
1111,
|
|
1111,
|
|
1111,
|
|
1111,
|
|
1111,
|
|
1111,
|
|
1111,
|
|
1111,
|
|
1111,
|
|
1111,
|
|
1111,
|
|
1111,
|
|
1111,
|
|
1111,
|
|
1111,
|
|
1111,
|
|
1111,
|
|
1111,
|
|
1111,
|
|
1111,
|
|
1111,
|
|
1111,
|
|
1111,
|
|
1111,
|
|
1111,
|
|
1111,
|
|
1111,
|
|
1111,
|
|
1111,
|
|
1111,
|
|
1111,
|
|
1111,
|
|
1111,
|
|
1111,
|
|
1111,
|
|
1111,
|
|
1111,
|
|
1111,
|
|
1111,
|
|
1111,
|
|
1111,
|
|
1111,
|
|
1111,
|
|
1111,
|
|
1111,
|
|
1111,
|
|
1111,
|
|
1111,
|
|
1111,
|
|
1111,
|
|
1111,
|
|
1111,
|
|
1111,
|
|
1111,
|
|
1111,
|
|
1111,
|
|
1111,
|
|
1111,
|
|
1111,
|
|
1111,
|
|
1111,
|
|
1111,
|
|
1111,
|
|
1111,
|
|
1111,
|
|
1111,
|
|
1111,
|
|
1111,
|
|
1111,
|
|
1111,
|
|
1111,
|
|
1111,
|
|
1111,
|
|
1111,
|
|
1111,
|
|
1111,
|
|
1111,
|
|
1111,
|
|
1111,
|
|
1111,
|
|
1111,
|
|
1111,
|
|
1111,
|
|
1111,
|
|
1111,
|
|
1111,
|
|
1111,
|
|
1111,
|
|
1111,
|
|
1111,
|
|
1111,
|
|
1111,
|
|
1111,
|
|
1111,
|
|
1111,
|
|
1111,
|
|
1111,
|
|
1111,
|
|
1111,
|
|
1111,
|
|
1111,
|
|
1111,
|
|
1111,
|
|
1111,
|
|
1111,
|
|
1111,
|
|
1111,
|
|
1111,
|
|
1111,
|
|
1111,
|
|
1111,
|
|
1111,
|
|
1111,
|
|
1111,
|
|
1111,
|
|
1111,
|
|
1111,
|
|
1111,
|
|
1111,
|
|
1111,
|
|
1111,
|
|
1111,
|
|
1111,
|
|
1111,
|
|
1111,
|
|
1111,
|
|
1111,
|
|
1111,
|
|
1111,
|
|
1111,
|
|
1111,
|
|
1111,
|
|
1111,
|
|
1111,
|
|
1111,
|
|
1111,
|
|
1111,
|
|
1111,
|
|
1111,
|
|
1111,
|
|
1111,
|
|
1111,
|
|
1111,
|
|
1111,
|
|
1111,
|
|
1111,
|
|
1111,
|
|
1111,
|
|
1111,
|
|
1111,
|
|
1111,
|
|
1111,
|
|
1111,
|
|
1111,
|
|
1111,
|
|
1111,
|
|
1111,
|
|
1111,
|
|
1111,
|
|
1111,
|
|
1111,
|
|
1111,
|
|
1111,
|
|
1111,
|
|
1111,
|
|
1111,
|
|
1111,
|
|
1111,
|
|
1111,
|
|
1111,
|
|
1111,
|
|
1111,
|
|
1111,
|
|
1111,
|
|
1111,
|
|
1111,
|
|
1111,
|
|
1111,
|
|
1111,
|
|
1111,
|
|
1111,
|
|
1111,
|
|
1111,
|
|
1111,
|
|
1111,
|
|
1111,
|
|
1111,
|
|
1111,
|
|
1111,
|
|
1111,
|
|
1111,
|
|
1111,
|
|
1111,
|
|
1111,
|
|
1111,
|
|
1111,
|
|
1111,
|
|
1111,
|
|
1111,
|
|
1111,
|
|
1111,
|
|
1111,
|
|
1111,
|
|
1111,
|
|
1111,
|
|
1111,
|
|
1111,
|
|
1111,
|
|
1111,
|
|
1111,
|
|
1111,
|
|
1111,
|
|
1111,
|
|
1111,
|
|
1111,
|
|
1111,
|
|
1111,
|
|
1111,
|
|
1111,
|
|
1111,
|
|
1111,
|
|
1111,
|
|
1111,
|
|
1111,
|
|
1111,
|
|
1111,
|
|
1111,
|
|
1111,
|
|
1111,
|
|
1111,
|
|
1111,
|
|
1111,
|
|
1111,
|
|
1111,
|
|
1111,
|
|
1111,
|
|
1111,
|
|
1111,
|
|
1111,
|
|
1111,
|
|
1111,
|
|
1111,
|
|
1111,
|
|
1111,
|
|
1111,
|
|
1111,
|
|
1111,
|
|
1111,
|
|
1111,
|
|
1111,
|
|
1111,
|
|
1111,
|
|
1111,
|
|
1111,
|
|
1111,
|
|
1111,
|
|
1111,
|
|
1111,
|
|
1111,
|
|
1111,
|
|
1111,
|
|
1111,
|
|
1111,
|
|
1111,
|
|
1111,
|
|
1111,
|
|
1111,
|
|
1111,
|
|
1111,
|
|
1111,
|
|
1111,
|
|
1111,
|
|
1111,
|
|
1111,
|
|
1111,
|
|
1111,
|
|
1111,
|
|
1111,
|
|
1111,
|
|
1111,
|
|
1111,
|
|
1111,
|
|
1111,
|
|
1111,
|
|
1111,
|
|
1111,
|
|
1111,
|
|
1111,
|
|
1111,
|
|
1111,
|
|
1111,
|
|
1111,
|
|
1111,
|
|
1111,
|
|
1111,
|
|
1111,
|
|
1111,
|
|
1111,
|
|
1111,
|
|
1111,
|
|
1111,
|
|
1111,
|
|
1111,
|
|
1111,
|
|
1111,
|
|
1111,
|
|
1111,
|
|
1111,
|
|
1111,
|
|
1111,
|
|
1111,
|
|
1111,
|
|
1111,
|
|
1111,
|
|
1111,
|
|
1111,
|
|
1111,
|
|
1111,
|
|
1111,
|
|
1111,
|
|
1111,
|
|
1111,
|
|
1111,
|
|
1111,
|
|
1111,
|
|
1111,
|
|
1111,
|
|
1111,
|
|
1111,
|
|
1111,
|
|
1111,
|
|
1111,
|
|
1111,
|
|
1111,
|
|
1111,
|
|
1111,
|
|
1111,
|
|
1111,
|
|
1111,
|
|
1111,
|
|
1111,
|
|
1111,
|
|
1111,
|
|
1111,
|
|
1111,
|
|
1111,
|
|
1111,
|
|
1111,
|
|
1111,
|
|
1111,
|
|
1111,
|
|
1111,
|
|
1111,
|
|
1111,
|
|
1111,
|
|
1111,
|
|
1111,
|
|
1111,
|
|
1111,
|
|
1111,
|
|
1111,
|
|
1111,
|
|
1111,
|
|
1111,
|
|
1111,
|
|
1111,
|
|
1111,
|
|
1111,
|
|
1111,
|
|
1111,
|
|
1111,
|
|
1111,
|
|
1111,
|
|
1111,
|
|
1111,
|
|
1111,
|
|
1111,
|
|
1111,
|
|
1111,
|
|
1111,
|
|
1111,
|
|
1111,
|
|
1111,
|
|
1111,
|
|
1111,
|
|
1111,
|
|
1111,
|
|
1111,
|
|
1111,
|
|
1111,
|
|
1111,
|
|
1111,
|
|
1111,
|
|
1111,
|
|
1111,
|
|
1111,
|
|
1111,
|
|
1111,
|
|
1111,
|
|
1111,
|
|
1111,
|
|
1111,
|
|
1111,
|
|
1111,
|
|
1111,
|
|
1111,
|
|
1111,
|
|
1111,
|
|
1111,
|
|
1111,
|
|
1111,
|
|
1111,
|
|
1111,
|
|
1111,
|
|
1111,
|
|
1111,
|
|
1111,
|
|
1111,
|
|
1111,
|
|
1111,
|
|
1111,
|
|
1111,
|
|
1111,
|
|
1111,
|
|
1111,
|
|
1111,
|
|
1111,
|
|
1111,
|
|
1111,
|
|
1111,
|
|
1111,
|
|
1111,
|
|
1111,
|
|
1111,
|
|
1111,
|
|
1111,
|
|
1111,
|
|
1111,
|
|
1111,
|
|
1111,
|
|
1111,
|
|
1111,
|
|
1111,
|
|
1111,
|
|
1111,
|
|
1111,
|
|
1111,
|
|
1111,
|
|
1111,
|
|
1111,
|
|
1111,
|
|
1111,
|
|
1111,
|
|
1111,
|
|
1111,
|
|
1111,
|
|
1111,
|
|
1111,
|
|
1111,
|
|
1111,
|
|
1111,
|
|
1111,
|
|
1111,
|
|
1111,
|
|
1111,
|
|
1111,
|
|
1111,
|
|
1111,
|
|
1111,
|
|
1111,
|
|
1111,
|
|
1111,
|
|
1111,
|
|
1111,
|
|
1111,
|
|
1111,
|
|
1111,
|
|
1111,
|
|
1111,
|
|
1111,
|
|
1111,
|
|
1111,
|
|
1111,
|
|
1111,
|
|
1111,
|
|
1111,
|
|
1111,
|
|
1111,
|
|
1111,
|
|
1111,
|
|
1111,
|
|
1111,
|
|
1111,
|
|
1111,
|
|
1111,
|
|
1111,
|
|
1111,
|
|
1111,
|
|
1111,
|
|
1111,
|
|
1111,
|
|
1111,
|
|
1111,
|
|
1111,
|
|
1111,
|
|
1111,
|
|
1111,
|
|
1111,
|
|
1111,
|
|
1111,
|
|
1111,
|
|
1111,
|
|
1111,
|
|
1111,
|
|
1111,
|
|
1111,
|
|
1111,
|
|
1111,
|
|
1111,
|
|
1111,
|
|
1111,
|
|
1111,
|
|
1111,
|
|
1111,
|
|
1111,
|
|
1111,
|
|
1111,
|
|
1111,
|
|
1111,
|
|
1111,
|
|
1111,
|
|
1111,
|
|
1111,
|
|
1111,
|
|
1111,
|
|
1111,
|
|
1111,
|
|
1111,
|
|
1111,
|
|
1111,
|
|
1111,
|
|
1111,
|
|
1111,
|
|
1111,
|
|
1111,
|
|
1111,
|
|
1111,
|
|
1111,
|
|
1111,
|
|
1111,
|
|
1111,
|
|
1111,
|
|
1111,
|
|
1111,
|
|
1111,
|
|
1111,
|
|
1111,
|
|
1111,
|
|
1111,
|
|
1111,
|
|
1111,
|
|
1111,
|
|
1111,
|
|
1111,
|
|
1111,
|
|
1111,
|
|
1111,
|
|
1111,
|
|
1111,
|
|
1111,
|
|
1111,
|
|
1111,
|
|
1111,
|
|
1111,
|
|
1111,
|
|
1111,
|
|
1111,
|
|
1111,
|
|
1111,
|
|
1111,
|
|
1111,
|
|
1111,
|
|
1111,
|
|
1111,
|
|
1111,
|
|
1111,
|
|
1111,
|
|
1111,
|
|
1111,
|
|
1111,
|
|
1111,
|
|
1111,
|
|
1111,
|
|
1111,
|
|
1111,
|
|
1111,
|
|
1111,
|
|
1111,
|
|
1111,
|
|
1111,
|
|
1111,
|
|
1111,
|
|
1111,
|
|
1111,
|
|
1111,
|
|
1111,
|
|
1111,
|
|
1111,
|
|
1111,
|
|
1111,
|
|
1111,
|
|
1111,
|
|
1111,
|
|
1111,
|
|
1111,
|
|
1111,
|
|
1111,
|
|
1111,
|
|
1111,
|
|
1111,
|
|
1111,
|
|
1111,
|
|
1111,
|
|
1111,
|
|
1111,
|
|
1111,
|
|
1111,
|
|
1111,
|
|
1111,
|
|
1111,
|
|
1111,
|
|
1111,
|
|
1111,
|
|
1111,
|
|
1111,
|
|
1111,
|
|
1111,
|
|
1111,
|
|
1111,
|
|
1111,
|
|
1111,
|
|
1111,
|
|
1111,
|
|
1111,
|
|
1111,
|
|
1111,
|
|
1111,
|
|
1111,
|
|
1111,
|
|
1111,
|
|
1111,
|
|
1111,
|
|
1111,
|
|
1111,
|
|
1111,
|
|
1111,
|
|
1111,
|
|
1111,
|
|
1111,
|
|
1111,
|
|
1111,
|
|
1111,
|
|
1111,
|
|
1111,
|
|
1111,
|
|
1111,
|
|
1111,
|
|
1111,
|
|
1111,
|
|
1111,
|
|
1111,
|
|
1111,
|
|
1111,
|
|
1111,
|
|
1111,
|
|
1111,
|
|
1111,
|
|
1111,
|
|
1111,
|
|
1111,
|
|
1111,
|
|
1111,
|
|
1111,
|
|
1111,
|
|
1111,
|
|
1111,
|
|
1111,
|
|
1111,
|
|
1111,
|
|
1111,
|
|
1111,
|
|
1111,
|
|
1111,
|
|
1111,
|
|
1111,
|
|
1111,
|
|
1111,
|
|
1111,
|
|
1111,
|
|
1111,
|
|
1111,
|
|
1111,
|
|
1111,
|
|
1111,
|
|
1111,
|
|
1111,
|
|
1111,
|
|
1111,
|
|
1111,
|
|
1111,
|
|
1111,
|
|
1111,
|
|
1111,
|
|
1111,
|
|
1111,
|
|
1111,
|
|
1111,
|
|
1111,
|
|
1111,
|
|
1111,
|
|
1111,
|
|
1111,
|
|
1111,
|
|
1111,
|
|
1111,
|
|
1111,
|
|
1111,
|
|
1111,
|
|
1111,
|
|
1111,
|
|
1111,
|
|
1111,
|
|
1111,
|
|
1111,
|
|
1111,
|
|
1111,
|
|
1111,
|
|
1111,
|
|
1111,
|
|
1111,
|
|
1111,
|
|
1111,
|
|
1111,
|
|
1111,
|
|
1111,
|
|
1111,
|
|
1111,
|
|
1111,
|
|
1111,
|
|
1111,
|
|
1111,
|
|
1111,
|
|
1111,
|
|
1111,
|
|
1111,
|
|
1111,
|
|
1111,
|
|
1111,
|
|
1111,
|
|
1111,
|
|
1111,
|
|
1111,
|
|
1111,
|
|
1111,
|
|
1111,
|
|
1111,
|
|
1111,
|
|
1111,
|
|
1111,
|
|
1111,
|
|
1111,
|
|
1111,
|
|
1111,
|
|
1111,
|
|
1111,
|
|
1111,
|
|
1111,
|
|
1111,
|
|
1111,
|
|
1111,
|
|
1111,
|
|
1111,
|
|
1111,
|
|
1111,
|
|
1111,
|
|
1111,
|
|
1111,
|
|
1111,
|
|
1111,
|
|
1111,
|
|
1111,
|
|
1111,
|
|
1111,
|
|
1111,
|
|
1111,
|
|
1111,
|
|
1111,
|
|
1111,
|
|
1111,
|
|
1111,
|
|
1111,
|
|
1111,
|
|
1111,
|
|
1111,
|
|
1111,
|
|
1111,
|
|
1111,
|
|
1111,
|
|
1111,
|
|
1111,
|
|
1111,
|
|
1111,
|
|
1111,
|
|
1111,
|
|
1111,
|
|
1111,
|
|
1111,
|
|
1111,
|
|
1111,
|
|
1111,
|
|
1111,
|
|
1111,
|
|
1111,
|
|
1111,
|
|
1111,
|
|
1111,
|
|
1111,
|
|
1111,
|
|
1111,
|
|
1111,
|
|
1111,
|
|
1111,
|
|
1111,
|
|
1111,
|
|
1111,
|
|
1111,
|
|
1111,
|
|
1111,
|
|
1111,
|
|
1111,
|
|
1111,
|
|
1111,
|
|
1111,
|
|
1111,
|
|
1111,
|
|
1111,
|
|
1111,
|
|
1111,
|
|
1111,
|
|
1111,
|
|
1111,
|
|
1111,
|
|
1111,
|
|
1111,
|
|
1111,
|
|
1111,
|
|
1111,
|
|
1111,
|
|
1111,
|
|
1111,
|
|
1111,
|
|
1111,
|
|
1111,
|
|
1111,
|
|
1111,
|
|
1111,
|
|
1111,
|
|
1111,
|
|
1111,
|
|
1111,
|
|
1111,
|
|
1111,
|
|
1111,
|
|
1111,
|
|
1111,
|
|
1111,
|
|
1111,
|
|
1111,
|
|
1111,
|
|
1111,
|
|
1111,
|
|
1111,
|
|
1111,
|
|
1111,
|
|
1111,
|
|
1111,
|
|
1111,
|
|
1111,
|
|
1111,
|
|
1111,
|
|
1111,
|
|
1111,
|
|
1111,
|
|
1111,
|
|
1111,
|
|
1111,
|
|
1111,
|
|
1111,
|
|
1111,
|
|
1111,
|
|
1111,
|
|
1111,
|
|
1111,
|
|
1111,
|
|
1111,
|
|
1111,
|
|
1111,
|
|
1111,
|
|
1111,
|
|
1111,
|
|
1111,
|
|
1111,
|
|
1111,
|
|
1111,
|
|
1111,
|
|
1111,
|
|
1111,
|
|
1111,
|
|
1111,
|
|
1111,
|
|
1111,
|
|
1111,
|
|
1111,
|
|
1111,
|
|
1111,
|
|
1111,
|
|
1111,
|
|
1111,
|
|
1111,
|
|
1111,
|
|
1111,
|
|
1111,
|
|
1111,
|
|
1111,
|
|
1111,
|
|
1111,
|
|
1111,
|
|
1111,
|
|
1111,
|
|
1111,
|
|
1111,
|
|
1111,
|
|
1111,
|
|
1111,
|
|
1111,
|
|
1111,
|
|
1111,
|
|
1111,
|
|
1111,
|
|
1111,
|
|
1111,
|
|
1111,
|
|
1111,
|
|
1111,
|
|
1111,
|
|
1111,
|
|
1111,
|
|
1111,
|
|
1111,
|
|
1111,
|
|
1111,
|
|
1111,
|
|
1111,
|
|
1111,
|
|
1111,
|
|
1111,
|
|
1111,
|
|
1111,
|
|
1111,
|
|
1111,
|
|
1111,
|
|
1111,
|
|
1111,
|
|
1111,
|
|
1111,
|
|
1111,
|
|
1111,
|
|
1111,
|
|
1111,
|
|
1111,
|
|
1111,
|
|
1111,
|
|
1111,
|
|
1111,
|
|
1111,
|
|
1111,
|
|
1111,
|
|
1111,
|
|
1111,
|
|
1111,
|
|
1111,
|
|
1111,
|
|
1111,
|
|
1111,
|
|
1111,
|
|
1111,
|
|
1111,
|
|
1111,
|
|
1111,
|
|
1111,
|
|
1111,
|
|
1111,
|
|
1111,
|
|
1111,
|
|
1111,
|
|
1111,
|
|
1111,
|
|
1111,
|
|
1111,
|
|
1111,
|
|
1111,
|
|
1111,
|
|
1111,
|
|
1111,
|
|
1111,
|
|
1111,
|
|
1111,
|
|
1111,
|
|
1111,
|
|
1111,
|
|
1111,
|
|
1111,
|
|
1111,
|
|
1111,
|
|
1111,
|
|
1111,
|
|
1111,
|
|
1111,
|
|
1111,
|
|
1111,
|
|
1111,
|
|
1111,
|
|
1111,
|
|
1111,
|
|
1111,
|
|
1111,
|
|
1111,
|
|
1111,
|
|
1111,
|
|
1111,
|
|
1111,
|
|
1111,
|
|
1111,
|
|
1111,
|
|
1111,
|
|
1111,
|
|
1111,
|
|
1111,
|
|
1111,
|
|
1111,
|
|
1111,
|
|
1111,
|
|
1111,
|
|
1111,
|
|
1111,
|
|
1111,
|
|
1111,
|
|
1111,
|
|
1111,
|
|
1111,
|
|
1111,
|
|
1111,
|
|
1111,
|
|
1111,
|
|
1111,
|
|
1111,
|
|
1111,
|
|
1111,
|
|
1111,
|
|
1111,
|
|
1111,
|
|
1111,
|
|
1111,
|
|
1111,
|
|
1111,
|
|
1111,
|
|
1111,
|
|
1111,
|
|
1111,
|
|
1111,
|
|
1111,
|
|
1111,
|
|
1111,
|
|
1111,
|
|
1111,
|
|
1111,
|
|
1111,
|
|
1111,
|
|
1111,
|
|
1111,
|
|
1111,
|
|
1111,
|
|
1111,
|
|
1111,
|
|
1111,
|
|
1111,
|
|
1111,
|
|
1111,
|
|
1111,
|
|
1111,
|
|
1111,
|
|
1111,
|
|
1111,
|
|
1111,
|
|
1111,
|
|
1111,
|
|
1111,
|
|
1111,
|
|
1111,
|
|
1111,
|
|
1111,
|
|
1111,
|
|
1111,
|
|
1111,
|
|
1111,
|
|
1111,
|
|
1111,
|
|
1111,
|
|
1111,
|
|
1111,
|
|
1111,
|
|
1111,
|
|
1111,
|
|
1111,
|
|
1111,
|
|
1111,
|
|
1111,
|
|
1111,
|
|
1111,
|
|
1111,
|
|
1111,
|
|
1111,
|
|
1111,
|
|
1111,
|
|
1111,
|
|
1111,
|
|
1111,
|
|
1111,
|
|
1111,
|
|
1111,
|
|
1111,
|
|
1111,
|
|
1111,
|
|
1111,
|
|
1111,
|
|
1111,
|
|
1111,
|
|
1111,
|
|
1111,
|
|
1111,
|
|
1111,
|
|
1111,
|
|
1111,
|
|
1111,
|
|
1111,
|
|
1111,
|
|
1111,
|
|
1111,
|
|
1111,
|
|
1111,
|
|
1111,
|
|
1111,
|
|
1111,
|
|
1111,
|
|
1111,
|
|
1111,
|
|
1111,
|
|
1111,
|
|
1111,
|
|
1111,
|
|
1111,
|
|
1111,
|
|
1111,
|
|
1111,
|
|
1111,
|
|
1111,
|
|
1111,
|
|
1111,
|
|
1111,
|
|
1111,
|
|
1111,
|
|
1111,
|
|
1111,
|
|
1111,
|
|
1111,
|
|
1111,
|
|
1111,
|
|
1111,
|
|
1111,
|
|
1111,
|
|
1111,
|
|
1111,
|
|
1111,
|
|
1111,
|
|
1111,
|
|
1111,
|
|
1111,
|
|
1111,
|
|
1111,
|
|
1111,
|
|
1111,
|
|
1111,
|
|
1111,
|
|
1111,
|
|
1111,
|
|
1111,
|
|
1111,
|
|
1111,
|
|
1111,
|
|
1111,
|
|
1111,
|
|
1111,
|
|
1111,
|
|
1111,
|
|
1111,
|
|
1111,
|
|
1111,
|
|
1111,
|
|
1111,
|
|
1111,
|
|
1111,
|
|
1111,
|
|
1111,
|
|
1111,
|
|
1111,
|
|
1111,
|
|
1111,
|
|
1111,
|
|
1111,
|
|
1111,
|
|
1111,
|
|
1111,
|
|
1111,
|
|
1111,
|
|
1111,
|
|
1111,
|
|
1111,
|
|
1111,
|
|
1111,
|
|
1111,
|
|
1111,
|
|
1111,
|
|
1111,
|
|
1111,
|
|
1111,
|
|
1111,
|
|
1111,
|
|
1111,
|
|
1111,
|
|
1111,
|
|
1111,
|
|
1111,
|
|
1111,
|
|
1111,
|
|
1111,
|
|
1111,
|
|
1111,
|
|
1111,
|
|
1111,
|
|
1111,
|
|
1111,
|
|
1111,
|
|
1111,
|
|
1111,
|
|
1111,
|
|
1111,
|
|
1111,
|
|
1111,
|
|
1111,
|
|
1111,
|
|
1111,
|
|
1111,
|
|
1111,
|
|
1111,
|
|
1111,
|
|
1111,
|
|
1111,
|
|
1111,
|
|
1111,
|
|
1111,
|
|
1111,
|
|
1111,
|
|
1111,
|
|
1111,
|
|
1111,
|
|
1111,
|
|
1111,
|
|
1111,
|
|
1111,
|
|
1111,
|
|
1111,
|
|
1111,
|
|
1111,
|
|
1111,
|
|
1111,
|
|
1111,
|
|
1111,
|
|
1111,
|
|
1111,
|
|
1111,
|
|
1111,
|
|
1111,
|
|
1111,
|
|
1111,
|
|
1111,
|
|
1111,
|
|
1111,
|
|
1111,
|
|
1111,
|
|
1111,
|
|
1111,
|
|
1111,
|
|
1111,
|
|
1111,
|
|
1111,
|
|
1111,
|
|
1111,
|
|
1111,
|
|
1111,
|
|
1111,
|
|
1111,
|
|
1111,
|
|
1111,
|
|
1111,
|
|
1111,
|
|
1111,
|
|
1111,
|
|
1111,
|
|
1111,
|
|
1111,
|
|
1111,
|
|
1111,
|
|
1111,
|
|
1111,
|
|
1111,
|
|
1111,
|
|
1111,
|
|
1111,
|
|
1111,
|
|
1111,
|
|
1111,
|
|
1111,
|
|
1111,
|
|
1111,
|
|
1111,
|
|
1111,
|
|
1111,
|
|
1111,
|
|
1111,
|
|
1111,
|
|
1111,
|
|
1111,
|
|
1111,
|
|
1111,
|
|
1111,
|
|
1111,
|
|
1111,
|
|
1111,
|
|
1111,
|
|
1111,
|
|
1111,
|
|
1111,
|
|
1111,
|
|
1111,
|
|
1111,
|
|
1111,
|
|
1111,
|
|
1111,
|
|
1111,
|
|
1111,
|
|
1111,
|
|
1111,
|
|
1111,
|
|
1111,
|
|
1111,
|
|
1111,
|
|
1111,
|
|
1111,
|
|
1111,
|
|
1111,
|
|
1111,
|
|
1111,
|
|
1111,
|
|
1111,
|
|
1111,
|
|
1111,
|
|
1111,
|
|
1111,
|
|
1111,
|
|
1111,
|
|
1111,
|
|
1111,
|
|
1111,
|
|
1111,
|
|
1111,
|
|
1111,
|
|
1111,
|
|
1111,
|
|
1111,
|
|
1111,
|
|
1111,
|
|
1111,
|
|
1111,
|
|
1111,
|
|
1111,
|
|
1111,
|
|
1111,
|
|
1111,
|
|
1111,
|
|
1111,
|
|
1111,
|
|
1111,
|
|
1111,
|
|
1111,
|
|
1111,
|
|
1111,
|
|
1111,
|
|
1111,
|
|
1111,
|
|
1111,
|
|
1111,
|
|
1111,
|
|
1111,
|
|
1111,
|
|
1111,
|
|
1111,
|
|
1111,
|
|
1111,
|
|
1111,
|
|
1111,
|
|
1111,
|
|
1111,
|
|
1111,
|
|
1111,
|
|
1111,
|
|
1111,
|
|
1111,
|
|
1111,
|
|
1111,
|
|
1111,
|
|
1111,
|
|
1111,
|
|
1111,
|
|
1111,
|
|
1111,
|
|
1111,
|
|
1111,
|
|
1111,
|
|
1111,
|
|
1111,
|
|
1111,
|
|
1111,
|
|
1111,
|
|
1111,
|
|
1111,
|
|
1111,
|
|
1111,
|
|
1111,
|
|
1111,
|
|
1111,
|
|
1111,
|
|
1111,
|
|
1111,
|
|
1111,
|
|
1111,
|
|
1111,
|
|
1111,
|
|
1111,
|
|
1111,
|
|
1111,
|
|
1111,
|
|
1111,
|
|
1111,
|
|
1111,
|
|
1111,
|
|
1111,
|
|
1111,
|
|
1111,
|
|
1111,
|
|
1111,
|
|
1111,
|
|
1111,
|
|
1111,
|
|
1111,
|
|
1111,
|
|
1111,
|
|
1111,
|
|
1111,
|
|
1111,
|
|
1111,
|
|
1111,
|
|
1111,
|
|
1111,
|
|
1111,
|
|
1111,
|
|
1111,
|
|
1111,
|
|
1111,
|
|
1111,
|
|
1111,
|
|
1111,
|
|
1111,
|
|
1111,
|
|
1111,
|
|
1111,
|
|
1111,
|
|
1111,
|
|
1111,
|
|
1111,
|
|
1111,
|
|
1111,
|
|
1111,
|
|
1111,
|
|
1111,
|
|
1111,
|
|
1111,
|
|
1111,
|
|
1111,
|
|
1111,
|
|
1111,
|
|
1111,
|
|
1111,
|
|
1111,
|
|
1111,
|
|
1111,
|
|
1111,
|
|
1111,
|
|
1111,
|
|
1111,
|
|
1111,
|
|
1111,
|
|
1111,
|
|
1111,
|
|
1111,
|
|
1111,
|
|
1111,
|
|
1111,
|
|
1111,
|
|
1111,
|
|
1111,
|
|
1111,
|
|
1111,
|
|
1111,
|
|
1111,
|
|
1111,
|
|
1111,
|
|
1111,
|
|
1111,
|
|
1111,
|
|
1111,
|
|
1111,
|
|
1111,
|
|
1111,
|
|
1111,
|
|
1111,
|
|
1111,
|
|
1111,
|
|
1111,
|
|
1111,
|
|
1111,
|
|
1111,
|
|
1111,
|
|
1111,
|
|
1111,
|
|
1111,
|
|
1111,
|
|
1111,
|
|
1111,
|
|
1111,
|
|
1111,
|
|
1111,
|
|
1111,
|
|
1111,
|
|
1111,
|
|
1111,
|
|
1111,
|
|
1111,
|
|
1111,
|
|
1111,
|
|
1111,
|
|
1111,
|
|
1111,
|
|
1111,
|
|
1111,
|
|
1111,
|
|
1111,
|
|
1111,
|
|
1111,
|
|
1111,
|
|
1111,
|
|
1111,
|
|
1111,
|
|
1111,
|
|
1111,
|
|
1111,
|
|
1111,
|
|
1111,
|
|
1111,
|
|
1111,
|
|
1111,
|
|
1111,
|
|
1111,
|
|
1111,
|
|
1111,
|
|
1111,
|
|
1111,
|
|
1111,
|
|
1111,
|
|
1111,
|
|
1111,
|
|
1111,
|
|
1111,
|
|
1111,
|
|
1111,
|
|
1111,
|
|
1111,
|
|
1111,
|
|
1111,
|
|
1111,
|
|
1111,
|
|
1111,
|
|
1111,
|
|
1111,
|
|
1111,
|
|
1111,
|
|
1111,
|
|
1111,
|
|
1111,
|
|
1111,
|
|
1111,
|
|
1111,
|
|
1111,
|
|
1111,
|
|
1111,
|
|
1111,
|
|
1111,
|
|
1111,
|
|
1111,
|
|
1111,
|
|
1111,
|
|
1111,
|
|
1111,
|
|
1111,
|
|
1111,
|
|
1111,
|
|
1111,
|
|
1111,
|
|
1111,
|
|
1111,
|
|
1111,
|
|
1111,
|
|
1111,
|
|
1111,
|
|
1111,
|
|
1111,
|
|
1111,
|
|
1111,
|
|
1111,
|
|
1111,
|
|
1111,
|
|
1111,
|
|
1111,
|
|
1111,
|
|
1111,
|
|
1111,
|
|
1111,
|
|
1111,
|
|
1111,
|
|
1111,
|
|
1111,
|
|
1111,
|
|
1111,
|
|
1111,
|
|
1111,
|
|
1111,
|
|
1111,
|
|
1111,
|
|
1111,
|
|
1111,
|
|
1111,
|
|
1111,
|
|
1111,
|
|
1111,
|
|
1111,
|
|
1111,
|
|
1111,
|
|
1111,
|
|
1111,
|
|
1111,
|
|
1111,
|
|
1111,
|
|
1111,
|
|
1111,
|
|
1111,
|
|
1111,
|
|
1111,
|
|
1111,
|
|
1111,
|
|
1111,
|
|
1111,
|
|
1111,
|
|
1111,
|
|
1111,
|
|
1111,
|
|
1111,
|
|
1111,
|
|
1111,
|
|
1111,
|
|
1111,
|
|
1111,
|
|
1111,
|
|
1111,
|
|
1111,
|
|
1111,
|
|
1111,
|
|
1111,
|
|
1111,
|
|
1111,
|
|
1111,
|
|
1111,
|
|
1111,
|
|
1111,
|
|
1111,
|
|
1111,
|
|
1111,
|
|
1111,
|
|
1111,
|
|
1111,
|
|
1111,
|
|
1111,
|
|
1111,
|
|
1111,
|
|
1111,
|
|
1111,
|
|
1111,
|
|
1111,
|
|
1111,
|
|
1111,
|
|
1111,
|
|
1111,
|
|
1111,
|
|
1111,
|
|
1111,
|
|
1111,
|
|
1111,
|
|
1111,
|
|
1111,
|
|
1111,
|
|
1111,
|
|
1111,
|
|
1111,
|
|
1111,
|
|
1111,
|
|
1111,
|
|
1111,
|
|
1111,
|
|
1111,
|
|
1111,
|
|
1111,
|
|
1111,
|
|
1111,
|
|
1111,
|
|
1111,
|
|
1111,
|
|
1111,
|
|
1111,
|
|
1111,
|
|
1111,
|
|
1111,
|
|
1111,
|
|
1111,
|
|
1111,
|
|
1111,
|
|
1111,
|
|
1111,
|
|
1111,
|
|
1111,
|
|
1111,
|
|
1111,
|
|
1111,
|
|
1111,
|
|
1111,
|
|
1111,
|
|
1111,
|
|
1111,
|
|
1111,
|
|
1111,
|
|
1111,
|
|
1111,
|
|
1111,
|
|
1111,
|
|
1111,
|
|
1111,
|
|
1111,
|
|
1111,
|
|
1111,
|
|
1111,
|
|
1111,
|
|
1111,
|
|
1111,
|
|
1111,
|
|
1111,
|
|
1111,
|
|
1111,
|
|
1111,
|
|
1111,
|
|
1111,
|
|
1111,
|
|
1111,
|
|
1111,
|
|
1111,
|
|
1111,
|
|
1111,
|
|
1111,
|
|
1111,
|
|
1111,
|
|
1111,
|
|
1111,
|
|
1111,
|
|
1111,
|
|
1111,
|
|
1111,
|
|
1111,
|
|
1111,
|
|
1111,
|
|
1111,
|
|
1111,
|
|
1111,
|
|
1111,
|
|
1111,
|
|
1111,
|
|
1111,
|
|
1111,
|
|
1111,
|
|
1111,
|
|
1111,
|
|
1111,
|
|
1111,
|
|
1111,
|
|
1111,
|
|
1111,
|
|
1111,
|
|
1111,
|
|
1111,
|
|
1111,
|
|
1111,
|
|
1111,
|
|
1111,
|
|
1111,
|
|
1111,
|
|
1111,
|
|
1111,
|
|
1111,
|
|
1111,
|
|
1111,
|
|
1111,
|
|
1111,
|
|
1111,
|
|
1111,
|
|
1111,
|
|
1111,
|
|
1111,
|
|
1111,
|
|
1111,
|
|
1111,
|
|
1111,
|
|
1111,
|
|
1111,
|
|
1111,
|
|
1111,
|
|
1111,
|
|
1111,
|
|
1111,
|
|
1111,
|
|
1111,
|
|
1111,
|
|
1111,
|
|
1111,
|
|
1111,
|
|
1111,
|
|
1111,
|
|
1111,
|
|
1111,
|
|
1111,
|
|
1111,
|
|
1111,
|
|
1111,
|
|
1111,
|
|
1111,
|
|
1111,
|
|
1111,
|
|
1111,
|
|
1111,
|
|
1111,
|
|
1111,
|
|
1111,
|
|
1111,
|
|
1111,
|
|
1111,
|
|
1111,
|
|
1111,
|
|
1111,
|
|
1111,
|
|
1111,
|
|
1111,
|
|
1111,
|
|
1111,
|
|
1111,
|
|
1111,
|
|
1111,
|
|
1111,
|
|
1111,
|
|
1111,
|
|
1111,
|
|
1111,
|
|
1111,
|
|
1111,
|
|
1111,
|
|
1111,
|
|
1111,
|
|
1111,
|
|
1111,
|
|
1111,
|
|
1111,
|
|
1111,
|
|
1111,
|
|
1111,
|
|
1111,
|
|
1111,
|
|
1111,
|
|
1111,
|
|
1111,
|
|
1111,
|
|
1111,
|
|
1111,
|
|
1111,
|
|
1111,
|
|
1111,
|
|
1111,
|
|
1111,
|
|
1111,
|
|
1111,
|
|
1111,
|
|
1111,
|
|
1111,
|
|
1111,
|
|
1111,
|
|
1111,
|
|
1111,
|
|
1111,
|
|
1111,
|
|
1111,
|
|
1111,
|
|
1111,
|
|
1111,
|
|
1111,
|
|
1111,
|
|
1111,
|
|
1111,
|
|
1111,
|
|
1111,
|
|
1111,
|
|
1111,
|
|
1111,
|
|
1111,
|
|
1111,
|
|
1111,
|
|
1111,
|
|
1111,
|
|
1111,
|
|
1111,
|
|
1111,
|
|
1111,
|
|
1111,
|
|
1111,
|
|
1111,
|
|
1111,
|
|
1111,
|
|
1111,
|
|
1111,
|
|
1111,
|
|
1111,
|
|
1111,
|
|
1111,
|
|
1111,
|
|
1111,
|
|
1111,
|
|
1111,
|
|
1111,
|
|
1111,
|
|
1111,
|
|
1111,
|
|
1111,
|
|
1111,
|
|
1111,
|
|
1111,
|
|
1111,
|
|
1111,
|
|
1111,
|
|
1111,
|
|
1111,
|
|
1111,
|
|
1111,
|
|
1111,
|
|
1111,
|
|
1111,
|
|
1111,
|
|
1111,
|
|
1111,
|
|
1111,
|
|
1111,
|
|
1111,
|
|
1111,
|
|
1111,
|
|
1111,
|
|
1111,
|
|
1111,
|
|
1111,
|
|
1111,
|
|
1111,
|
|
1111,
|
|
1111,
|
|
1111,
|
|
1111,
|
|
1111,
|
|
1111,
|
|
1111,
|
|
1111,
|
|
1111,
|
|
1111,
|
|
1111,
|
|
1111,
|
|
1111,
|
|
1111,
|
|
1111,
|
|
1111,
|
|
1111,
|
|
1111,
|
|
1111,
|
|
1111,
|
|
1111,
|
|
1111,
|
|
1111,
|
|
1111,
|
|
1111,
|
|
1111,
|
|
1111,
|
|
1111,
|
|
1111,
|
|
1111,
|
|
1111,
|
|
1111,
|
|
1111,
|
|
1111,
|
|
1111,
|
|
1111,
|
|
1111,
|
|
1111,
|
|
1111,
|
|
1111,
|
|
1111,
|
|
1111,
|
|
1111,
|
|
1111,
|
|
1111,
|
|
1111,
|
|
1111,
|
|
1111,
|
|
1111,
|
|
1111,
|
|
1111,
|
|
1111,
|
|
1111,
|
|
1111,
|
|
1111,
|
|
1111,
|
|
1111,
|
|
1111,
|
|
1111,
|
|
1111,
|
|
1111,
|
|
1111,
|
|
1111,
|
|
1111,
|
|
1111,
|
|
1111,
|
|
1111,
|
|
1111,
|
|
1111,
|
|
1111,
|
|
1111,
|
|
1111,
|
|
1111,
|
|
1111,
|
|
1111,
|
|
1111,
|
|
1111,
|
|
1111,
|
|
1111,
|
|
1111,
|
|
1111,
|
|
1111,
|
|
1111,
|
|
1111,
|
|
1111,
|
|
1111,
|
|
1111,
|
|
1111,
|
|
1111,
|
|
1111,
|
|
1111,
|
|
1111,
|
|
1111,
|
|
1111,
|
|
1111,
|
|
1111,
|
|
1111,
|
|
1111,
|
|
1111,
|
|
1111,
|
|
1111,
|
|
1111,
|
|
1111,
|
|
1111,
|
|
1111,
|
|
1111,
|
|
1111,
|
|
1111,
|
|
1111,
|
|
1111,
|
|
1111,
|
|
1111,
|
|
1111,
|
|
1111,
|
|
1111,
|
|
1111,
|
|
1111,
|
|
1111,
|
|
1111,
|
|
1111,
|
|
1111,
|
|
1111,
|
|
1111,
|
|
1111,
|
|
1111,
|
|
1111,
|
|
1111,
|
|
1111,
|
|
1111,
|
|
1111,
|
|
1111,
|
|
1111,
|
|
1111,
|
|
1111,
|
|
1111,
|
|
1111,
|
|
1111,
|
|
1111,
|
|
1111,
|
|
1111,
|
|
1111,
|
|
1111,
|
|
1111,
|
|
1111,
|
|
1111,
|
|
1111,
|
|
1111,
|
|
1111,
|
|
1111,
|
|
1111,
|
|
1111,
|
|
1111,
|
|
1111,
|
|
1111,
|
|
1111,
|
|
1111,
|
|
1111,
|
|
1111,
|
|
1111,
|
|
1111,
|
|
1111,
|
|
1111,
|
|
1111,
|
|
1111,
|
|
1111,
|
|
1111,
|
|
1111,
|
|
1111,
|
|
1111,
|
|
1111,
|
|
1111,
|
|
1111,
|
|
1111,
|
|
1111,
|
|
1111,
|
|
1111,
|
|
1111,
|
|
1111,
|
|
1111,
|
|
1111,
|
|
1111,
|
|
1111,
|
|
1111,
|
|
1111,
|
|
1111,
|
|
1111,
|
|
1111,
|
|
1111,
|
|
1111,
|
|
1111,
|
|
1111,
|
|
1111,
|
|
1111,
|
|
1111,
|
|
1111,
|
|
1111,
|
|
1111,
|
|
1111,
|
|
1111,
|
|
1111,
|
|
1111,
|
|
1111,
|
|
1111,
|
|
1111,
|
|
1111,
|
|
1111,
|
|
1111,
|
|
1111,
|
|
1111,
|
|
1111,
|
|
1111,
|
|
1111,
|
|
1111,
|
|
1111,
|
|
1111,
|
|
1111,
|
|
1111,
|
|
1111,
|
|
1111,
|
|
1111,
|
|
1111,
|
|
1111,
|
|
1111,
|
|
1111,
|
|
1111,
|
|
1111,
|
|
1111,
|
|
1111,
|
|
1111,
|
|
1111,
|
|
1111,
|
|
1111,
|
|
1111,
|
|
1111,
|
|
1111,
|
|
1111,
|
|
1111,
|
|
1111,
|
|
1111,
|
|
1111,
|
|
1111,
|
|
1111,
|
|
1111,
|
|
1111,
|
|
1111,
|
|
1111,
|
|
1111,
|
|
1111,
|
|
1111,
|
|
1111,
|
|
1111,
|
|
1111,
|
|
1111,
|
|
1111,
|
|
1111,
|
|
1111,
|
|
1111,
|
|
1111,
|
|
1111,
|
|
1111,
|
|
1111,
|
|
1111,
|
|
1111,
|
|
1111,
|
|
1111,
|
|
1111,
|
|
1111,
|
|
1111,
|
|
1111,
|
|
1111,
|
|
1111,
|
|
1111,
|
|
1111,
|
|
1111,
|
|
1111,
|
|
1111,
|
|
1111,
|
|
1111,
|
|
1111,
|
|
1111,
|
|
1111,
|
|
1111,
|
|
1111,
|
|
1111,
|
|
1111,
|
|
1111,
|
|
1111,
|
|
1111,
|
|
1111,
|
|
1111,
|
|
1111,
|
|
1111,
|
|
1111,
|
|
1111,
|
|
1111,
|
|
1111,
|
|
1111,
|
|
1111,
|
|
1111,
|
|
1111,
|
|
1111,
|
|
1111,
|
|
1111,
|
|
1111,
|
|
1111,
|
|
1111,
|
|
1111,
|
|
1111,
|
|
1111,
|
|
1111,
|
|
1111,
|
|
1111,
|
|
1111,
|
|
1111,
|
|
1111,
|
|
1111,
|
|
1111,
|
|
1111,
|
|
1111,
|
|
1111,
|
|
1111,
|
|
1111,
|
|
1111,
|
|
1111,
|
|
1111,
|
|
1111,
|
|
1111,
|
|
1111,
|
|
1111,
|
|
1111,
|
|
1111,
|
|
1111,
|
|
1111,
|
|
1111,
|
|
1111,
|
|
1111,
|
|
1111,
|
|
1111,
|
|
1111,
|
|
1111,
|
|
1111,
|
|
1111,
|
|
1111,
|
|
1111,
|
|
1111,
|
|
1111,
|
|
1111,
|
|
1111,
|
|
1111,
|
|
1111,
|
|
1111,
|
|
1111,
|
|
1111,
|
|
1111,
|
|
1111,
|
|
1111,
|
|
1111,
|
|
1111,
|
|
1111,
|
|
1111,
|
|
1111,
|
|
1111,
|
|
1111,
|
|
1111,
|
|
1111,
|
|
1111,
|
|
1111,
|
|
1111,
|
|
1111,
|
|
1111,
|
|
1111,
|
|
1111,
|
|
1111,
|
|
1111,
|
|
1111,
|
|
1111,
|
|
1111,
|
|
1111,
|
|
1111,
|
|
1111,
|
|
1111,
|
|
1111,
|
|
1111,
|
|
1111,
|
|
1111,
|
|
1111,
|
|
1111,
|
|
1111,
|
|
1111,
|
|
1111,
|
|
1111,
|
|
1111,
|
|
1111,
|
|
1111,
|
|
1111,
|
|
1111,
|
|
1111,
|
|
1111,
|
|
1111,
|
|
1111,
|
|
1111,
|
|
1111,
|
|
1111,
|
|
1111,
|
|
1111,
|
|
1111,
|
|
1111,
|
|
1111,
|
|
1111,
|
|
1111,
|
|
1111,
|
|
1111,
|
|
1111,
|
|
1111,
|
|
1111,
|
|
1111,
|
|
1111,
|
|
1111,
|
|
1111,
|
|
1111,
|
|
1111,
|
|
1111,
|
|
1111,
|
|
1111,
|
|
1111,
|
|
1111,
|
|
1111,
|
|
1111,
|
|
1111,
|
|
1111,
|
|
1111,
|
|
1111,
|
|
1111,
|
|
1111,
|
|
1111,
|
|
1111,
|
|
1111,
|
|
1111,
|
|
1111,
|
|
1111,
|
|
1111,
|
|
1111,
|
|
1111,
|
|
1111,
|
|
1111,
|
|
1111,
|
|
1111,
|
|
1111,
|
|
1111,
|
|
1111,
|
|
1111,
|
|
1111,
|
|
1111,
|
|
1111,
|
|
1111,
|
|
1111,
|
|
1111,
|
|
1111,
|
|
1111,
|
|
1111,
|
|
1111,
|
|
1111,
|
|
1111,
|
|
1111,
|
|
1111,
|
|
1111,
|
|
1111,
|
|
1111,
|
|
1111,
|
|
1111,
|
|
1111,
|
|
1111,
|
|
1111,
|
|
1111,
|
|
1111,
|
|
1111,
|
|
1111,
|
|
1111,
|
|
1111,
|
|
1111,
|
|
1111,
|
|
1111,
|
|
1111,
|
|
1111,
|
|
1111,
|
|
1111,
|
|
1111,
|
|
1111,
|
|
1111,
|
|
1111,
|
|
1111,
|
|
1111,
|
|
1111,
|
|
1111,
|
|
1111,
|
|
1111,
|
|
1111,
|
|
1111,
|
|
1111,
|
|
1111,
|
|
1111,
|
|
1111,
|
|
1111,
|
|
1111,
|
|
1111,
|
|
1111,
|
|
1111,
|
|
1111,
|
|
1111,
|
|
1111,
|
|
1111,
|
|
1111,
|
|
1111,
|
|
1111,
|
|
1111,
|
|
1111,
|
|
1111,
|
|
1111,
|
|
1111,
|
|
1111,
|
|
1111,
|
|
1111,
|
|
1111,
|
|
1111,
|
|
1111,
|
|
1111,
|
|
1111,
|
|
1111,
|
|
1111,
|
|
1111,
|
|
1111,
|
|
1111,
|
|
1111,
|
|
1111,
|
|
1111,
|
|
1111,
|
|
1111,
|
|
1111,
|
|
1111,
|
|
1111,
|
|
1111,
|
|
1111,
|
|
1111,
|
|
1111,
|
|
1111,
|
|
1111,
|
|
1111,
|
|
1111,
|
|
1111,
|
|
1111,
|
|
1111,
|
|
1111,
|
|
1111,
|
|
1111,
|
|
1111,
|
|
1111,
|
|
1111,
|
|
1111,
|
|
1111,
|
|
1111,
|
|
1111,
|
|
1111,
|
|
1111,
|
|
1111,
|
|
1111,
|
|
1111,
|
|
1111,
|
|
1111,
|
|
1111,
|
|
1111,
|
|
1111,
|
|
1111,
|
|
1111,
|
|
1111,
|
|
1111,
|
|
1111,
|
|
1111,
|
|
1111,
|
|
1111,
|
|
1111,
|
|
1111,
|
|
1111,
|
|
1111,
|
|
1111,
|
|
1111,
|
|
1111,
|
|
1111,
|
|
1111,
|
|
1111,
|
|
1111,
|
|
1111,
|
|
1111,
|
|
1111,
|
|
1111,
|
|
1111,
|
|
1111,
|
|
1111,
|
|
1111,
|
|
1111,
|
|
1111,
|
|
1111,
|
|
1111,
|
|
1111,
|
|
1111,
|
|
1111,
|
|
1111,
|
|
1111,
|
|
1111,
|
|
1111,
|
|
1111,
|
|
1111,
|
|
1111,
|
|
1111,
|
|
1111,
|
|
1111,
|
|
1111,
|
|
1111,
|
|
1111,
|
|
1111,
|
|
1111,
|
|
1111,
|
|
1111,
|
|
1111,
|
|
1111,
|
|
1111,
|
|
1111,
|
|
1111,
|
|
1111,
|
|
1111,
|
|
1111,
|
|
1111,
|
|
1111,
|
|
1111,
|
|
1111,
|
|
1111,
|
|
1111,
|
|
1111,
|
|
1111,
|
|
1111,
|
|
1111,
|
|
1111,
|
|
1111,
|
|
1111,
|
|
1111,
|
|
1111,
|
|
1111,
|
|
1111,
|
|
1111,
|
|
1111,
|
|
1111,
|
|
1111,
|
|
1111,
|
|
1111,
|
|
1111,
|
|
1111,
|
|
1111,
|
|
1111,
|
|
1111,
|
|
1111,
|
|
1111,
|
|
1111,
|
|
1111,
|
|
1111,
|
|
1111,
|
|
1111,
|
|
1111,
|
|
1111,
|
|
1111,
|
|
1111,
|
|
1111,
|
|
1111,
|
|
1111,
|
|
1111,
|
|
1111,
|
|
1111,
|
|
1111,
|
|
1111,
|
|
1111,
|
|
1111,
|
|
1111,
|
|
1111,
|
|
1111,
|
|
1111,
|
|
1111,
|
|
1111,
|
|
1111,
|
|
1111,
|
|
1111,
|
|
1111,
|
|
1111,
|
|
1111,
|
|
1111,
|
|
1111,
|
|
1111,
|
|
1111,
|
|
1111,
|
|
1111,
|
|
1111,
|
|
1111,
|
|
1111,
|
|
1111,
|
|
1111,
|
|
1111,
|
|
1111,
|
|
1111,
|
|
1111,
|
|
1111,
|
|
1111,
|
|
1111,
|
|
1111,
|
|
1111,
|
|
1111,
|
|
1111,
|
|
1111,
|
|
1111,
|
|
1111,
|
|
1111,
|
|
1111,
|
|
1111,
|
|
1111,
|
|
1111,
|
|
1111,
|
|
1111,
|
|
1111,
|
|
1111,
|
|
1111,
|
|
1111,
|
|
1111,
|
|
1111,
|
|
1111,
|
|
1111,
|
|
1111,
|
|
1111,
|
|
1111,
|
|
1111,
|
|
1111,
|
|
1111,
|
|
1111,
|
|
1111,
|
|
1111,
|
|
1111,
|
|
1111,
|
|
1111,
|
|
1111,
|
|
1111,
|
|
1111,
|
|
1111,
|
|
1111,
|
|
1111,
|
|
1111,
|
|
1111,
|
|
1111,
|
|
1111,
|
|
1111,
|
|
1111,
|
|
1111,
|
|
1111,
|
|
1111,
|
|
1111,
|
|
1111,
|
|
1111,
|
|
1111,
|
|
1111,
|
|
1111,
|
|
1111,
|
|
1111,
|
|
1111,
|
|
1111,
|
|
1111,
|
|
1111,
|
|
1111,
|
|
1111,
|
|
1111,
|
|
1111,
|
|
1111,
|
|
1111,
|
|
1111,
|
|
1111,
|
|
1111,
|
|
1111,
|
|
1111,
|
|
1111,
|
|
1111,
|
|
1111,
|
|
1111,
|
|
1111,
|
|
1111,
|
|
1111,
|
|
1111,
|
|
1111,
|
|
1111,
|
|
1111,
|
|
1111,
|
|
1111,
|
|
1111,
|
|
1111,
|
|
1111,
|
|
1111,
|
|
1111,
|
|
1111,
|
|
1111,
|
|
1111,
|
|
1111,
|
|
1111,
|
|
1111,
|
|
1111,
|
|
1111,
|
|
1111,
|
|
1111,
|
|
1111,
|
|
1111,
|
|
1111,
|
|
1111,
|
|
1111,
|
|
1111,
|
|
1111,
|
|
1111,
|
|
1111,
|
|
1111,
|
|
1111,
|
|
1111,
|
|
1111,
|
|
1111,
|
|
1111,
|
|
1111,
|
|
1111,
|
|
1111,
|
|
1111,
|
|
1111,
|
|
1111,
|
|
1111,
|
|
1111,
|
|
1111,
|
|
1111,
|
|
1111,
|
|
1111,
|
|
1111,
|
|
1111,
|
|
1111,
|
|
1111,
|
|
1111,
|
|
1111,
|
|
1111,
|
|
1111,
|
|
1111,
|
|
1111,
|
|
1111,
|
|
1111,
|
|
1111,
|
|
1111,
|
|
1111,
|
|
1111,
|
|
1111,
|
|
1111,
|
|
1111,
|
|
1111,
|
|
1111,
|
|
1111,
|
|
1111,
|
|
1111,
|
|
1111,
|
|
1111,
|
|
1111,
|
|
1111,
|
|
1111,
|
|
1111,
|
|
1111,
|
|
1111,
|
|
1111,
|
|
1111,
|
|
1111,
|
|
1111,
|
|
1111,
|
|
1111,
|
|
1111,
|
|
1111,
|
|
1111,
|
|
1111,
|
|
1111,
|
|
1111,
|
|
1111,
|
|
1111,
|
|
1111,
|
|
1111,
|
|
1111,
|
|
1111,
|
|
1111,
|
|
1111,
|
|
1111,
|
|
1111,
|
|
1111,
|
|
1111,
|
|
1111,
|
|
1111,
|
|
1111,
|
|
1111,
|
|
1111,
|
|
1111,
|
|
1111,
|
|
1111,
|
|
1111,
|
|
1111,
|
|
1111,
|
|
1111,
|
|
1111,
|
|
1111,
|
|
1111,
|
|
1111,
|
|
1111,
|
|
1111,
|
|
1111,
|
|
1111,
|
|
1111,
|
|
1111,
|
|
1111,
|
|
1111,
|
|
1111,
|
|
1111,
|
|
1111,
|
|
1111,
|
|
1111,
|
|
1111,
|
|
1111,
|
|
1111,
|
|
1111,
|
|
1111,
|
|
1111,
|
|
1111,
|
|
1111,
|
|
1111,
|
|
1111,
|
|
1111,
|
|
1111,
|
|
1111,
|
|
1111,
|
|
1111,
|
|
1111,
|
|
1111,
|
|
1111,
|
|
1111,
|
|
1111,
|
|
1111,
|
|
1111,
|
|
1111,
|
|
1111,
|
|
1111,
|
|
1111,
|
|
1111,
|
|
1111,
|
|
1111,
|
|
1111,
|
|
1111,
|
|
1111,
|
|
1111,
|
|
1111,
|
|
1111,
|
|
1111,
|
|
1111,
|
|
1111,
|
|
1111,
|
|
1111,
|
|
1111,
|
|
1111,
|
|
1111,
|
|
1111,
|
|
1111,
|
|
1111,
|
|
1111,
|
|
1111,
|
|
1111,
|
|
1111,
|
|
1111,
|
|
1111,
|
|
1111,
|
|
1111,
|
|
1111,
|
|
1111,
|
|
1111,
|
|
1111,
|
|
1111,
|
|
1111,
|
|
1111,
|
|
1111,
|
|
1111,
|
|
1111,
|
|
1111,
|
|
1111,
|
|
1111,
|
|
1111,
|
|
1111,
|
|
1111,
|
|
1111,
|
|
1111,
|
|
1111,
|
|
1111,
|
|
1111,
|
|
1111,
|
|
1111,
|
|
1111,
|
|
1111,
|
|
1111,
|
|
1111,
|
|
1111,
|
|
1111,
|
|
1111,
|
|
1111,
|
|
1111,
|
|
1111,
|
|
1111,
|
|
1111,
|
|
1111,
|
|
1111,
|
|
1111,
|
|
1111,
|
|
1111,
|
|
1111,
|
|
1111,
|
|
1111,
|
|
1111,
|
|
1111,
|
|
1111,
|
|
1111,
|
|
1111,
|
|
1111,
|
|
1111,
|
|
1111,
|
|
1111,
|
|
1111,
|
|
1111,
|
|
1111,
|
|
1111,
|
|
1111,
|
|
1111,
|
|
1111,
|
|
1111,
|
|
1111,
|
|
1111,
|
|
1111,
|
|
1111,
|
|
1111,
|
|
1111,
|
|
1111,
|
|
1111,
|
|
1111,
|
|
1111,
|
|
1111,
|
|
1111,
|
|
1111,
|
|
1111,
|
|
1111,
|
|
1111,
|
|
1111,
|
|
1111,
|
|
1111,
|
|
1111,
|
|
1111,
|
|
1111,
|
|
1111,
|
|
1111,
|
|
1111,
|
|
1111,
|
|
1111,
|
|
1111,
|
|
1111,
|
|
1111,
|
|
1111,
|
|
1111,
|
|
1111,
|
|
1111,
|
|
1111,
|
|
1111,
|
|
1111,
|
|
1111,
|
|
1111,
|
|
1111,
|
|
1111,
|
|
1111,
|
|
1111,
|
|
1111,
|
|
1111,
|
|
1111,
|
|
1111,
|
|
1111,
|
|
1111,
|
|
1111,
|
|
1111,
|
|
1111,
|
|
1111,
|
|
1111,
|
|
1111,
|
|
1111,
|
|
1111,
|
|
1111,
|
|
1111,
|
|
1111,
|
|
1111,
|
|
1111,
|
|
1111,
|
|
1111,
|
|
1111,
|
|
1111,
|
|
1111,
|
|
1111,
|
|
1111,
|
|
1111,
|
|
1111,
|
|
1111,
|
|
1111,
|
|
1111,
|
|
1111,
|
|
1111,
|
|
1111,
|
|
1111,
|
|
1111,
|
|
1111,
|
|
1111,
|
|
1111,
|
|
1111,
|
|
1111,
|
|
1111,
|
|
1111,
|
|
1111,
|
|
1111,
|
|
1111,
|
|
1111,
|
|
1111,
|
|
1111,
|
|
1111,
|
|
1111,
|
|
1111,
|
|
1111,
|
|
1111,
|
|
1111,
|
|
1111,
|
|
1111,
|
|
1111,
|
|
1111,
|
|
1111,
|
|
1111,
|
|
1111,
|
|
1111,
|
|
1111,
|
|
1111,
|
|
1111,
|
|
1111,
|
|
1111,
|
|
1111,
|
|
1111,
|
|
1111,
|
|
1111,
|
|
1111,
|
|
1111,
|
|
1111,
|
|
1111,
|
|
1111,
|
|
1111,
|
|
1111,
|
|
1111,
|
|
1111,
|
|
1111,
|
|
1111,
|
|
1111,
|
|
1111,
|
|
1111,
|
|
1111,
|
|
1111,
|
|
1111,
|
|
1111,
|
|
1111,
|
|
1111,
|
|
1111,
|
|
1111,
|
|
1111,
|
|
1111,
|
|
1111,
|
|
1111,
|
|
1111,
|
|
1111,
|
|
1111,
|
|
1111,
|
|
1111,
|
|
1111,
|
|
1111,
|
|
1111,
|
|
1111,
|
|
1111,
|
|
1111,
|
|
1111,
|
|
1111,
|
|
1111,
|
|
1111,
|
|
1111,
|
|
1111,
|
|
1111,
|
|
1111,
|
|
1111,
|
|
1111,
|
|
1111,
|
|
1111,
|
|
1111,
|
|
1111,
|
|
1111,
|
|
1111,
|
|
1111,
|
|
1111,
|
|
1111,
|
|
1111,
|
|
1111,
|
|
1111,
|
|
1111,
|
|
1111,
|
|
1111,
|
|
1111,
|
|
1111,
|
|
1111,
|
|
1111,
|
|
1111,
|
|
1111,
|
|
1111,
|
|
1111,
|
|
1111,
|
|
1111,
|
|
1111,
|
|
1111,
|
|
1111,
|
|
1111,
|
|
1111,
|
|
1111,
|
|
1111,
|
|
1111,
|
|
1111,
|
|
1111,
|
|
1111,
|
|
1111,
|
|
1111,
|
|
1111,
|
|
1111,
|
|
1111,
|
|
1111,
|
|
1111,
|
|
1111,
|
|
1111,
|
|
1111,
|
|
1111,
|
|
1111,
|
|
1111,
|
|
1111,
|
|
1111,
|
|
1111,
|
|
1111,
|
|
1111,
|
|
1111,
|
|
1111,
|
|
1111,
|
|
1111,
|
|
1111,
|
|
1111,
|
|
1111,
|
|
1111,
|
|
1111,
|
|
1111,
|
|
1111,
|
|
1111,
|
|
1111,
|
|
1111,
|
|
1111,
|
|
1111,
|
|
1111,
|
|
1111,
|
|
1111,
|
|
1111,
|
|
1111,
|
|
1111,
|
|
1111,
|
|
1111,
|
|
1111,
|
|
1111,
|
|
1111,
|
|
1111,
|
|
1111,
|
|
1111,
|
|
1111,
|
|
1111,
|
|
1111,
|
|
1111,
|
|
1111,
|
|
1111,
|
|
1111,
|
|
1111,
|
|
1111,
|
|
1111,
|
|
1111,
|
|
1111,
|
|
1111,
|
|
1111,
|
|
1111,
|
|
1111,
|
|
1111,
|
|
1111,
|
|
1111,
|
|
1111,
|
|
1111,
|
|
1111,
|
|
1111,
|
|
1111,
|
|
1111,
|
|
1111,
|
|
1111,
|
|
1111,
|
|
1111,
|
|
1111,
|
|
1111,
|
|
1111,
|
|
1111,
|
|
1111,
|
|
1111,
|
|
1111,
|
|
1111,
|
|
1111,
|
|
1111,
|
|
1111,
|
|
1111,
|
|
1111,
|
|
1111,
|
|
1111,
|
|
1111,
|
|
1111,
|
|
1111,
|
|
1111,
|
|
1111,
|
|
1111,
|
|
1111,
|
|
1111,
|
|
1111,
|
|
1111,
|
|
1111,
|
|
1111,
|
|
1111,
|
|
1111,
|
|
1111,
|
|
1111,
|
|
1111,
|
|
1111,
|
|
1111,
|
|
1111,
|
|
1111,
|
|
1111,
|
|
1111,
|
|
1111,
|
|
1111,
|
|
1111,
|
|
1111,
|
|
1111,
|
|
1111,
|
|
1111,
|
|
1111,
|
|
1111,
|
|
1111,
|
|
1111,
|
|
1111,
|
|
1111,
|
|
1111,
|
|
1111,
|
|
1111,
|
|
1111,
|
|
1111,
|
|
1111,
|
|
1111,
|
|
1111,
|
|
1111,
|
|
1111,
|
|
1111,
|
|
1111,
|
|
1111,
|
|
1111,
|
|
1111,
|
|
1111,
|
|
1111,
|
|
1111,
|
|
1111,
|
|
1111,
|
|
1111,
|
|
1111,
|
|
1111,
|
|
1111,
|
|
1111,
|
|
1111,
|
|
1111,
|
|
1111,
|
|
1111,
|
|
1111,
|
|
1111,
|
|
1111,
|
|
1111,
|
|
1111,
|
|
1111,
|
|
1111,
|
|
1111,
|
|
1111,
|
|
1111,
|
|
1111,
|
|
1111,
|
|
1111,
|
|
1111,
|
|
1111,
|
|
1111,
|
|
1111,
|
|
1111,
|
|
1111,
|
|
1111,
|
|
1111,
|
|
1111,
|
|
1111,
|
|
1111,
|
|
1111,
|
|
1111,
|
|
1111,
|
|
1111,
|
|
1111,
|
|
1111,
|
|
1111,
|
|
1111,
|
|
1111,
|
|
1111,
|
|
1111,
|
|
1111,
|
|
1111,
|
|
1111,
|
|
1111,
|
|
1111,
|
|
1111,
|
|
1111,
|
|
1111,
|
|
1111,
|
|
1111,
|
|
1111,
|
|
1111,
|
|
1111,
|
|
1111,
|
|
1111,
|
|
1111,
|
|
1111,
|
|
1111,
|
|
1111,
|
|
1111,
|
|
1111,
|
|
1111,
|
|
1111,
|
|
1111,
|
|
1111,
|
|
1111,
|
|
1111,
|
|
1111,
|
|
1111,
|
|
1111,
|
|
1111,
|
|
1111,
|
|
1111,
|
|
1111,
|
|
1111,
|
|
1111,
|
|
1111,
|
|
1111,
|
|
1111,
|
|
1111,
|
|
1111,
|
|
1111,
|
|
1111,
|
|
1111,
|
|
1111,
|
|
1111,
|
|
1111,
|
|
1111,
|
|
1111,
|
|
1111,
|
|
1111,
|
|
1111,
|
|
1111,
|
|
1111,
|
|
1111,
|
|
1111,
|
|
1111,
|
|
1111,
|
|
1111,
|
|
1111,
|
|
1111,
|
|
1111,
|
|
1111,
|
|
1111,
|
|
1111,
|
|
1111,
|
|
1111,
|
|
1111,
|
|
1111,
|
|
1111,
|
|
1111,
|
|
1111,
|
|
1111,
|
|
1111,
|
|
1111,
|
|
1111,
|
|
1111,
|
|
1111,
|
|
1111,
|
|
1111,
|
|
1111,
|
|
1111,
|
|
1111,
|
|
1111,
|
|
1111,
|
|
1111,
|
|
1111,
|
|
1111,
|
|
1111,
|
|
1111,
|
|
1111,
|
|
1111,
|
|
1111,
|
|
1111,
|
|
1111,
|
|
1111,
|
|
1111,
|
|
1111,
|
|
1111,
|
|
1111,
|
|
1111,
|
|
1111,
|
|
1111,
|
|
1111,
|
|
1111,
|
|
1111,
|
|
1111,
|
|
1111,
|
|
1111,
|
|
1111,
|
|
1111,
|
|
1111,
|
|
1111,
|
|
1111,
|
|
1111,
|
|
1111,
|
|
1111,
|
|
1111,
|
|
1111,
|
|
1111,
|
|
1111,
|
|
1111,
|
|
1111,
|
|
1111,
|
|
1111,
|
|
1111,
|
|
1111,
|
|
1111,
|
|
1111,
|
|
1111,
|
|
1111,
|
|
1111,
|
|
1111,
|
|
1111,
|
|
1111,
|
|
1111,
|
|
1111,
|
|
1111,
|
|
1111,
|
|
1111,
|
|
1111,
|
|
1111,
|
|
1111,
|
|
1111,
|
|
1111,
|
|
1111,
|
|
1111,
|
|
1111,
|
|
1111,
|
|
1111,
|
|
1111,
|
|
1111,
|
|
1111,
|
|
1111,
|
|
1111,
|
|
1111,
|
|
1111,
|
|
1111,
|
|
1111,
|
|
1111,
|
|
1111,
|
|
1111,
|
|
1111,
|
|
1111,
|
|
1111,
|
|
1111,
|
|
1111,
|
|
1111,
|
|
1111,
|
|
1111,
|
|
1111,
|
|
1111,
|
|
1111,
|
|
1111,
|
|
1111,
|
|
1111,
|
|
1111,
|
|
1111,
|
|
1111,
|
|
1111,
|
|
1111,
|
|
1111,
|
|
1111,
|
|
1111,
|
|
1111,
|
|
1111,
|
|
1111,
|
|
1111,
|
|
1111,
|
|
1111,
|
|
1111,
|
|
1111,
|
|
1111,
|
|
1111,
|
|
1111,
|
|
1111,
|
|
1111,
|
|
1111,
|
|
1111,
|
|
1111,
|
|
1111,
|
|
1111,
|
|
1111,
|
|
1111,
|
|
1111,
|
|
1111,
|
|
1111,
|
|
1111,
|
|
1111,
|
|
1111,
|
|
1111,
|
|
1111,
|
|
1111,
|
|
1111,
|
|
1111,
|
|
1111,
|
|
1111,
|
|
1111,
|
|
1111,
|
|
1111,
|
|
1111,
|
|
1111,
|
|
1111,
|
|
1111,
|
|
1111,
|
|
1111,
|
|
1111,
|
|
1111,
|
|
1111,
|
|
1111,
|
|
1111,
|
|
1111,
|
|
1111,
|
|
1111,
|
|
1111,
|
|
1111,
|
|
1111,
|
|
1111,
|
|
1111,
|
|
1111,
|
|
1111,
|
|
1111,
|
|
1111,
|
|
1111,
|
|
1111,
|
|
1111,
|
|
1111,
|
|
1111,
|
|
1111,
|
|
1111,
|
|
1111,
|
|
1111,
|
|
1111,
|
|
1111,
|
|
1111,
|
|
1111,
|
|
1111,
|
|
1111,
|
|
1111,
|
|
1111,
|
|
1111,
|
|
1111,
|
|
1111,
|
|
1111,
|
|
1111,
|
|
1111,
|
|
1111,
|
|
1111,
|
|
1111,
|
|
1111,
|
|
1111,
|
|
1111,
|
|
1111,
|
|
1111,
|
|
1111,
|
|
1111,
|
|
1111,
|
|
1111,
|
|
1111,
|
|
1111,
|
|
1111,
|
|
1111,
|
|
1111,
|
|
1111,
|
|
1111,
|
|
1111,
|
|
1111,
|
|
1111,
|
|
1111,
|
|
1111,
|
|
1111,
|
|
1111,
|
|
1111,
|
|
1111,
|
|
1111,
|
|
1111,
|
|
1111,
|
|
1111,
|
|
1111,
|
|
1111,
|
|
1111,
|
|
1111,
|
|
1111,
|
|
1111,
|
|
1111,
|
|
1111,
|
|
1111,
|
|
1111,
|
|
1111,
|
|
1111,
|
|
1111,
|
|
1111,
|
|
1111,
|
|
1111,
|
|
1111,
|
|
1111,
|
|
1111,
|
|
1111,
|
|
1111,
|
|
1111,
|
|
1111,
|
|
1111,
|
|
1111,
|
|
1111,
|
|
1111,
|
|
1111,
|
|
1111,
|
|
1111,
|
|
1111,
|
|
1111,
|
|
1111,
|
|
1111,
|
|
1111,
|
|
1111,
|
|
1111,
|
|
1111,
|
|
1111,
|
|
1111,
|
|
1111,
|
|
1111,
|
|
1111,
|
|
1111,
|
|
1111,
|
|
1111,
|
|
1111,
|
|
1111,
|
|
1111,
|
|
1111,
|
|
1111,
|
|
1111,
|
|
1111,
|
|
1111,
|
|
1111,
|
|
1111,
|
|
1111,
|
|
1111,
|
|
1111,
|
|
1111,
|
|
1111,
|
|
1111,
|
|
1111,
|
|
1111,
|
|
1111,
|
|
1111,
|
|
1111,
|
|
1111,
|
|
1111,
|
|
1111,
|
|
1111,
|
|
1111,
|
|
1111,
|
|
1111,
|
|
1111,
|
|
1111,
|
|
1111,
|
|
1111,
|
|
1111,
|
|
1111,
|
|
1111,
|
|
1111,
|
|
1111,
|
|
1111,
|
|
1111,
|
|
1111,
|
|
1111,
|
|
1111,
|
|
1111,
|
|
1111,
|
|
1111,
|
|
1111,
|
|
1111,
|
|
1111,
|
|
1111,
|
|
1111,
|
|
1111,
|
|
1111,
|
|
1111,
|
|
1111,
|
|
1111,
|
|
1111,
|
|
1111,
|
|
1111,
|
|
1111,
|
|
1111,
|
|
1111,
|
|
1111,
|
|
1111,
|
|
1111,
|
|
1111,
|
|
1111,
|
|
1111,
|
|
1111,
|
|
1111,
|
|
1111,
|
|
1111,
|
|
1111,
|
|
1111,
|
|
1111,
|
|
1111,
|
|
1111,
|
|
1111,
|
|
1111,
|
|
1111,
|
|
1111,
|
|
1111,
|
|
1111,
|
|
1111,
|
|
1111,
|
|
1111,
|
|
1111,
|
|
1111,
|
|
1111,
|
|
1111,
|
|
1111,
|
|
1111,
|
|
1111,
|
|
1111,
|
|
1111,
|
|
1111,
|
|
1111,
|
|
1111,
|
|
1111,
|
|
1111,
|
|
1111,
|
|
1111,
|
|
1111,
|
|
1111,
|
|
1111,
|
|
1111,
|
|
1111,
|
|
1111,
|
|
1111,
|
|
1111,
|
|
1111,
|
|
1111,
|
|
1111,
|
|
1111,
|
|
1111,
|
|
1111,
|
|
1111,
|
|
1111,
|
|
1111,
|
|
1111,
|
|
1111,
|
|
1111,
|
|
1111,
|
|
1111,
|
|
1111,
|
|
1111,
|
|
1111,
|
|
1111,
|
|
1111,
|
|
1111,
|
|
1111,
|
|
1111,
|
|
1111,
|
|
1111,
|
|
1111,
|
|
1111,
|
|
1111,
|
|
1111,
|
|
1111,
|
|
1111,
|
|
1111,
|
|
1111,
|
|
1111,
|
|
1111,
|
|
1111,
|
|
1111,
|
|
1111,
|
|
1111,
|
|
1111,
|
|
1111,
|
|
1111,
|
|
1111,
|
|
1111,
|
|
1111,
|
|
1111,
|
|
1111,
|
|
1111,
|
|
1111,
|
|
1111,
|
|
1111,
|
|
1111,
|
|
1111,
|
|
1111,
|
|
1111,
|
|
1111,
|
|
1111,
|
|
1111,
|
|
1111,
|
|
1111,
|
|
1111,
|
|
1111,
|
|
1111,
|
|
1111,
|
|
1111,
|
|
1111,
|
|
1111,
|
|
1111,
|
|
1111,
|
|
1111,
|
|
1111,
|
|
1111,
|
|
1111,
|
|
1111,
|
|
1111,
|
|
1111,
|
|
1111,
|
|
1111,
|
|
1111,
|
|
1111,
|
|
1111,
|
|
1111,
|
|
1111,
|
|
1111,
|
|
1111,
|
|
1111,
|
|
1111,
|
|
1111,
|
|
1111,
|
|
1111,
|
|
1111,
|
|
1111,
|
|
1111,
|
|
1111,
|
|
1111,
|
|
1111,
|
|
1111,
|
|
1111,
|
|
1111,
|
|
1111,
|
|
1111,
|
|
1111,
|
|
1111,
|
|
1111,
|
|
1111,
|
|
1111,
|
|
1111,
|
|
1111,
|
|
1111,
|
|
1111,
|
|
1111,
|
|
1111,
|
|
1111,
|
|
1111,
|
|
1111,
|
|
1111,
|
|
1111,
|
|
1111,
|
|
1111,
|
|
1111,
|
|
1111,
|
|
1111,
|
|
1111,
|
|
1111,
|
|
1111,
|
|
1111,
|
|
1111,
|
|
1111,
|
|
1111,
|
|
1111,
|
|
1111,
|
|
1111,
|
|
1111,
|
|
1111,
|
|
1111,
|
|
1111,
|
|
1111,
|
|
1111,
|
|
1111,
|
|
1111,
|
|
1111,
|
|
1111,
|
|
1111,
|
|
1111,
|
|
1111,
|
|
1111,
|
|
1111,
|
|
1111,
|
|
1111,
|
|
1111,
|
|
1111,
|
|
1111,
|
|
1111,
|
|
1111,
|
|
1111,
|
|
1111,
|
|
1111,
|
|
1111,
|
|
1111,
|
|
1111,
|
|
1111,
|
|
1111,
|
|
1111,
|
|
1111,
|
|
1111,
|
|
1111,
|
|
1111,
|
|
1111,
|
|
1111,
|
|
1111,
|
|
1111,
|
|
1111,
|
|
1111,
|
|
1111,
|
|
1111,
|
|
1111,
|
|
1111,
|
|
1111,
|
|
1111,
|
|
1111,
|
|
1111,
|
|
1111,
|
|
1111,
|
|
1111,
|
|
1111,
|
|
1111,
|
|
1111,
|
|
1111,
|
|
1111,
|
|
1111,
|
|
1111,
|
|
1111,
|
|
1111,
|
|
1111,
|
|
1111,
|
|
1111,
|
|
1111,
|
|
1111,
|
|
1111,
|
|
1111,
|
|
1111,
|
|
1111,
|
|
1111,
|
|
1111,
|
|
1111,
|
|
1111,
|
|
1111,
|
|
1111,
|
|
1111,
|
|
1111,
|
|
1111,
|
|
1111,
|
|
1111,
|
|
1111,
|
|
1111,
|
|
1111,
|
|
1111,
|
|
1111,
|
|
1111,
|
|
1111,
|
|
1111,
|
|
1111,
|
|
1111,
|
|
1111,
|
|
1111,
|
|
1111,
|
|
1111,
|
|
1111,
|
|
1111,
|
|
1111,
|
|
1111,
|
|
1111,
|
|
1111,
|
|
1111,
|
|
1111,
|
|
1111,
|
|
1111,
|
|
1111,
|
|
1111,
|
|
1111,
|
|
1111,
|
|
1111,
|
|
1111,
|
|
1111,
|
|
1111,
|
|
1111,
|
|
1111,
|
|
1111,
|
|
1111,
|
|
1111,
|
|
1111,
|
|
1111,
|
|
1111,
|
|
1111,
|
|
1111,
|
|
1111,
|
|
1111,
|
|
1111,
|
|
1111,
|
|
1111,
|
|
1111,
|
|
1111,
|
|
1111,
|
|
1111,
|
|
1111,
|
|
1111,
|
|
1111,
|
|
1111,
|
|
1111,
|
|
1111,
|
|
1111,
|
|
1111,
|
|
1111,
|
|
1111,
|
|
1111,
|
|
1111,
|
|
1111,
|
|
1111,
|
|
1111,
|
|
1111,
|
|
1111,
|
|
1111,
|
|
1111,
|
|
1111,
|
|
1111,
|
|
1111,
|
|
1111,
|
|
1111,
|
|
1111,
|
|
1111,
|
|
1111,
|
|
1111,
|
|
1111,
|
|
1111,
|
|
1111,
|
|
1111,
|
|
1111,
|
|
1111,
|
|
1111,
|
|
1111,
|
|
1111,
|
|
1111,
|
|
1111,
|
|
1111,
|
|
1111,
|
|
1111,
|
|
1111,
|
|
1111,
|
|
1111,
|
|
1111,
|
|
1111,
|
|
1111,
|
|
1111,
|
|
1111,
|
|
1111,
|
|
1111,
|
|
1111,
|
|
1111,
|
|
1111,
|
|
1111,
|
|
1111,
|
|
1111,
|
|
1111,
|
|
1111,
|
|
1111,
|
|
1111,
|
|
1111,
|
|
1111,
|
|
1111,
|
|
1111,
|
|
1111,
|
|
1111,
|
|
1111,
|
|
1111,
|
|
1111,
|
|
1111,
|
|
1111,
|
|
1111,
|
|
1111,
|
|
1111,
|
|
1111,
|
|
1111,
|
|
1111,
|
|
1111,
|
|
1111,
|
|
1111,
|
|
1111,
|
|
1111,
|
|
1111,
|
|
1111,
|
|
1111,
|
|
1111,
|
|
1111,
|
|
1111,
|
|
1111,
|
|
1111,
|
|
1111,
|
|
1111,
|
|
1111,
|
|
1111,
|
|
1111,
|
|
1111,
|
|
1111,
|
|
1111,
|
|
1111,
|
|
1111,
|
|
1111,
|
|
1111,
|
|
1111,
|
|
1111,
|
|
1111,
|
|
1111,
|
|
1111,
|
|
1111,
|
|
1111,
|
|
1111,
|
|
1111,
|
|
1111,
|
|
1111,
|
|
1111,
|
|
1111,
|
|
1111,
|
|
1111,
|
|
1111,
|
|
1111,
|
|
1111,
|
|
1111,
|
|
1111,
|
|
1111,
|
|
1111,
|
|
1111,
|
|
1111,
|
|
1111,
|
|
1111,
|
|
1111,
|
|
1111,
|
|
1111,
|
|
1111,
|
|
1111,
|
|
1111,
|
|
1111,
|
|
1111,
|
|
1111,
|
|
1111,
|
|
1111,
|
|
1111,
|
|
1111,
|
|
1111,
|
|
1111,
|
|
1111,
|
|
1111,
|
|
1111,
|
|
1111,
|
|
1111,
|
|
1111,
|
|
1111,
|
|
1111,
|
|
1111,
|
|
1111,
|
|
1111,
|
|
1111,
|
|
1111,
|
|
1111,
|
|
1111,
|
|
1111,
|
|
1111,
|
|
1111,
|
|
1111,
|
|
1111,
|
|
1111,
|
|
1111,
|
|
1111,
|
|
1111,
|
|
1111,
|
|
1111,
|
|
1111,
|
|
1111,
|
|
1111,
|
|
1111,
|
|
1111,
|
|
1111,
|
|
1111,
|
|
1111,
|
|
1111,
|
|
1111,
|
|
1111,
|
|
1111,
|
|
1111,
|
|
1111,
|
|
1111,
|
|
1111,
|
|
1111,
|
|
1111,
|
|
1111,
|
|
1111,
|
|
1111,
|
|
1111,
|
|
1111,
|
|
1111,
|
|
1111,
|
|
1111,
|
|
1111,
|
|
1111,
|
|
1111,
|
|
1111,
|
|
1111,
|
|
1111,
|
|
1111,
|
|
1111,
|
|
1111,
|
|
1111,
|
|
1111,
|
|
1111,
|
|
1111,
|
|
1111,
|
|
1111,
|
|
1111,
|
|
1111,
|
|
1111,
|
|
1111,
|
|
1111,
|
|
1111,
|
|
1111,
|
|
1111,
|
|
1111,
|
|
1111,
|
|
1111,
|
|
1111,
|
|
1111,
|
|
1111,
|
|
1111,
|
|
1111,
|
|
1111,
|
|
1111,
|
|
1111,
|
|
1111,
|
|
1111,
|
|
1111,
|
|
1111,
|
|
1111,
|
|
1111,
|
|
1111,
|
|
1111,
|
|
1111,
|
|
1111,
|
|
1111,
|
|
1111,
|
|
1111,
|
|
1111,
|
|
1111,
|
|
1111,
|
|
1111,
|
|
1111,
|
|
1111,
|
|
1111,
|
|
1111,
|
|
1111,
|
|
1111,
|
|
1111,
|
|
1111,
|
|
1111,
|
|
1111,
|
|
1111,
|
|
1111,
|
|
1111,
|
|
1111,
|
|
1111,
|
|
1111,
|
|
1111,
|
|
1111,
|
|
1111,
|
|
1111,
|
|
1111,
|
|
1111,
|
|
1111,
|
|
1111,
|
|
1111,
|
|
1111,
|
|
1111,
|
|
1111,
|
|
1111,
|
|
1111,
|
|
1111,
|
|
1111,
|
|
1111,
|
|
1111,
|
|
1111,
|
|
1111,
|
|
1111,
|
|
1111,
|
|
1111,
|
|
1111,
|
|
1111,
|
|
1111,
|
|
1111,
|
|
1111,
|
|
1111,
|
|
1111,
|
|
1111,
|
|
1111,
|
|
1111,
|
|
1111,
|
|
1111,
|
|
1111,
|
|
1111,
|
|
1111,
|
|
1111,
|
|
1111,
|
|
1111,
|
|
1111,
|
|
1111,
|
|
1111,
|
|
1111,
|
|
1111,
|
|
1111,
|
|
1111,
|
|
1111,
|
|
1111,
|
|
1111,
|
|
1111,
|
|
1111,
|
|
1111,
|
|
1111,
|
|
1111,
|
|
1111,
|
|
1111,
|
|
1111,
|
|
1111,
|
|
1111,
|
|
1111,
|
|
1111,
|
|
1111,
|
|
1111,
|
|
1111,
|
|
1111,
|
|
1111,
|
|
1111,
|
|
1111,
|
|
1111,
|
|
1111,
|
|
1111,
|
|
1111,
|
|
1111,
|
|
1111,
|
|
1111,
|
|
1111,
|
|
1111,
|
|
1111,
|
|
1111,
|
|
1111,
|
|
1111,
|
|
1111,
|
|
1111,
|
|
1111,
|
|
1111,
|
|
1111,
|
|
1111,
|
|
1111,
|
|
1111,
|
|
1111,
|
|
1111,
|
|
1111,
|
|
1111,
|
|
1111,
|
|
1111,
|
|
1111,
|
|
1111,
|
|
1111,
|
|
1111,
|
|
1111,
|
|
1111,
|
|
1111,
|
|
1111,
|
|
1111,
|
|
1111,
|
|
1111,
|
|
1111,
|
|
1111,
|
|
1111,
|
|
1111,
|
|
1111,
|
|
1111,
|
|
1111,
|
|
1111,
|
|
1111,
|
|
1111,
|
|
1111,
|
|
1111,
|
|
1111,
|
|
1111,
|
|
1111,
|
|
1111,
|
|
1111,
|
|
1111,
|
|
1111,
|
|
1111,
|
|
1111,
|
|
1111,
|
|
1111,
|
|
1111,
|
|
1111,
|
|
1111,
|
|
1111,
|
|
1111,
|
|
1111,
|
|
1111,
|
|
1111,
|
|
1111,
|
|
1111,
|
|
1111,
|
|
1111,
|
|
1111,
|
|
1111,
|
|
1111,
|
|
1111,
|
|
1111,
|
|
1111,
|
|
1111,
|
|
1111,
|
|
1111,
|
|
1111,
|
|
1111,
|
|
1111,
|
|
1111,
|
|
1111,
|
|
1111,
|
|
1111,
|
|
1111,
|
|
1111,
|
|
1111,
|
|
1111,
|
|
1111,
|
|
1111,
|
|
1111,
|
|
1111,
|
|
1111,
|
|
1111,
|
|
1111,
|
|
1111,
|
|
1111,
|
|
1111,
|
|
1111,
|
|
1111,
|
|
1111,
|
|
1111,
|
|
1111,
|
|
1111,
|
|
1111,
|
|
1111,
|
|
1111,
|
|
1111,
|
|
1111,
|
|
1111,
|
|
1111,
|
|
1111,
|
|
1111,
|
|
1111,
|
|
1111,
|
|
1111,
|
|
1111,
|
|
1111,
|
|
1111,
|
|
1111,
|
|
1111,
|
|
1111,
|
|
1111,
|
|
1111,
|
|
1111,
|
|
1111,
|
|
1111,
|
|
1111,
|
|
1111,
|
|
1111,
|
|
1111,
|
|
1111,
|
|
1111,
|
|
1111,
|
|
1111,
|
|
1111,
|
|
1111,
|
|
1111,
|
|
1111,
|
|
1111,
|
|
1111,
|
|
1111,
|
|
1111,
|
|
1111,
|
|
1111,
|
|
1111,
|
|
1111,
|
|
1111,
|
|
1111,
|
|
1111,
|
|
1111,
|
|
1111,
|
|
1111,
|
|
1111,
|
|
1111,
|
|
1111,
|
|
1111,
|
|
1111,
|
|
1111,
|
|
1111,
|
|
1111,
|
|
1111,
|
|
1111,
|
|
1111,
|
|
1111,
|
|
1111,
|
|
1111,
|
|
1111,
|
|
1111,
|
|
1111,
|
|
1111,
|
|
1111,
|
|
1111,
|
|
1111,
|
|
1111,
|
|
1111,
|
|
1111,
|
|
1111,
|
|
1111,
|
|
1111,
|
|
1111,
|
|
1111,
|
|
1111,
|
|
1111,
|
|
1111,
|
|
1111,
|
|
1111,
|
|
1111,
|
|
1111,
|
|
1111,
|
|
1111,
|
|
1111,
|
|
1111,
|
|
1111,
|
|
1111,
|
|
1111,
|
|
1111,
|
|
1111,
|
|
1111,
|
|
1111,
|
|
1111,
|
|
1111,
|
|
1111,
|
|
1111,
|
|
1111,
|
|
1111,
|
|
1111,
|
|
1111,
|
|
1111,
|
|
1111,
|
|
1111,
|
|
1111,
|
|
1111,
|
|
1111,
|
|
1111,
|
|
1111,
|
|
1111,
|
|
1111,
|
|
1111,
|
|
1111,
|
|
1111,
|
|
1111,
|
|
1111,
|
|
1111,
|
|
1111,
|
|
1111,
|
|
1111,
|
|
1111,
|
|
1111,
|
|
1111,
|
|
1111,
|
|
1111,
|
|
1111,
|
|
1111,
|
|
1111,
|
|
1111,
|
|
1111,
|
|
1111,
|
|
1111,
|
|
1111,
|
|
1111,
|
|
1111,
|
|
1111,
|
|
1111,
|
|
1111,
|
|
1111,
|
|
1111,
|
|
1111,
|
|
1111,
|
|
1111,
|
|
1111,
|
|
1111,
|
|
1111,
|
|
1111,
|
|
1111,
|
|
1111,
|
|
1111,
|
|
1111,
|
|
1111,
|
|
1111,
|
|
1111,
|
|
1111,
|
|
1111,
|
|
1111,
|
|
1111,
|
|
1111,
|
|
1111,
|
|
1111,
|
|
1111,
|
|
1111,
|
|
1111,
|
|
1111,
|
|
1111,
|
|
1111,
|
|
1111,
|
|
1111,
|
|
1111,
|
|
1111,
|
|
1111,
|
|
1111,
|
|
1111,
|
|
1111,
|
|
1111,
|
|
1111,
|
|
1111,
|
|
1111,
|
|
1111,
|
|
1111,
|
|
1111,
|
|
1111,
|
|
1111,
|
|
1111,
|
|
1111,
|
|
1111,
|
|
1111,
|
|
1111,
|
|
1111,
|
|
1111,
|
|
1111,
|
|
1111,
|
|
1111,
|
|
1111,
|
|
1111,
|
|
1111,
|
|
1111,
|
|
1111,
|
|
1111,
|
|
1111,
|
|
1111,
|
|
1111,
|
|
1111,
|
|
1111,
|
|
1111,
|
|
1111,
|
|
1111,
|
|
1111,
|
|
1111,
|
|
1111,
|
|
1111,
|
|
1111,
|
|
1111,
|
|
1111,
|
|
1111,
|
|
1111,
|
|
1111,
|
|
1111,
|
|
1111,
|
|
1111,
|
|
1111,
|
|
1111,
|
|
1111,
|
|
1111,
|
|
1111,
|
|
1111,
|
|
1111,
|
|
1111,
|
|
1111,
|
|
1111,
|
|
1111,
|
|
1111,
|
|
1111,
|
|
1111,
|
|
1111,
|
|
1111,
|
|
1111,
|
|
1111,
|
|
1111,
|
|
1111,
|
|
1111,
|
|
1111,
|
|
1111,
|
|
1111,
|
|
1111,
|
|
1111,
|
|
1111,
|
|
1111,
|
|
1111,
|
|
1111,
|
|
1111,
|
|
1111,
|
|
1111,
|
|
1111,
|
|
1111,
|
|
1111,
|
|
1111,
|
|
1111,
|
|
1111,
|
|
1111,
|
|
1111,
|
|
1111,
|
|
1111,
|
|
1111,
|
|
1111,
|
|
1111,
|
|
1111,
|
|
1111,
|
|
1111,
|
|
1111,
|
|
1111,
|
|
1111,
|
|
1111,
|
|
1111,
|
|
1111,
|
|
1111,
|
|
1111,
|
|
1111,
|
|
1111,
|
|
1111,
|
|
1111,
|
|
1111,
|
|
1111,
|
|
1111,
|
|
1111,
|
|
1111,
|
|
1111,
|
|
1111,
|
|
1111,
|
|
1111,
|
|
1111,
|
|
1111,
|
|
1111,
|
|
1111,
|
|
1111,
|
|
1111,
|
|
1111,
|
|
1111,
|
|
1111,
|
|
1111,
|
|
1111,
|
|
1111,
|
|
1111,
|
|
1111,
|
|
1111,
|
|
1111,
|
|
1111,
|
|
1111,
|
|
1111,
|
|
1111,
|
|
1111,
|
|
1111,
|
|
1111,
|
|
1111,
|
|
1111,
|
|
1111,
|
|
1111,
|
|
1111,
|
|
1111,
|
|
1111,
|
|
1111,
|
|
1111,
|
|
1111,
|
|
1111,
|
|
1111,
|
|
1111,
|
|
1111,
|
|
1111,
|
|
1111,
|
|
1111,
|
|
1111,
|
|
1111,
|
|
1111,
|
|
1111,
|
|
1111,
|
|
1111,
|
|
1111,
|
|
1111,
|
|
1111,
|
|
1111,
|
|
1111,
|
|
1111,
|
|
1111,
|
|
1111,
|
|
1111,
|
|
1111,
|
|
1111,
|
|
1111,
|
|
1111,
|
|
1111,
|
|
1111,
|
|
1111,
|
|
1111,
|
|
1111,
|
|
1111,
|
|
1111,
|
|
1111,
|
|
1111,
|
|
1111,
|
|
1111,
|
|
1111,
|
|
1111,
|
|
1111,
|
|
1111,
|
|
1111,
|
|
1111,
|
|
1111,
|
|
1111,
|
|
1111,
|
|
1111,
|
|
1111,
|
|
1111,
|
|
1111,
|
|
1111,
|
|
1111,
|
|
1111,
|
|
1111,
|
|
1111,
|
|
1111,
|
|
1111,
|
|
1111,
|
|
1111,
|
|
1111,
|
|
1111,
|
|
1111,
|
|
1111,
|
|
1111,
|
|
1111,
|
|
1111,
|
|
1111,
|
|
1111,
|
|
1111,
|
|
1111,
|
|
1111,
|
|
1111,
|
|
1111,
|
|
1111,
|
|
1111,
|
|
1111,
|
|
1111,
|
|
1111,
|
|
1111,
|
|
1111,
|
|
1111,
|
|
1111,
|
|
1111,
|
|
1111,
|
|
1111,
|
|
1111,
|
|
1111,
|
|
1111,
|
|
1111,
|
|
1111,
|
|
1111,
|
|
1111,
|
|
1111,
|
|
1111,
|
|
1111,
|
|
1111,
|
|
1111,
|
|
1111,
|
|
1111,
|
|
1111,
|
|
1111,
|
|
1111,
|
|
1111,
|
|
1111,
|
|
1111,
|
|
1111,
|
|
1111,
|
|
1111,
|
|
1111,
|
|
1111,
|
|
1111,
|
|
1111,
|
|
1111,
|
|
1111,
|
|
1111,
|
|
1111,
|
|
1111,
|
|
1111,
|
|
1111,
|
|
1111,
|
|
1111,
|
|
1111,
|
|
1111,
|
|
1111,
|
|
1111,
|
|
1111,
|
|
1111,
|
|
1111,
|
|
1111,
|
|
1111,
|
|
1111,
|
|
1111,
|
|
1111,
|
|
1111,
|
|
1111,
|
|
1111,
|
|
1111,
|
|
1111,
|
|
1111,
|
|
1111,
|
|
1111,
|
|
1111,
|
|
1111,
|
|
1111,
|
|
1111,
|
|
1111,
|
|
1111,
|
|
1111,
|
|
1111,
|
|
1111,
|
|
1111,
|
|
1111,
|
|
1111,
|
|
1111,
|
|
1111,
|
|
1111,
|
|
1111,
|
|
1111,
|
|
1111,
|
|
1111,
|
|
1111,
|
|
1111,
|
|
1111,
|
|
1111,
|
|
1111,
|
|
1111,
|
|
1111,
|
|
1111,
|
|
1111,
|
|
1111,
|
|
1111,
|
|
1111,
|
|
1111,
|
|
1111,
|
|
1111,
|
|
1111,
|
|
1111,
|
|
1111,
|
|
1111,
|
|
1111,
|
|
1111,
|
|
1111,
|
|
1111,
|
|
1111,
|
|
1111,
|
|
1111,
|
|
1111,
|
|
1111,
|
|
1111,
|
|
1111,
|
|
1111,
|
|
1111,
|
|
1111,
|
|
1111,
|
|
1111,
|
|
1111,
|
|
1111,
|
|
1111,
|
|
1111,
|
|
1111,
|
|
1111,
|
|
1111,
|
|
1111,
|
|
1111,
|
|
1111,
|
|
1111,
|
|
1111,
|
|
1111,
|
|
1111,
|
|
1111,
|
|
1111,
|
|
1111,
|
|
1111,
|
|
1111,
|
|
1111,
|
|
1111,
|
|
1111,
|
|
1111,
|
|
1111,
|
|
1111,
|
|
1111,
|
|
1111,
|
|
1111,
|
|
1111,
|
|
1111,
|
|
1111,
|
|
1111,
|
|
1111,
|
|
1111,
|
|
1111,
|
|
1111,
|
|
1111,
|
|
1111,
|
|
1111,
|
|
1111,
|
|
1111,
|
|
1111,
|
|
1111,
|
|
1111,
|
|
1111,
|
|
1111,
|
|
1111,
|
|
1111,
|
|
1111,
|
|
1111,
|
|
1111,
|
|
1111,
|
|
1111,
|
|
1111,
|
|
1111,
|
|
1111,
|
|
1111,
|
|
1111,
|
|
1111,
|
|
1111,
|
|
1111,
|
|
1111,
|
|
1111,
|
|
1111,
|
|
1111,
|
|
1111,
|
|
1111,
|
|
1111,
|
|
1111,
|
|
1111,
|
|
1111,
|
|
1111,
|
|
1111,
|
|
1111,
|
|
1111,
|
|
1111,
|
|
1111,
|
|
1111,
|
|
1111,
|
|
1111,
|
|
1111,
|
|
1111,
|
|
1111,
|
|
1111,
|
|
1111,
|
|
1111,
|
|
1111,
|
|
1111,
|
|
1111,
|
|
1111,
|
|
1111,
|
|
1111,
|
|
1111,
|
|
1111,
|
|
1111,
|
|
1111,
|
|
1111,
|
|
1111,
|
|
1111,
|
|
1111,
|
|
1111,
|
|
1111,
|
|
1111,
|
|
1111,
|
|
1111,
|
|
1111,
|
|
1111,
|
|
1111,
|
|
1111,
|
|
1111,
|
|
1111,
|
|
1111,
|
|
1111,
|
|
1111,
|
|
1111,
|
|
1111,
|
|
1111,
|
|
1111,
|
|
1111,
|
|
1111,
|
|
1111,
|
|
1111,
|
|
1111,
|
|
1111,
|
|
1111,
|
|
1111,
|
|
1111,
|
|
1111,
|
|
1111,
|
|
1111,
|
|
1111,
|
|
1111,
|
|
1111,
|
|
1111,
|
|
1111,
|
|
1111,
|
|
1111,
|
|
1111,
|
|
1111,
|
|
1111,
|
|
1111,
|
|
1111,
|
|
1111,
|
|
1111,
|
|
1111,
|
|
1111,
|
|
1111,
|
|
1111,
|
|
1111,
|
|
1111,
|
|
1111,
|
|
1111,
|
|
1111,
|
|
1111,
|
|
1111,
|
|
1111,
|
|
1111,
|
|
1111,
|
|
1111,
|
|
1111,
|
|
1111,
|
|
1111,
|
|
1111,
|
|
1111,
|
|
1111,
|
|
1111,
|
|
1111,
|
|
1111,
|
|
1111,
|
|
1111,
|
|
1111,
|
|
1111,
|
|
1111,
|
|
1111,
|
|
1111,
|
|
1111,
|
|
1111,
|
|
1111,
|
|
1111,
|
|
1111,
|
|
1111,
|
|
1111,
|
|
1111,
|
|
1111,
|
|
1111,
|
|
1111,
|
|
1111,
|
|
1111,
|
|
1111,
|
|
1111,
|
|
1111,
|
|
1111,
|
|
1111,
|
|
1111,
|
|
1111,
|
|
1111,
|
|
1111,
|
|
1111,
|
|
1111,
|
|
1111,
|
|
1111,
|
|
1111,
|
|
1111,
|
|
1111,
|
|
1111,
|
|
1111,
|
|
1111,
|
|
1111,
|
|
1111,
|
|
1111,
|
|
1111,
|
|
1111,
|
|
1111,
|
|
1111,
|
|
1111,
|
|
1111,
|
|
1111,
|
|
1111,
|
|
1111,
|
|
1111,
|
|
1111,
|
|
1111,
|
|
1111,
|
|
1111,
|
|
1111,
|
|
1111,
|
|
1111,
|
|
1111,
|
|
1111,
|
|
1111,
|
|
1111,
|
|
1111,
|
|
1111,
|
|
1111,
|
|
1111,
|
|
1111,
|
|
1111,
|
|
1111,
|
|
1111,
|
|
1111,
|
|
1111,
|
|
1111,
|
|
1111,
|
|
1111,
|
|
1111,
|
|
1111,
|
|
1111,
|
|
1111,
|
|
1111,
|
|
1111,
|
|
1111,
|
|
1111,
|
|
1111,
|
|
1111,
|
|
1111,
|
|
1111,
|
|
1111,
|
|
1111,
|
|
1111,
|
|
1111,
|
|
1111,
|
|
1111,
|
|
1111,
|
|
1111,
|
|
1111,
|
|
1111,
|
|
1111,
|
|
1111,
|
|
1111,
|
|
1111,
|
|
1111,
|
|
1111,
|
|
1111,
|
|
1111,
|
|
1111,
|
|
1111,
|
|
1111,
|
|
1111,
|
|
1111,
|
|
1111,
|
|
1111,
|
|
1111,
|
|
1111,
|
|
1111,
|
|
1111,
|
|
1111,
|
|
1111,
|
|
1111,
|
|
1111,
|
|
1111,
|
|
1111,
|
|
1111,
|
|
1111,
|
|
1111,
|
|
1111,
|
|
1111,
|
|
1111,
|
|
1111,
|
|
1111,
|
|
1111,
|
|
1111,
|
|
1111,
|
|
1111,
|
|
1111,
|
|
1111,
|
|
1111,
|
|
1111,
|
|
1111,
|
|
1111,
|
|
1111,
|
|
1111,
|
|
1111,
|
|
1111,
|
|
1111,
|
|
1111,
|
|
1111,
|
|
1111,
|
|
1111,
|
|
1111,
|
|
1111,
|
|
1111,
|
|
1111,
|
|
1111,
|
|
1111,
|
|
1111,
|
|
1111,
|
|
1111,
|
|
1111,
|
|
1111,
|
|
1111,
|
|
1111,
|
|
1111,
|
|
1111,
|
|
1111,
|
|
1111,
|
|
1111,
|
|
1111,
|
|
1111,
|
|
1111,
|
|
1111,
|
|
1111,
|
|
1111,
|
|
1111,
|
|
1111,
|
|
1111,
|
|
1111,
|
|
1111,
|
|
1111,
|
|
1111,
|
|
1111,
|
|
1111,
|
|
1111,
|
|
1111,
|
|
1111,
|
|
1111,
|
|
1111,
|
|
1111,
|
|
1111,
|
|
1111,
|
|
1111,
|
|
1111,
|
|
1111,
|
|
1111,
|
|
1111,
|
|
1111,
|
|
1111,
|
|
1111,
|
|
1111,
|
|
1111,
|
|
1111,
|
|
1111,
|
|
1111,
|
|
1111,
|
|
1111,
|
|
1111,
|
|
1111,
|
|
1111,
|
|
1111,
|
|
1111,
|
|
1111,
|
|
1111,
|
|
1111,
|
|
1111,
|
|
1111,
|
|
1111,
|
|
1111,
|
|
1111,
|
|
1111,
|
|
1111,
|
|
1111,
|
|
1111,
|
|
1111,
|
|
1111,
|
|
1111,
|
|
1111,
|
|
1111,
|
|
1111,
|
|
1111,
|
|
1111,
|
|
1111,
|
|
1111,
|
|
1111,
|
|
1111,
|
|
1111,
|
|
1111,
|
|
1111,
|
|
1111,
|
|
1111,
|
|
1111,
|
|
1111,
|
|
1111,
|
|
1111,
|
|
1111,
|
|
1111,
|
|
1111,
|
|
1111,
|
|
1111,
|
|
1111,
|
|
1111,
|
|
1111,
|
|
1111,
|
|
1111,
|
|
1111,
|
|
1111,
|
|
1111,
|
|
1111,
|
|
1111,
|
|
1111,
|
|
1111,
|
|
1111,
|
|
1111,
|
|
1111,
|
|
1111,
|
|
1111,
|
|
1111,
|
|
1111,
|
|
1111,
|
|
1111,
|
|
1111,
|
|
1111,
|
|
1111,
|
|
1111,
|
|
1111,
|
|
1111,
|
|
1111,
|
|
1111,
|
|
1111,
|
|
1111,
|
|
1111,
|
|
1111,
|
|
1111,
|
|
1111,
|
|
1111,
|
|
1111,
|
|
1111,
|
|
1111,
|
|
1111,
|
|
1111,
|
|
1111,
|
|
1111,
|
|
1111,
|
|
1111,
|
|
1111,
|
|
1111,
|
|
1111,
|
|
1111,
|
|
1111,
|
|
1111,
|
|
1111,
|
|
1111,
|
|
1111,
|
|
1111,
|
|
1111,
|
|
1111,
|
|
1111,
|
|
1111,
|
|
1111,
|
|
1111,
|
|
1111,
|
|
1111,
|
|
1111,
|
|
1111,
|
|
1111,
|
|
1111,
|
|
1111,
|
|
1111,
|
|
1111,
|
|
1111,
|
|
1111,
|
|
1111,
|
|
1111,
|
|
1111,
|
|
1111,
|
|
1111,
|
|
1111,
|
|
1111,
|
|
1111,
|
|
1111,
|
|
1111,
|
|
1111,
|
|
1111,
|
|
1111,
|
|
1111,
|
|
1111,
|
|
1111,
|
|
1111,
|
|
1111,
|
|
1111,
|
|
1111,
|
|
1111,
|
|
1111,
|
|
1111,
|
|
1111,
|
|
1111,
|
|
1111,
|
|
1111,
|
|
1111,
|
|
1111,
|
|
1111,
|
|
1111,
|
|
1111,
|
|
1111,
|
|
1111,
|
|
1111,
|
|
1111,
|
|
1111,
|
|
1111,
|
|
1111,
|
|
1111,
|
|
1111,
|
|
1111,
|
|
1111,
|
|
1111,
|
|
1111,
|
|
1111,
|
|
1111,
|
|
1111,
|
|
1111,
|
|
1111,
|
|
1111,
|
|
1111,
|
|
1111,
|
|
1111,
|
|
1111,
|
|
1111,
|
|
1111,
|
|
1111,
|
|
1111,
|
|
1111,
|
|
1111,
|
|
1111,
|
|
1111,
|
|
1111,
|
|
1111,
|
|
1111,
|
|
1111,
|
|
1111,
|
|
1111,
|
|
1111,
|
|
1111,
|
|
1111,
|
|
1111,
|
|
1111,
|
|
1111,
|
|
1111,
|
|
1111,
|
|
1111,
|
|
1111,
|
|
1111,
|
|
1111,
|
|
1111,
|
|
1111,
|
|
1111,
|
|
1111,
|
|
1111,
|
|
1111,
|
|
1111,
|
|
1111,
|
|
1111,
|
|
1111,
|
|
1111,
|
|
1111,
|
|
1111,
|
|
1111,
|
|
1111,
|
|
1111,
|
|
1111,
|
|
1111,
|
|
1111,
|
|
1111,
|
|
1111,
|
|
1111,
|
|
1111,
|
|
1111,
|
|
1111,
|
|
1111,
|
|
1111,
|
|
1111,
|
|
1111,
|
|
1111,
|
|
1111,
|
|
1111,
|
|
1111,
|
|
1111,
|
|
1111,
|
|
1111,
|
|
1111,
|
|
1111,
|
|
1111,
|
|
1111,
|
|
1111,
|
|
1111,
|
|
1111,
|
|
1111,
|
|
1111,
|
|
1111,
|
|
1111,
|
|
1111,
|
|
1111,
|
|
1111,
|
|
1111,
|
|
1111,
|
|
1111,
|
|
1111,
|
|
1111,
|
|
1111,
|
|
1111,
|
|
1111,
|
|
1111,
|
|
1111,
|
|
1111,
|
|
1111,
|
|
1111,
|
|
1111,
|
|
1111,
|
|
1111,
|
|
1111,
|
|
1111,
|
|
1111,
|
|
1111,
|
|
1111,
|
|
1111,
|
|
1111,
|
|
1111,
|
|
1111,
|
|
1111,
|
|
1111,
|
|
1111,
|
|
1111,
|
|
1111,
|
|
1111,
|
|
1111,
|
|
1111,
|
|
1111,
|
|
1111,
|
|
1111,
|
|
1111,
|
|
1111,
|
|
1111,
|
|
1111,
|
|
1111,
|
|
1111,
|
|
1111,
|
|
1111,
|
|
1111,
|
|
1111,
|
|
1111,
|
|
1111,
|
|
1111,
|
|
1111,
|
|
1111,
|
|
1111,
|
|
1111,
|
|
1111,
|
|
1111,
|
|
1111,
|
|
1111,
|
|
1111,
|
|
1111,
|
|
1111,
|
|
1111,
|
|
1111,
|
|
1111,
|
|
1111,
|
|
1111,
|
|
1111,
|
|
1111,
|
|
1111,
|
|
1111,
|
|
1111,
|
|
1111,
|
|
1111,
|
|
1111,
|
|
1111,
|
|
1111,
|
|
1111,
|
|
1111,
|
|
1111,
|
|
1111,
|
|
1111,
|
|
1111,
|
|
1111,
|
|
1111,
|
|
1111,
|
|
1111,
|
|
1111,
|
|
1111,
|
|
1111,
|
|
1111,
|
|
1111,
|
|
1111,
|
|
1111,
|
|
1111,
|
|
1111,
|
|
1111,
|
|
1111,
|
|
1111,
|
|
1111,
|
|
1111,
|
|
1111,
|
|
1111,
|
|
1111,
|
|
1111,
|
|
1111,
|
|
1111,
|
|
1111,
|
|
1111,
|
|
1111,
|
|
1111,
|
|
1111,
|
|
1111,
|
|
1111,
|
|
1111,
|
|
1111,
|
|
1111,
|
|
1111,
|
|
1111,
|
|
1111,
|
|
1111,
|
|
1111,
|
|
1111,
|
|
1111,
|
|
1111,
|
|
1111,
|
|
1111,
|
|
1111,
|
|
1111,
|
|
1111,
|
|
1111,
|
|
1111,
|
|
1111,
|
|
1111,
|
|
1111,
|
|
1111,
|
|
1111,
|
|
1111,
|
|
1111,
|
|
1111,
|
|
1111,
|
|
1111,
|
|
1111,
|
|
1111,
|
|
1111,
|
|
1111,
|
|
1111,
|
|
1111,
|
|
1111,
|
|
1111,
|
|
1111,
|
|
1111,
|
|
1111,
|
|
1111,
|
|
1111,
|
|
1111,
|
|
1111,
|
|
1111,
|
|
1111,
|
|
1111,
|
|
1111,
|
|
1111,
|
|
1111,
|
|
1111,
|
|
1111,
|
|
1111,
|
|
1111,
|
|
1111,
|
|
1111,
|
|
1111,
|
|
1111,
|
|
1111,
|
|
1111,
|
|
1111,
|
|
1111,
|
|
1111,
|
|
1111,
|
|
1111,
|
|
1111,
|
|
1111,
|
|
1111,
|
|
1111,
|
|
1111,
|
|
1111,
|
|
1111,
|
|
1111,
|
|
1111,
|
|
1111,
|
|
1111,
|
|
1111,
|
|
1111,
|
|
1111,
|
|
1111,
|
|
1111,
|
|
1111,
|
|
1111,
|
|
1111,
|
|
1111,
|
|
1111,
|
|
1111,
|
|
1111,
|
|
1111,
|
|
1111,
|
|
1111,
|
|
1111,
|
|
1111,
|
|
1111,
|
|
1111,
|
|
1111,
|
|
1111,
|
|
1111,
|
|
1111,
|
|
1111,
|
|
1111,
|
|
1111,
|
|
1111,
|
|
1111,
|
|
1111,
|
|
1111,
|
|
1111,
|
|
1111,
|
|
1111,
|
|
1111,
|
|
1111,
|
|
1111,
|
|
1111,
|
|
1111,
|
|
1111,
|
|
1111,
|
|
1111,
|
|
1111,
|
|
1111,
|
|
1111,
|
|
1111,
|
|
1111,
|
|
1111,
|
|
1111,
|
|
1111,
|
|
1111,
|
|
1111,
|
|
1111,
|
|
1111,
|
|
1111,
|
|
1111,
|
|
1111,
|
|
1111,
|
|
1111,
|
|
1111,
|
|
1111,
|
|
1111,
|
|
1111,
|
|
1111,
|
|
1111,
|
|
1111,
|
|
1111,
|
|
1111,
|
|
1111,
|
|
1111,
|
|
1111,
|
|
1111,
|
|
1111,
|
|
1111,
|
|
1111,
|
|
1111,
|
|
1111,
|
|
1111,
|
|
1111,
|
|
1111,
|
|
1111,
|
|
1111,
|
|
1111,
|
|
1111,
|
|
1111,
|
|
1111,
|
|
1111,
|
|
1111,
|
|
1111,
|
|
1111,
|
|
1111,
|
|
1111,
|
|
1111,
|
|
1111,
|
|
1111,
|
|
1111,
|
|
1111,
|
|
1111,
|
|
1111,
|
|
1111,
|
|
1111,
|
|
1111,
|
|
1111,
|
|
1111,
|
|
1111,
|
|
1111,
|
|
1111,
|
|
1111,
|
|
1111,
|
|
1111,
|
|
1111,
|
|
1111,
|
|
1111,
|
|
1111,
|
|
1111,
|
|
1111,
|
|
1111,
|
|
1111,
|
|
1111,
|
|
1111,
|
|
1111,
|
|
1111,
|
|
1111,
|
|
1111,
|
|
1111,
|
|
1111,
|
|
1111,
|
|
1111,
|
|
1111,
|
|
1111,
|
|
1111,
|
|
1111,
|
|
1111,
|
|
1111,
|
|
1111,
|
|
1111,
|
|
1111,
|
|
1111,
|
|
1111,
|
|
1111,
|
|
1111,
|
|
1111,
|
|
1111,
|
|
1111,
|
|
1111,
|
|
1111,
|
|
1111,
|
|
1111,
|
|
1111,
|
|
1111,
|
|
1111,
|
|
1111,
|
|
1111,
|
|
1111,
|
|
1111,
|
|
1111,
|
|
1111,
|
|
1111,
|
|
1111,
|
|
1111,
|
|
1111,
|
|
1111,
|
|
1111,
|
|
1111,
|
|
1111,
|
|
1111,
|
|
1111,
|
|
1111,
|
|
1111,
|
|
1111,
|
|
1111,
|
|
1111,
|
|
1111,
|
|
1111,
|
|
1111,
|
|
1111,
|
|
1111,
|
|
1111,
|
|
1111,
|
|
1111,
|
|
1111,
|
|
1111,
|
|
1111,
|
|
1111,
|
|
1111,
|
|
1111,
|
|
1111,
|
|
1111,
|
|
1111,
|
|
1111,
|
|
1111,
|
|
1111,
|
|
1111,
|
|
1111,
|
|
1111,
|
|
1111,
|
|
1111,
|
|
1111,
|
|
1111,
|
|
1111,
|
|
1111,
|
|
1111,
|
|
1111,
|
|
1111,
|
|
1111,
|
|
1111,
|
|
1111,
|
|
1111,
|
|
1111,
|
|
1111,
|
|
1111,
|
|
1111,
|
|
1111,
|
|
1111,
|
|
1111,
|
|
1111,
|
|
1111,
|
|
1111,
|
|
1111,
|
|
1111,
|
|
1111,
|
|
1111,
|
|
1111,
|
|
1111,
|
|
1111,
|
|
1111,
|
|
1111,
|
|
1111,
|
|
1111,
|
|
1111,
|
|
1111,
|
|
1111,
|
|
1111,
|
|
1111,
|
|
1111,
|
|
1111,
|
|
1111,
|
|
1111,
|
|
1111,
|
|
1111,
|
|
1111,
|
|
1111,
|
|
1111,
|
|
1111,
|
|
1111,
|
|
1111,
|
|
1111,
|
|
1111,
|
|
1111,
|
|
1111,
|
|
1111,
|
|
1111,
|
|
1111,
|
|
1111,
|
|
1111,
|
|
1111,
|
|
1111,
|
|
1111,
|
|
1111,
|
|
1111,
|
|
1111,
|
|
1111,
|
|
1111,
|
|
1111,
|
|
1111,
|
|
1111,
|
|
1111,
|
|
1111,
|
|
1111,
|
|
1111,
|
|
1111,
|
|
1111,
|
|
1111,
|
|
1111,
|
|
1111,
|
|
1111,
|
|
1111,
|
|
1111,
|
|
1111,
|
|
1111,
|
|
1111,
|
|
1111,
|
|
1111,
|
|
1111,
|
|
1111,
|
|
1111,
|
|
1111,
|
|
1111,
|
|
1111,
|
|
1111,
|
|
1111,
|
|
1111,
|
|
1111,
|
|
1111,
|
|
1111,
|
|
1111,
|
|
1111,
|
|
1111,
|
|
1111,
|
|
1111,
|
|
1111,
|
|
1111,
|
|
1111,
|
|
1111,
|
|
1111,
|
|
1111,
|
|
1111,
|
|
1111,
|
|
1111,
|
|
1111,
|
|
1111,
|
|
1111,
|
|
1111,
|
|
1111,
|
|
1111,
|
|
1111,
|
|
1111,
|
|
1111,
|
|
1111,
|
|
1111,
|
|
1111,
|
|
1111,
|
|
1111,
|
|
1111,
|
|
1111,
|
|
1111,
|
|
1111,
|
|
1111,
|
|
1111,
|
|
1111,
|
|
1111,
|
|
1111,
|
|
1111,
|
|
1111,
|
|
1111,
|
|
1111,
|
|
1111,
|
|
1111,
|
|
1111,
|
|
1111,
|
|
1111,
|
|
1111,
|
|
1111,
|
|
1111,
|
|
1111,
|
|
1111,
|
|
1111,
|
|
1111,
|
|
1111,
|
|
1111,
|
|
1111,
|
|
1111,
|
|
1111,
|
|
1111,
|
|
1111,
|
|
1111,
|
|
1111,
|
|
1111,
|
|
1111,
|
|
1111,
|
|
1111,
|
|
1111,
|
|
1111,
|
|
1111,
|
|
1111,
|
|
1111,
|
|
1111,
|
|
1111,
|
|
1111,
|
|
1111,
|
|
1111,
|
|
1111,
|
|
1111,
|
|
1111,
|
|
1111,
|
|
1111,
|
|
1111,
|
|
1111,
|
|
1111,
|
|
1111,
|
|
1111,
|
|
1111,
|
|
1111,
|
|
1111,
|
|
1111,
|
|
1111,
|
|
1111,
|
|
1111,
|
|
1111,
|
|
1111,
|
|
1111,
|
|
1111,
|
|
1111,
|
|
1111,
|
|
1111,
|
|
1111,
|
|
1111,
|
|
1111,
|
|
1111,
|
|
1111,
|
|
1111,
|
|
1111,
|
|
1111,
|
|
1111,
|
|
1111,
|
|
1111,
|
|
1111,
|
|
1111,
|
|
1111,
|
|
1111,
|
|
1111,
|
|
1111,
|
|
1111,
|
|
1111,
|
|
1111,
|
|
1111,
|
|
1111,
|
|
1111,
|
|
1111,
|
|
1111,
|
|
1111,
|
|
1111,
|
|
1111,
|
|
1111,
|
|
1111,
|
|
1111,
|
|
1111,
|
|
1111,
|
|
1111,
|
|
1111,
|
|
1111,
|
|
1111,
|
|
1111,
|
|
1111,
|
|
1111,
|
|
1111,
|
|
1111,
|
|
1111,
|
|
1111,
|
|
1111,
|
|
1111,
|
|
1111,
|
|
1111,
|
|
1111,
|
|
1111,
|
|
1111,
|
|
1111,
|
|
1111,
|
|
1111,
|
|
1111,
|
|
1111,
|
|
1111,
|
|
1111,
|
|
1111,
|
|
1111,
|
|
1111,
|
|
1111,
|
|
1111,
|
|
1111,
|
|
1111,
|
|
1111,
|
|
1111,
|
|
1111,
|
|
1111,
|
|
1111,
|
|
1111,
|
|
1111,
|
|
1111,
|
|
1111,
|
|
1111,
|
|
1111,
|
|
1111,
|
|
1111,
|
|
1111,
|
|
1111,
|
|
1111,
|
|
1111,
|
|
1111,
|
|
1111,
|
|
1111,
|
|
1111,
|
|
1111,
|
|
1111,
|
|
1111,
|
|
1111,
|
|
1111,
|
|
1111,
|
|
1111,
|
|
1111,
|
|
1111,
|
|
1111,
|
|
1111,
|
|
1111,
|
|
1111,
|
|
1111,
|
|
1111,
|
|
1111,
|
|
1111,
|
|
1111,
|
|
1111,
|
|
1111,
|
|
1111,
|
|
1111,
|
|
1111,
|
|
1111,
|
|
1111,
|
|
1111,
|
|
1111,
|
|
1111,
|
|
1111,
|
|
1111,
|
|
1111,
|
|
1111,
|
|
1111,
|
|
1111,
|
|
1111,
|
|
1111,
|
|
1111,
|
|
1111,
|
|
1111,
|
|
1111,
|
|
1111,
|
|
1111,
|
|
1111,
|
|
1111,
|
|
1111,
|
|
1111,
|
|
1111,
|
|
1111,
|
|
1111,
|
|
1111,
|
|
1111,
|
|
1111,
|
|
1111,
|
|
1111,
|
|
1111,
|
|
1111,
|
|
1111,
|
|
1111,
|
|
1111,
|
|
1111,
|
|
1111,
|
|
1111,
|
|
1111,
|
|
1111,
|
|
1111,
|
|
1111,
|
|
1111,
|
|
1111,
|
|
1111,
|
|
1111,
|
|
1111,
|
|
1111,
|
|
1111,
|
|
1111,
|
|
1111,
|
|
1111,
|
|
1111,
|
|
1111,
|
|
1111,
|
|
1111,
|
|
1111,
|
|
1111,
|
|
1111,
|
|
1111,
|
|
1111,
|
|
1111,
|
|
1111,
|
|
1111,
|
|
1111,
|
|
1111,
|
|
1111,
|
|
1111,
|
|
1111,
|
|
1111,
|
|
1111,
|
|
1111,
|
|
1111,
|
|
1111,
|
|
1111,
|
|
1111,
|
|
1111,
|
|
1111,
|
|
1111,
|
|
1111,
|
|
1111,
|
|
1111,
|
|
1111,
|
|
1111,
|
|
1111,
|
|
1111,
|
|
1111,
|
|
1111,
|
|
1111,
|
|
1111,
|
|
1111,
|
|
1111,
|
|
1111,
|
|
1111,
|
|
1111,
|
|
1111,
|
|
1111,
|
|
1111,
|
|
1111,
|
|
1111,
|
|
1111,
|
|
1111,
|
|
1111,
|
|
1111,
|
|
1111,
|
|
1111,
|
|
1111,
|
|
1111,
|
|
1111,
|
|
1111,
|
|
1111,
|
|
1111,
|
|
1111,
|
|
1111,
|
|
1111,
|
|
1111,
|
|
1111,
|
|
1111,
|
|
1111,
|
|
1111,
|
|
1111,
|
|
1111,
|
|
1111,
|
|
1111,
|
|
1111,
|
|
1111,
|
|
1111,
|
|
1111,
|
|
1111,
|
|
1111,
|
|
1111,
|
|
1111,
|
|
1111,
|
|
1111,
|
|
1111,
|
|
1111,
|
|
1111,
|
|
1111,
|
|
1111,
|
|
1111,
|
|
1111,
|
|
1111,
|
|
1111,
|
|
1111,
|
|
1111,
|
|
1111,
|
|
1111,
|
|
1111,
|
|
1111,
|
|
1111,
|
|
1111,
|
|
1111,
|
|
1111,
|
|
1111,
|
|
1111,
|
|
1111,
|
|
1111,
|
|
1111,
|
|
1111,
|
|
1111,
|
|
1111,
|
|
1111,
|
|
1111,
|
|
1111,
|
|
1111,
|
|
1111,
|
|
1111,
|
|
1111,
|
|
1111,
|
|
1111,
|
|
1111,
|
|
1111,
|
|
1111,
|
|
1111,
|
|
1111,
|
|
1111,
|
|
1111,
|
|
1111,
|
|
1111,
|
|
1111,
|
|
1111,
|
|
1111,
|
|
1111,
|
|
1111,
|
|
1111,
|
|
1111,
|
|
1111,
|
|
1111,
|
|
1111,
|
|
1111,
|
|
1111,
|
|
1111,
|
|
1111,
|
|
1111,
|
|
1111,
|
|
1111,
|
|
1111,
|
|
1111,
|
|
1111,
|
|
1111,
|
|
1111,
|
|
1111,
|
|
1111,
|
|
1111,
|
|
1111,
|
|
1111,
|
|
1111,
|
|
1111,
|
|
1111,
|
|
1111,
|
|
1111,
|
|
1111,
|
|
1111,
|
|
1111,
|
|
1111,
|
|
1111,
|
|
1111,
|
|
1111,
|
|
1111,
|
|
1111,
|
|
1111,
|
|
1111,
|
|
1111,
|
|
1111,
|
|
1111,
|
|
1111,
|
|
1111,
|
|
1111,
|
|
1111,
|
|
1111,
|
|
1111,
|
|
1111,
|
|
1111,
|
|
1111,
|
|
1111,
|
|
1111,
|
|
1111,
|
|
1111,
|
|
1111,
|
|
1111,
|
|
1111,
|
|
1111,
|
|
1111,
|
|
1111,
|
|
1111,
|
|
1111,
|
|
1111,
|
|
1111,
|
|
1111,
|
|
1111,
|
|
1111,
|
|
1111,
|
|
1111,
|
|
1111,
|
|
1111,
|
|
1111,
|
|
1111,
|
|
1111,
|
|
1111,
|
|
1111,
|
|
1111,
|
|
1111,
|
|
1111,
|
|
1111,
|
|
1111,
|
|
1111,
|
|
1111,
|
|
1111,
|
|
1111,
|
|
1111,
|
|
1111,
|
|
1111,
|
|
1111,
|
|
1111,
|
|
1111,
|
|
1111,
|
|
1111,
|
|
1111,
|
|
1111,
|
|
1111,
|
|
1111,
|
|
1111,
|
|
1111,
|
|
1111,
|
|
1111,
|
|
1111,
|
|
1111,
|
|
1111,
|
|
1111,
|
|
1111,
|
|
1111,
|
|
1111,
|
|
1111,
|
|
1111,
|
|
1111,
|
|
1111,
|
|
1111,
|
|
1111,
|
|
1111,
|
|
1111,
|
|
1111,
|
|
1111,
|
|
1111,
|
|
1111,
|
|
1111,
|
|
1111,
|
|
1111,
|
|
1111,
|
|
1111,
|
|
1111,
|
|
1111,
|
|
1111,
|
|
1111,
|
|
1111,
|
|
1111,
|
|
1111,
|
|
1111,
|
|
1111,
|
|
1111,
|
|
1111,
|
|
1111,
|
|
1111,
|
|
1111,
|
|
1111,
|
|
1111,
|
|
1111,
|
|
1111,
|
|
1111,
|
|
1111,
|
|
1111,
|
|
1111,
|
|
1111,
|
|
1111,
|
|
1111,
|
|
1111,
|
|
1111,
|
|
1111,
|
|
1111,
|
|
1111,
|
|
1111,
|
|
1111,
|
|
1111,
|
|
1111,
|
|
1111,
|
|
1111,
|
|
1111,
|
|
1111,
|
|
1111,
|
|
1111,
|
|
1111,
|
|
1111,
|
|
1111,
|
|
1111,
|
|
1111,
|
|
1111,
|
|
1111,
|
|
1111,
|
|
1111,
|
|
1111,
|
|
1111,
|
|
1111,
|
|
1111,
|
|
1111,
|
|
1111,
|
|
1111,
|
|
1111,
|
|
1111,
|
|
1111,
|
|
1111,
|
|
1111,
|
|
1111,
|
|
1111,
|
|
1111,
|
|
1111,
|
|
1111,
|
|
1111,
|
|
1111,
|
|
1111,
|
|
1111,
|
|
1111,
|
|
1111,
|
|
1111,
|
|
1111,
|
|
1111,
|
|
1111,
|
|
1111,
|
|
1111,
|
|
1111,
|
|
1111,
|
|
1111,
|
|
1111,
|
|
1111,
|
|
1111,
|
|
1111,
|
|
1111,
|
|
1111,
|
|
1111,
|
|
1111,
|
|
1111,
|
|
1111,
|
|
1111,
|
|
1111,
|
|
1111,
|
|
1111,
|
|
1111,
|
|
1111,
|
|
1111,
|
|
1111,
|
|
1111,
|
|
1111,
|
|
1111,
|
|
1111,
|
|
1111,
|
|
1111,
|
|
1111,
|
|
1111,
|
|
1111,
|
|
1111,
|
|
1111,
|
|
1111,
|
|
1111,
|
|
1111,
|
|
1111,
|
|
1111,
|
|
1111,
|
|
1111,
|
|
1111,
|
|
1111,
|
|
1111,
|
|
1111,
|
|
1111,
|
|
1111,
|
|
1111,
|
|
1111,
|
|
1111,
|
|
1111,
|
|
1111,
|
|
1111,
|
|
1111,
|
|
1111,
|
|
1111,
|
|
1111,
|
|
1111,
|
|
1111,
|
|
1111,
|
|
1111,
|
|
1111,
|
|
1111,
|
|
1111,
|
|
1111,
|
|
1111,
|
|
1111,
|
|
1111,
|
|
1111,
|
|
1111,
|
|
1111,
|
|
1111,
|
|
1111,
|
|
1111,
|
|
1111,
|
|
1111,
|
|
1111,
|
|
1111,
|
|
1111,
|
|
1111,
|
|
1111,
|
|
1111,
|
|
1111,
|
|
1111,
|
|
1111,
|
|
1111,
|
|
1111,
|
|
1111,
|
|
1111,
|
|
1111,
|
|
1111,
|
|
1111,
|
|
1111,
|
|
1111,
|
|
1111,
|
|
1111,
|
|
1111,
|
|
1111,
|
|
1111,
|
|
1111,
|
|
1111,
|
|
1111,
|
|
1111,
|
|
1111,
|
|
1111,
|
|
1111,
|
|
1111,
|
|
1111,
|
|
1111,
|
|
1111,
|
|
1111,
|
|
1111,
|
|
1111,
|
|
1111,
|
|
1111,
|
|
1111,
|
|
1111,
|
|
1111,
|
|
1111,
|
|
1111,
|
|
1111,
|
|
1111,
|
|
1111,
|
|
1111,
|
|
1111,
|
|
1111,
|
|
1111,
|
|
1111,
|
|
1111,
|
|
1111,
|
|
1111,
|
|
1111,
|
|
1111,
|
|
1111,
|
|
1111,
|
|
1111,
|
|
1111,
|
|
1111,
|
|
1111,
|
|
1111,
|
|
1111,
|
|
1111,
|
|
1111,
|
|
1111,
|
|
1111,
|
|
1111,
|
|
1111,
|
|
1111,
|
|
1111,
|
|
1111,
|
|
1111,
|
|
1111,
|
|
1111,
|
|
1111,
|
|
1111,
|
|
1111,
|
|
1111,
|
|
1111,
|
|
1111,
|
|
1111,
|
|
1111,
|
|
1111,
|
|
1111,
|
|
1111,
|
|
1111,
|
|
1111,
|
|
1111,
|
|
1111,
|
|
1111,
|
|
1111,
|
|
1111,
|
|
1111,
|
|
1111,
|
|
1111,
|
|
1111,
|
|
1111,
|
|
1111,
|
|
1111,
|
|
1111,
|
|
1111,
|
|
1111,
|
|
1111,
|
|
1111,
|
|
1111,
|
|
1111,
|
|
1111,
|
|
1111,
|
|
1111,
|
|
1111,
|
|
1111,
|
|
1111,
|
|
1111,
|
|
1111,
|
|
1111,
|
|
1111,
|
|
1111,
|
|
1111,
|
|
1111,
|
|
1111,
|
|
1111,
|
|
1111,
|
|
1111,
|
|
1111,
|
|
1111,
|
|
1111,
|
|
1111,
|
|
1111,
|
|
1111,
|
|
1111,
|
|
1111,
|
|
1111,
|
|
1111,
|
|
1111,
|
|
1111,
|
|
1111,
|
|
1111,
|
|
1111,
|
|
1111,
|
|
1111,
|
|
1111,
|
|
1111,
|
|
1111,
|
|
1111,
|
|
1111,
|
|
1111,
|
|
1111,
|
|
1111,
|
|
1111,
|
|
1111,
|
|
1111,
|
|
1111,
|
|
1111,
|
|
1111,
|
|
1111,
|
|
1111,
|
|
1111,
|
|
1111,
|
|
1111,
|
|
1111,
|
|
1111,
|
|
1111,
|
|
1111,
|
|
1111,
|
|
1111,
|
|
1111,
|
|
1111,
|
|
1111,
|
|
1111,
|
|
1111,
|
|
1111,
|
|
1111,
|
|
1111,
|
|
1111,
|
|
1111,
|
|
1111,
|
|
1111,
|
|
1111,
|
|
1111,
|
|
1111,
|
|
1111,
|
|
1111,
|
|
1111,
|
|
1111,
|
|
1111,
|
|
1111,
|
|
1111,
|
|
1111,
|
|
1111,
|
|
1111,
|
|
1111,
|
|
1111,
|
|
1111,
|
|
1111,
|
|
1111,
|
|
1111,
|
|
1111,
|
|
1111,
|
|
1111,
|
|
1111,
|
|
1111,
|
|
1111,
|
|
1111,
|
|
1111,
|
|
1111,
|
|
1111,
|
|
1111,
|
|
1111,
|
|
1111,
|
|
1111,
|
|
1111,
|
|
1111,
|
|
1111,
|
|
1111,
|
|
1111,
|
|
1111,
|
|
1111,
|
|
1111,
|
|
1111,
|
|
1111,
|
|
1111,
|
|
1111,
|
|
1111,
|
|
1111,
|
|
1111,
|
|
1111,
|
|
1111,
|
|
1111,
|
|
1111,
|
|
1111,
|
|
1111,
|
|
1111,
|
|
1111,
|
|
1111,
|
|
1111,
|
|
1111,
|
|
1111,
|
|
1111,
|
|
1111,
|
|
1111,
|
|
1111,
|
|
1111,
|
|
1111,
|
|
1111,
|
|
1111,
|
|
1111,
|
|
1111,
|
|
1111,
|
|
1111,
|
|
1111,
|
|
1111,
|
|
1111,
|
|
1111,
|
|
1111,
|
|
1111,
|
|
1111,
|
|
1111,
|
|
1111,
|
|
1111,
|
|
1111,
|
|
1111,
|
|
1111,
|
|
1111,
|
|
1111,
|
|
1111,
|
|
1111,
|
|
1111,
|
|
1111,
|
|
1111,
|
|
1111,
|
|
1111,
|
|
1111,
|
|
1111,
|
|
1111,
|
|
1111,
|
|
1111,
|
|
1111,
|
|
1111,
|
|
1111,
|
|
1111,
|
|
1111,
|
|
1111,
|
|
1111,
|
|
1111,
|
|
1111,
|
|
1111,
|
|
1111,
|
|
1111,
|
|
1111,
|
|
1111,
|
|
1111,
|
|
1111,
|
|
1111,
|
|
1111,
|
|
1111,
|
|
1111,
|
|
1111,
|
|
1111,
|
|
1111,
|
|
1111,
|
|
1111,
|
|
1111,
|
|
1111,
|
|
1111,
|
|
1111,
|
|
1111,
|
|
1111,
|
|
1111,
|
|
1111,
|
|
1111,
|
|
1111,
|
|
1111,
|
|
1111,
|
|
1111,
|
|
1111,
|
|
1111,
|
|
1111,
|
|
1111,
|
|
1111,
|
|
1111,
|
|
1111,
|
|
1111,
|
|
1111,
|
|
1111,
|
|
1111,
|
|
1111,
|
|
1111,
|
|
1111,
|
|
1111,
|
|
1111,
|
|
1111,
|
|
1111,
|
|
1111,
|
|
1111,
|
|
1111,
|
|
1111,
|
|
1111,
|
|
1111,
|
|
1111,
|
|
1111,
|
|
1111,
|
|
1111,
|
|
1111,
|
|
1111,
|
|
1111,
|
|
1111,
|
|
1111,
|
|
1111,
|
|
1111,
|
|
1111,
|
|
1111,
|
|
1111,
|
|
1111,
|
|
1111,
|
|
1111,
|
|
1111,
|
|
1111,
|
|
1111,
|
|
1111,
|
|
1111,
|
|
1111,
|
|
1111,
|
|
1111,
|
|
1111,
|
|
1111,
|
|
1111,
|
|
1111,
|
|
1111,
|
|
,
|
|
#END
|