Files
DynGMD-Charts/WolfSwag/WolfSwag.tja
T
2026-02-23 13:43:54 -05:00

111 lines
1.4 KiB
Plaintext

// PeepoDrumKit 2025/11/19
TITLE:WolfSwag
SUBTITLE:Tyler, The Creator from "Wolf 2010"
SUBTITLEEN:Tyler, The Creator from "Wolf 2010"
SUBTITLEES:Tyler, The Creator de "Wolf 2010"
SUBTITLEJA:Tyler The Creator「Wolf 2010」より
BPM:70
WAVE:WolfSwag.ogg
PREIMAGE:Wolf 2010 Cover.png
OFFSET:-0.166699
MAKER:よるん
SEVOL:22
COURSE:Oni
LEVEL:8
#START
3
#SCROLL 1.3
3
#SCROLL 1.6
3
#SCROLL 1.8
3,
#GOGOSTART
#BPMCHANGE 140
#SCROLL 1
1022201012012010,
1221201121012011,
2120102021021010,
2211201021012010,
2102010020102010,
2011221021112020,
1221221212212210,
#GOGOEND
1121221020120210,
#GOGOSTART
1120201020102010,
2211201020112010,
2011201022212010,
2011201021121120,
1221201020102010,
11212210,
#GOGOEND
22111221,
2010201210202000,
#GOGOSTART
1120120011221222,
1122112011201021,
2101022211221010,
2000102020101201,
2120201020120120,
1221201020121220,
1221212012020120,
#GOGOEND
20112010
#SCROLL 2
40300000,
#GOGOSTART
#SCROLL 1
2011221022012010,
2011201020212020,
11212212,
12122121,
12212010,
1021201020001000,
12212212,
11102010
#GOGOEND
#SCROLL 1.5
4000
#SCROLL 3
3000,
#GOGOSTART
#BPMCHANGE 70
#SCROLL 7
3000
#SCROLL 2
20011010211
#GOGOEND
0,
#GOGOSTART
#SCROLL 7
3
#SCROLL 2
10120110110212
#GOGOEND
2,
#GOGOSTART
#SCROLL 7
3
#SCROLL 2
00120100110212
#GOGOEND
2,
#GOGOSTART
#SCROLL 7
3
#SCROLL 2
00020011011212
#GOGOEND
2,
#GOGOSTART
#SCROLL 7
3
#SCROLL 2
0002011
#GOGOEND
10000000,
#END