Files

1312 lines
15 KiB
Plaintext

// PeepoDrumKit 2025/09/03
TITLE:REFLECT
SUBTITLE:--Gawr Gura
BPM:125.5
WAVE:REFLECT.ogg
PREIMAGE:jacket.png
OFFSET:-1.95
DEMOSTART:54.9627
MAKER:Brayan
COURSE:Oni
LEVEL:9
BALLOON:1,1,1,1,8,16
#START
#SCROLL 0.996016
3,
#BPMCHANGE 120
#SCROLL 1.04167
0,
#BPMCHANGE 117.75
#SCROLL 1.06157
10002000020000000100200000000000,
#BPMCHANGE 141
#SCROLL 0.886525
100000000000000000000000000000002000000000000000000000000000000020000000000000000000000000000000000000000000000000000000000000100000000000000000000000000200000000000000000000000000000000000000000000000000000000000000000000000000000000000000000000000000000000000000000000000000000000000000,
#BPMCHANGE 125
#SCROLL 1
3020102100222020,
1020102120221010,
1020102112202010,
3004003004003030,
1120112101201020,
1120112101202020,
1022112112201020,
2012012012012021,
2002102010021022,
1022102010021020,
1002102210001000,
1002102011211020,
1022102010221020,
1022102011221020,
1022102010221020,
0222022202022020,
3001200010010010,
2002001010003000,
4000202010010020,
1001002010200012,
2002002020020022,
2002002020020022,
2020202022222222,
6000000080121012,
#GOGOSTART
0011102100221012,
0011102100111022,
2022022120201120,
2002102100121012,
0011102100221012,
0011102100111022,
2002022120101120,
2003046000080000,
#GOGOEND
00
#GOGOSTART
11101010220011,
2011212100112120,
1022102011220011,
2110222100112112,
0011212100112112,
0011122101211222,
1021020100221026,
0008,
#GOGOEND
3,
0
#SCROLL 4
4,
33,
3,
#SCROLL 1
10020020100010001001001020000000,
1010201011102000,
2012011021020120,
60008440,
#SCROLL 0.75
102122122102,
122102100122,
100122121100,
122100122102,
102002122102,
122122102122,
122102102122,
102020102020100020000022,
100020000022101012101012,
101011200011200000000022,
100022101020101022101020,
#SCROLL 1
780000
#SCROLL 2
780000
#SCROLL 3
780000
#SCROLL 4
780000,
#SCROLL 0.75
000022111120000022122210,
000022112220100022100000,
121212102022100222102020,
2608,
#SCROLL 0.5
021111,
102010100200,
221111,
100010002000100000000100,
#SCROLL 0.6
2002002020020020,
#SCROLL 0.7
2002002020020020,
#SCROLL 0.8
2020202022222222,
#SCROLL 0.9
6000000080121012,
#GOGOSTART
#SCROLL 1
0011102100221012,
0011102100111022,
2022021200101120,
2000112100121012,
0011102100221012,
0011102100111022,
2022021201101120,
3003046000008000,
#GOGOEND
00
#GOGOSTART
11101010220011,
2011212100112120,
1022102011220011,
2110222100112112,
0011212100112112,
0011122101211222,
1021020100221026,
0008,
#GOGOEND
300000000000000000000000000000000000000000000000000000000000000000000000000000000000000000000000200000000000000000000000000000000000000000000000000000020000000000002000000000000000000000200000,
000000000000000020000000000000000000000000000000000000000400000000000000000000000000000000000000000000000000000000000000000000000000000000000000000000000000000000000000000000000000000000000000,
300000000000000000000000000000000000000000000000000000000000000000000020000000000000000000000000200000000000000002000000000000000020000000000000000000000200000000000000000000002000000000000000,
#MEASURE 5/8
000000000200000000000000000002000000000000000000000000000000000000000000000000000000000000000000000000000000000000000000,
#MEASURE 1/64
#SCROLL 1.2
7,
#SCROLL 1.4
0,
#SCROLL 1.6
0,
#SCROLL 1.8
0,
#SCROLL 2
0,
#SCROLL 2.2
0,
#SCROLL 2.4
0,
#SCROLL 2.6
0,
#SCROLL 2.8
0,
#SCROLL 3
0,
#SCROLL 3.2
0,
#SCROLL 3.4
0,
#SCROLL 3.6
0,
#SCROLL 3.8
0,
#SCROLL 4
0,
#SCROLL 4.2
0,
#SCROLL 4.4
0,
#SCROLL 4.6
0,
#SCROLL 4.8
0,
#SCROLL 5
0,
#SCROLL 5.2
0,
#SCROLL 5.4
080,
#SCROLL 5.6
0,
#SCROLL 5.8
0,
#MEASURE 4/4
#SCROLL 0.6
100122100200,
#SCROLL 0.7
1020112220600008,
#SCROLL 0.8
0002102210001010,
#SCROLL 0.9
2010101220121012,
#GOGOSTART
#SCROLL 1
0011102100221012,
0011102100111022,
2022022120201120,
2002102100121012,
0011102100221012,
0011102100111022,
2012020120101120,
3003046000008000,
#GOGOEND
00
#GOGOSTART
11101010220011,
2011212100112120,
1022102011220011,
2110222100112112,
#GOGOEND
0011
#GOGOSTART
212100112112,
0011122101211222,
1021020100221026,
0008,
#SCROLL 1.25
1122112101212220,
1122112111212110,
1122112112202210,
2112112112112121,
#SCROLL 1.5
1221122111212220,
1221122122121110,
1221122112212210,
2112112112112121,
#MEASURE 1/64
#GOGOEND
#SCROLL 5
9,
#SCROLL 4.9375
0,
#SCROLL 4.875
0,
#SCROLL 4.8125
0,
#SCROLL 4.75
0,
#SCROLL 4.6875
0,
#SCROLL 4.625
0,
#SCROLL 4.5625
0,
#SCROLL 4.5
0,
#SCROLL 4.4375
0,
#SCROLL 4.375
0,
#SCROLL 4.3125
0,
#SCROLL 4.25
0,
#SCROLL 4.1875
0,
#SCROLL 4.125
0,
#SCROLL 4.0625
0,
#SCROLL 4
0,
#SCROLL 3.9375
0,
#SCROLL 3.875
0,
#SCROLL 3.8125
0,
#SCROLL 3.75
0,
#SCROLL 3.6875
0,
#SCROLL 3.625
0,
#SCROLL 3.5625
0,
#SCROLL 3.5
0,
#SCROLL 3.4375
0,
#SCROLL 3.375
0,
#SCROLL 3.3125
0,
#SCROLL 3.25
0,
#SCROLL 3.1875
0,
#SCROLL 3.125
0,
#SCROLL 3.0625
0,
#SCROLL 3
0,
#SCROLL 2.9375
0,
#SCROLL 2.875
0,
#SCROLL 2.8125
0,
#SCROLL 2.75
0,
#SCROLL 2.6875
0,
#SCROLL 2.625
0,
#SCROLL 2.5625
0,
#SCROLL 2.5
0,
#SCROLL 2.4375
0,
#SCROLL 2.375
0,
#SCROLL 2.3125
0,
#SCROLL 2.25
0,
#SCROLL 2.1875
0,
#SCROLL 2.125
0,
#SCROLL 2.0625
0,
#MEASURE 4/4
#SCROLL 2
8,
#BARLINEOFF
0,
#END
COURSE:Hard
LEVEL:7
BALLOON:1,1,1,1,6,12
#START
3,
#BPMCHANGE 120
0,
#BPMCHANGE 117.75
0,
#BPMCHANGE 141
0,
#BPMCHANGE 125
1010101100222020,
1010101100222020,
1010101100202020,
1001001001001000,
3010101100222020,
1010101100222020,
1010101100202020,
1011011011011000,
1000102010001011,
1001001110010011,
1001001000102000,
1010201110102000,
0010201110002011,
1001001110010020,
10060000,
8,
2002002020200000,
2002002020202000,
2002002020200000,
2002002020200020,
2002002020020020,
2002002020020020,
2020202022202220,
5000000080101011,
#GOGOSTART
0020202200101011,
0020202200101010,
1011010100101010,
1000101100101011,
0020202200101011,
0020202200101010,
1011010100101010,
3003006000008000,
#GOGOEND
00
#GOGOSTART
10101010220011,
1010201100202020,
0010101010220011,
1010201100101011,
0020202200101011,
0020202200101010,
1011010200202025,
0008,
#GOGOEND
3,
04,
44,
4,
1001001010101000,
1010101022202000,
1011011010110220,
0010111000202000,
#SCROLL 0.8
001101101101,
101100100101,
100202202200,
101100202201,
101001101100,
101101100100,
100100101101,
100200202001,
101001111101,
101101200001,
101111101101,
#SCROLL 1
7800
#SCROLL 1.5
7800
#SCROLL 2
7800
#SCROLL 2.5
7800,
#SCROLL 0.8
001101002202,
001101101100,
111102222222,
2608,
#SCROLL 0.6
022222,
222200,
022222,
200020002000200000000200,
#SCROLL 0.68
2002002020020020,
#SCROLL 0.76
2002002020020020,
#SCROLL 0.84
2020202022202220,
#SCROLL 0.92
5000000080101011,
#GOGOSTART
#SCROLL 1
0020202200101011,
0020202200101010,
1011010100101010,
1000101100101011,
0020202200101011,
0020202200101010,
1011010100101010,
3003006000008000,
#GOGOEND
00
#GOGOSTART
10101010220011,
1010201100202020,
0010101010220011,
1010201100101011,
0020202200101011,
0020202200101010,
1011010200202025,
0008,
#GOGOEND
3,
,
2,
#MEASURE 5/8
0,
#MEASURE 1/64
#SCROLL 1.2
7,
#SCROLL 1.4
0,
#SCROLL 1.6
0,
#SCROLL 1.8
0,
#SCROLL 2
0,
#SCROLL 2.2
0,
#SCROLL 2.4
0,
#SCROLL 2.6
0,
#SCROLL 2.8
0,
#SCROLL 3
0,
#SCROLL 3.2
0,
#SCROLL 3.4
0,
#SCROLL 3.6
0,
#SCROLL 3.8
0,
#SCROLL 4
0,
#SCROLL 4.2
0,
#SCROLL 4.4
0,
#SCROLL 4.6
0,
#SCROLL 4.8
0,
#SCROLL 5
0,
#SCROLL 5.2
0,
#SCROLL 5.4
080,
#SCROLL 5.6
0,
#SCROLL 5.8
0,
#MEASURE 4/4
#SCROLL 1
100101100100,
2020222020500000,
8000101110002022,
2002002250801011,
#GOGOSTART
0020202200101011,
0020202200101010,
1011010100101010,
1000101100101011,
0020202200101011,
0020202200101010,
1011010100101010,
3003006000008000,
#GOGOEND
00
#GOGOSTART
10101010220011,
1010201100202020,
0010101010220011,
1010201100101011,
#GOGOEND
0020
#GOGOSTART
202200101011,
0020202200101010,
1011010200202026,
0008,
3010101100222020,
1010101100222020,
1010101100202020,
4004004004004040,
1010101100222020,
1010101100222020,
1010101100202020,
3003003003003000,
#MEASURE 1/64
#GOGOEND
#SCROLL 5
9,
#SCROLL 4.9375
0,
#SCROLL 4.875
0,
#SCROLL 4.8125
0,
#SCROLL 4.75
0,
#SCROLL 4.6875
0,
#SCROLL 4.625
0,
#SCROLL 4.5625
0,
#SCROLL 4.5
0,
#SCROLL 4.4375
0,
#SCROLL 4.375
0,
#SCROLL 4.3125
0,
#SCROLL 4.25
0,
#SCROLL 4.1875
0,
#SCROLL 4.125
0,
#SCROLL 4.0625
0,
#SCROLL 4
0,
#SCROLL 3.9375
0,
#SCROLL 3.875
0,
#SCROLL 3.8125
0,
#SCROLL 3.75
0,
#SCROLL 3.6875
0,
#SCROLL 3.625
0,
#SCROLL 3.5625
0,
#SCROLL 3.5
0,
#SCROLL 3.4375
0,
#SCROLL 3.375
0,
#SCROLL 3.3125
0,
#SCROLL 3.25
0,
#SCROLL 3.1875
0,
#SCROLL 3.125
0,
#SCROLL 3.0625
0,
#SCROLL 3
0,
#SCROLL 2.9375
0,
#SCROLL 2.875
0,
#SCROLL 2.8125
0,
#SCROLL 2.75
0,
#SCROLL 2.6875
0,
#SCROLL 2.625
0,
#SCROLL 2.5625
0,
#SCROLL 2.5
0,
#SCROLL 2.4375
0,
#SCROLL 2.375
0,
#SCROLL 2.3125
0,
#SCROLL 2.25
0,
#SCROLL 2.1875
0,
#SCROLL 2.125
0,
#SCROLL 2.0625
0,
#MEASURE 4/4
#SCROLL 2
8,
#BARLINEOFF
0,
#END
COURSE:Normal
LEVEL:6
BALLOON:1,1,1,1,4,8
#START
3,
#BPMCHANGE 120
0,
#BPMCHANGE 117.75
0,
#BPMCHANGE 141
0,
#BPMCHANGE 125
1000100100002000,
1000100100002000,
1000100100002000,
10010010,
1000100100202000,
1000100100202000,
1000100100202020,
1001001001001000,
00101001,
1001000010010000,
1001005000000000,
8,
10101011,
1001000010010000,
10060000,
8,
2002000020200000,
2002000020000000,
2002000020200000,
2002000020000000,
2002000020020000,
2002000020020000,
22222222,
5000000080001001,
#GOGOSTART
0000200200001001,
0000200200001000,
1001000100001000,
1000100100001001,
0000200200001001,
0000200200001000,
1001000100001000,
3003006000008000,
#GOGOEND
00
#GOGOSTART
10100010010000,
1000100100002000,
0010100010010000,
1000100100001001,
0000200200001001,
0000200200001000,
1001000100003006,
0008,
#GOGOEND
3,
04,
44,
3,
10101110,
20202220,
1001001020020020,
00000440,
#SCROLL 0.85
1111,
1112,
2222,
1122,
101000100100,
1111,
2222,
2068,
101001100100,
101100100001,
101100102200,
#SCROLL 1
780
#SCROLL 1.25
780
#SCROLL 1.5
780
#SCROLL 1.75
780,
#SCROLL 0.85
000101000101,
000202200200,
101102202202,
2608,
#SCROLL 0.7
020202,
020200,
020202,
020200,
#SCROLL 0.76
2002000020020000,
#SCROLL 0.82
2002000020020000,
#SCROLL 0.88
22222222,
#SCROLL 0.94
5000000080001001,
#GOGOSTART
#SCROLL 1
0000200200001001,
0000200200001000,
1001000100001000,
1000100100001001,
0000200200001001,
0000200200001000,
1001000100001000,
3003006000008000,
#GOGOEND
00
#GOGOSTART
10100010010000,
1000100100002000,
0010100010010000,
1000100100001001,
0000200200001001,
0000200200001000,
1001000100003006,
0008,
#GOGOEND
3,
,
1,
#MEASURE 5/8
0,
#MEASURE 1/64
#SCROLL 1.2
7,
#SCROLL 1.4
0,
#SCROLL 1.6
0,
#SCROLL 1.8
0,
#SCROLL 2
0,
#SCROLL 2.2
0,
#SCROLL 2.4
0,
#SCROLL 2.6
0,
#SCROLL 2.8
0,
#SCROLL 3
0,
#SCROLL 3.2
0,
#SCROLL 3.4
0,
#SCROLL 3.6
0,
#SCROLL 3.8
0,
#SCROLL 4
0,
#SCROLL 4.2
0,
#SCROLL 4.4
0,
#SCROLL 4.6
0,
#SCROLL 4.8
0,
#SCROLL 5
0,
#SCROLL 5.2
0,
#SCROLL 5.4
080,
#SCROLL 5.6
0,
#SCROLL 5.8
0,
#MEASURE 4/4
#SCROLL 1
3111,
20222500,
80111010,
3003003060008001,
#GOGOSTART
0000200200001001,
0000200200001000,
1001000100001000,
1000100100001001,
0000200200001001,
0000200200001000,
1001000100001000,
3003006000008000,
#GOGOEND
00
#GOGOSTART
10100010010000,
1000100100002000,
0010100010010000,
1000100100001001,
#GOGOEND
0000
#GOGOSTART
200200001001,
0000200200001000,
1001000100003006,
0008,
1000100100202000,
1000100100202020,
1000100100202020,
1001001001001000,
1010100100202020,
1010100100202020,
1010100100202020,
1001001001001000,
#MEASURE 1/64
#GOGOEND
#SCROLL 5
9,
#SCROLL 4.9375
0,
#SCROLL 4.875
0,
#SCROLL 4.8125
0,
#SCROLL 4.75
0,
#SCROLL 4.6875
0,
#SCROLL 4.625
0,
#SCROLL 4.5625
0,
#SCROLL 4.5
0,
#SCROLL 4.4375
0,
#SCROLL 4.375
0,
#SCROLL 4.3125
0,
#SCROLL 4.25
0,
#SCROLL 4.1875
0,
#SCROLL 4.125
0,
#SCROLL 4.0625
0,
#SCROLL 4
0,
#SCROLL 3.9375
0,
#SCROLL 3.875
0,
#SCROLL 3.8125
0,
#SCROLL 3.75
0,
#SCROLL 3.6875
0,
#SCROLL 3.625
0,
#SCROLL 3.5625
0,
#SCROLL 3.5
0,
#SCROLL 3.4375
0,
#SCROLL 3.375
0,
#SCROLL 3.3125
0,
#SCROLL 3.25
0,
#SCROLL 3.1875
0,
#SCROLL 3.125
0,
#SCROLL 3.0625
0,
#SCROLL 3
0,
#SCROLL 2.9375
0,
#SCROLL 2.875
0,
#SCROLL 2.8125
0,
#SCROLL 2.75
0,
#SCROLL 2.6875
0,
#SCROLL 2.625
0,
#SCROLL 2.5625
0,
#SCROLL 2.5
0,
#SCROLL 2.4375
0,
#SCROLL 2.375
0,
#SCROLL 2.3125
0,
#SCROLL 2.25
0,
#SCROLL 2.1875
0,
#SCROLL 2.125
0,
#SCROLL 2.0625
0,
#MEASURE 4/4
#SCROLL 2
8,
#BARLINEOFF
0,
#END
COURSE:Easy
LEVEL:4
BALLOON:5,3,1,1,1,1,5,2,6,4,5,8
#START
3,
#BPMCHANGE 120
0,
#BPMCHANGE 117.75
0,
#BPMCHANGE 141
0,
#BPMCHANGE 125
1000000100000000,
2000000200000000,
1000000100000000,
10010010,
1000000100002000,
1000000100002000,
1000000100002000,
10010010,
0110,
1110,
10050000,
8,
0110,
1111,
10050000,
8,
3110,
11,
0110,
11,
22,
22,
5008,
6000000080000001,
#GOGOSTART
0000000200000001,
0000000200000000,
1110,
5000000800000001,
0000000200000001,
0000000200000000,
1120,
6008,
#GOGOEND
0
#GOGOSTART
0101000,
1000000100000000,
0220,
2000000200000001,
0000000200000001,
0000000200000000,
1110,
900008,
#GOGOEND
3,
04,
44,
4,
1110,
2220,
12,
0003,
#SCROLL 0.9
0110,
11,
11,
12,
11,
11,
12,
1078,
1011,
11,
1022,
#SCROLL 1
78
#SCROLL 1.125
78
#SCROLL 1.25
78
#SCROLL 1.375
78,
#SCROLL 0.9
0101,
0222,
11,
0608,
#SCROLL 0.8
020200,
22,
020200,
22,
#SCROLL 0.84
22,
#SCROLL 0.88
22,
#SCROLL 0.92
5008,
#SCROLL 0.96
6000000080000001,
#GOGOSTART
#SCROLL 1
0000000200000001,
0000000200000000,
1110,
5000000800000001,
0000000200000001,
0000000200000000,
1120,
6008,
#GOGOEND
0
#GOGOSTART
0101000,
1000000100000000,
0220,
2000000200000001,
0000000200000001,
0000000200000000,
1110,
900008,
#GOGOEND
3,
,
3,
#MEASURE 5/8
0,
#MEASURE 1/64
#SCROLL 1.2
7,
#SCROLL 1.4
0,
#SCROLL 1.6
0,
#SCROLL 1.8
0,
#SCROLL 2
0,
#SCROLL 2.2
0,
#SCROLL 2.4
0,
#SCROLL 2.6
0,
#SCROLL 2.8
0,
#SCROLL 3
0,
#SCROLL 3.2
0,
#SCROLL 3.4
0,
#SCROLL 3.6
0,
#SCROLL 3.8
0,
#SCROLL 4
0,
#SCROLL 4.2
0,
#SCROLL 4.4
0,
#SCROLL 4.6
0,
#SCROLL 4.8
0,
#SCROLL 5
0,
#SCROLL 5.2
0,
#SCROLL 5.4
080,
#SCROLL 5.6
0,
#SCROLL 5.8
0,
#MEASURE 4/4
#SCROLL 1
1110,
7,
8110,
9000000000008001,
#GOGOSTART
0000000200000001,
0000000200000000,
1110,
5000000800000001,
0000000200000001,
0000000200000000,
1120,
6008,
#GOGOEND
0
#GOGOSTART
0101000,
1000000100000000,
0220,
2000000200000001,
#GOGOEND
0000
#GOGOSTART
000200000001,
0000000200000000,
1110,
900008,
1000000100001000,
2000000200002000,
1000000100001000,
10010010,
1000100100002000,
1000100100002000,
1000100100002000,
10010010,
#MEASURE 1/64
#GOGOEND
#SCROLL 5
9,
#SCROLL 4.9375
0,
#SCROLL 4.875
0,
#SCROLL 4.8125
0,
#SCROLL 4.75
0,
#SCROLL 4.6875
0,
#SCROLL 4.625
0,
#SCROLL 4.5625
0,
#SCROLL 4.5
0,
#SCROLL 4.4375
0,
#SCROLL 4.375
0,
#SCROLL 4.3125
0,
#SCROLL 4.25
0,
#SCROLL 4.1875
0,
#SCROLL 4.125
0,
#SCROLL 4.0625
0,
#SCROLL 4
0,
#SCROLL 3.9375
0,
#SCROLL 3.875
0,
#SCROLL 3.8125
0,
#SCROLL 3.75
0,
#SCROLL 3.6875
0,
#SCROLL 3.625
0,
#SCROLL 3.5625
0,
#SCROLL 3.5
0,
#SCROLL 3.4375
0,
#SCROLL 3.375
0,
#SCROLL 3.3125
0,
#SCROLL 3.25
0,
#SCROLL 3.1875
0,
#SCROLL 3.125
0,
#SCROLL 3.0625
0,
#SCROLL 3
0,
#SCROLL 2.9375
0,
#SCROLL 2.875
0,
#SCROLL 2.8125
0,
#SCROLL 2.75
0,
#SCROLL 2.6875
0,
#SCROLL 2.625
0,
#SCROLL 2.5625
0,
#SCROLL 2.5
0,
#SCROLL 2.4375
0,
#SCROLL 2.375
0,
#SCROLL 2.3125
0,
#SCROLL 2.25
0,
#SCROLL 2.1875
0,
#SCROLL 2.125
0,
#SCROLL 2.0625
0,
#MEASURE 4/4
#SCROLL 2
8,
#BARLINEOFF
0,
#END