Files
2026-06-03 16:00:11 -04:00

1399 lines
13 KiB
Plaintext

// PeepoDrumKit 2026/05/11
TITLE:Guruguru@Mawaru@MawaLuna
TITLEJA:ぐるぐる@まわる@まわルーナ
SUBTITLE:--Himemori Luna/Hololive
SUBTITLEJA:姫森ルーナ/ホロライブ
BPM:267
WAVE:Guruguru@Mawaru@MawaLuna.ogg
OFFSET:-1.8
MAKER:Brayan
COURSE:Oni
LEVEL:11
#START
20201102,
02010222,
10102201,
01010222,
10102201,
01010222,
10102203,
03030222,
1011201010112010,
1011201011102220,
1022102212121020,
1011221120404040,
1011201010112010,
1011201011102220,
1022102212102210,
03040444,
#BPMCHANGE 133.5
1010220320102210,
1122110202012211,
1010221020102211,
2020111202121122,
20202020222020400010201020201020,
1010221202212211,
2120221120102212,
1210112203040222,
#BPMCHANGE 66.75
3000200020002020100020002000202010002020200020201000200020222020,
202220221022202210221022
#SCROLL 0.75
10202020,
#GOGOSTART
#BPMCHANGE 267
#SCROLL 1
2011201120112011,
2120004000300030,
2011201121200040,
0
#SCROLL 2
4034040,
#SCROLL 1
2011201120112011,
2120004000300030,
#MEASURE 7/8
20112011201122,
#MEASURE 1/4
1,
#SUDDEN 0.24 0
3,
#MEASURE 5/8
30
#SCROLL 2
#SUDDEN 0 0
444,
#MEASURE 4/4
#GOGOEND
#SCROLL 1
3000
#GOGOSTART
201120112011,
2120004000300030,
2011201121200040,
0
#SCROLL 2
4034040,
#SCROLL 1
2011201120112011,
2120004000300030,
2011201120112040,
044330
#SCROLL 2
44,
#SCROLL 1.25
#SUDDEN 0.21 0.001
20
#SUDDEN 0.315 0.11
1
#SUDDEN 0.3675 0.165
1
#SUDDEN 0.42 0.22
20
#SUDDEN 0.525 0.33
1
#SUDDEN 0.5775 0.385
1
#SUDDEN 0.63 0.44
20
#SUDDEN 0.735 0.55
1
#SUDDEN 0.7875 0.605
1
#SUDDEN 0.84 0.66
20
#SUDDEN 0 0
11,
2120004000300030,
2011201121200040,
0
#SCROLL 2.5
4034040,
#SCROLL 1.25
2011201120112011,
2120004000300030,
#MEASURE 7/8
20112011201122,
#MEASURE 1/4
1,
#SUDDEN 0.21 0
3,
#MEASURE 5/8
30
#SCROLL 2.5
#SUDDEN 0 0
444,
#MEASURE 4/4
#SCROLL 1.25
2011201120112011,
2120004000300030,
2011201121200040,
0
#SCROLL 2.5
4034040,
#SCROLL 1.25
2011201120112011,
2120004000300030,
2011201120112040,
044330
#SCROLL 2
44,
#GOGOEND
#BPMCHANGE 66.75
#SCROLL 1.75
#SUDDEN 0.21 0
3000
#SUDDEN 0.43 0
2000
#SUDDEN 0.65 0
2000
#SUDDEN 0.87 0
20
#SUDDEN 0.98 0
20
#SUDDEN 1.09 0
1000
#SUDDEN 1.33 0
2000
#SUDDEN 1.55 0
2000
#SUDDEN 1.77 0
20
#SUDDEN 1.88 0
20
#SUDDEN 1.9 0
1000
#SUDDEN 0 0
2020200020201000200022222020,
1000200020002020100020002000202010002020200020201000200022222020,
10202222102020221022202210212022,
100000200200200000200200100000200200200000200200100020002000100020002000200000200000100000100000,
#MEASURE 3/4
#BPMCHANGE 133.5
#SCROLL 1.25
301,
201,
122,
200012,
201,
201,
222,
201012,
401,
401,
322,
302,
302,
301,
302022,
#BPMCHANGE 133
404460,
000000000000008000002,
#BPMCHANGE 267
#SCROLL 0.622659
002000020000002000000,
#MEASURE 4/4
#SCROLL 0.75
5081,
2121,
10201105,
08,
5081,
2121,
10201102,
0444,
5081,
#MEASURE 2/4
2
#SCROLL 1.5
4,
#MEASURE 4/4
#GOGOSTART
#SCROLL 1
#SUDDEN 0.21 0.001
20
#SUDDEN 0.315 0.11
1
#SUDDEN 0.3675 0.165
1
#SUDDEN 0.42 0.22
20
#SUDDEN 0.525 0.33
1
#SUDDEN 0.5775 0.385
1
#SUDDEN 0.63 0.44
20
#SUDDEN 0.735 0.55
1
#SUDDEN 0.7875 0.605
1
#SUDDEN 0.84 0.66
20
#SUDDEN 0.945 0.77
1
#SUDDEN 0.9975 0.8275
1,
#SUDDEN 0 0
2120004000300030,
2011201121200040,
0
#SCROLL 2
4034040,
#SCROLL 1
2011201120112011,
2120004000300030,
#MEASURE 7/8
20112011201122,
#MEASURE 1/4
1,
#SUDDEN 0.24 0
3,
#MEASURE 5/8
30
#SCROLL 2
#SUDDEN 0 0
444,
#MEASURE 4/4
#SCROLL 1
3000201120112011,
2120004000300030,
2011201121200040,
0
#SCROLL 2
4034040,
#SCROLL 1
2011201120112011,
2120004000300030,
2011201120112040,
04433044,
#SCROLL 1.25
#SUDDEN 0.21 0.001
20
#SUDDEN 0.315 0.11
1
#SUDDEN 0.3675 0.165
1
#SUDDEN 0.42 0.22
20
#SUDDEN 0.525 0.33
1
#SUDDEN 0.5775 0.385
1
#SUDDEN 0.63 0.44
20
#SUDDEN 0.735 0.55
1
#SUDDEN 0.7875 0.605
1
#SUDDEN 0.84 0.66
20
#SUDDEN 0 0
11,
2120004000300030,
2011201121200040,
0
#SCROLL 2.5
4034040,
#SCROLL 1.25
2011201120112011,
2120004000300030,
#MEASURE 7/8
20112011201122,
#MEASURE 1/4
1,
#SUDDEN 0.24 0
3,
#MEASURE 5/8
30
#SCROLL 2.5
#SUDDEN 0 0
444,
#MEASURE 4/4
#SCROLL 1.25
2011201120112011,
2120004000300030,
2011201121200040,
0
#SCROLL 2.5
4034040,
#SCROLL 1.25
2011201120112011,
2120004000300030,
2011201120112040,
044330
#SCROLL 2
44,
#GOGOEND
#SCROLL 0.75
#SUDDEN 0.21 0
4
#SUDDEN 0.315 0
1
#SUDDEN 0.42 0
2
#SUDDEN 0.525 0
1
#SUDDEN 0.63 0
2
#SUDDEN 0.735 0
1
#SUDDEN 0.84 0
2
#SUDDEN 0.945 0
1,
#SUDDEN 1.05 0
1
#SUDDEN 1.11 0
2
#SUDDEN 0 0
040303,
#GOGOSTART
#SCROLL 1.5
2011201121200040,
0
#SCROLL 3
4034040,
#SCROLL 1.5
2011201120112011,
2120004000300030,
#MEASURE 7/8
20112011201122,
#MEASURE 1/4
1,
#SUDDEN 0.24 0
3,
#MEASURE 5/8
30
#SCROLL 3
#SUDDEN 0 0
444,
#MEASURE 4/4
#SCROLL 1.75
2011201120112011,
2120004000300030,
2011201121200040,
0
#SCROLL 3.5
4034040,
#SCROLL 1.75
2011201120112011,
2120004000300030,
2011201120112040,
044330
#GOGOEND
#SCROLL 4
30,
#GOGOSTART
#SCROLL 1
1011201120201120,
1022101110221020,
1011201120201120,
1022101110404040,
1011201120201120,
1022101110221020,
1011201120201120,
04040444,
2011201120112011,
2120003000004000,
3021201120201120,
1022112010404040,
2011201120112011,
2120004000003000,
1022102210102030,
03030344,
#GOGOEND
#SCROLL 0.75
2222222
#GOGOSTART
#SCROLL 1
3,
344330
#SCROLL 4
60,
#BARLINEOFF
0008,
,
#GOGOEND
0,
,
,
,
,
,
,
#END
COURSE:Hard
LEVEL:9
#START
20202202,
02020222,
20202202,
02020222,
20202202,
02020222,
20202204,
04040222,
10201122,
11221120,
11221105,
00008222,
10201122,
11221120,
11221103,
03030222,
#BPMCHANGE 133.5
50812121,
1020110500008000,
50812121,
1020220100303040,
50812121,
1020110500008000,
50812121,
1020220303030000,
#BPMCHANGE 66.75
6082222222222222,
608242224242
#SCROLL 0.75
4242,
#GOGOSTART
#BPMCHANGE 267
#SCROLL 1
21212121,
12040303,
21211202,
0
#SCROLL 1.5
4044040,
#SCROLL 1
21212121,
12040303,
#MEASURE 7/8
2121211,
#MEASURE 1/4
3,
#SUDDEN 0.24 0
3,
#MEASURE 5/8
30
#SCROLL 1.5
#SUDDEN 0 0
444,
#MEASURE 4/4
#SCROLL 1
21212121,
12040303,
21211202,
0
#SCROLL 1.5
4044040,
#SCROLL 1
21212121,
12040303,
21212111,
044330
#SCROLL 1.5
40,
#SCROLL 1.25
#SUDDEN 0.21 0.001
2
#SUDDEN 0.315 0.11
1
#SUDDEN 0.42 0.22
2
#SUDDEN 0.525 0.33
1
#SUDDEN 0.63 0.44
2
#SUDDEN 0.735 0.55
1
#SUDDEN 0.84 0.66
2
#SUDDEN 0 0
1,
12040303,
21211202,
0
#SCROLL 1.875
4044040,
#SCROLL 1.25
21212121,
12040303,
#MEASURE 7/8
2121211,
#MEASURE 1/4
3,
#SUDDEN 0.21 0
3,
#MEASURE 5/8
30
#SCROLL 1.875
#SUDDEN 0 0
444,
#MEASURE 4/4
#SCROLL 1.25
21212121,
12040303,
21211202,
0
#SCROLL 1.875
4044040,
#SCROLL 1.25
21212121,
12040303,
21212111,
044330
#SCROLL 2
40,
#GOGOEND
#BPMCHANGE 66.75
#SCROLL 1.75
#SUDDEN 0.21 0
10
#SUDDEN 0.65 0
20
#SUDDEN 1.1 0
20
#SUDDEN 1.55 0
20
#SUDDEN 2.2 0
2020
#SUDDEN 0 0
2222,
2020202020202222,
2020202020202220,
400200200200400200200200400020200020200200200200,
#MEASURE 3/4
#BPMCHANGE 133.5
#SCROLL 1.25
402,
202,
222,
200022,
202,
202,
222,
202022,
302,
402,
322,
402,
302,
402,
302022,
#BPMCHANGE 133
402260,
,
#BPMCHANGE 267
#SCROLL 0.622659
8,
#MEASURE 4/4
#SCROLL 0.75
5082,
2222,
20202205,
08,
5082,
2222,
20202202,
0222,
5082,
#MEASURE 2/4
2
#SCROLL 1.5
4,
#MEASURE 4/4
#GOGOSTART
#SCROLL 1
2
#SUDDEN 0.33 0
1
#SUDDEN 0.44 0
2
#SUDDEN 0.55 0
1
#SUDDEN 0.66 0
2
#SUDDEN 0.77 0
1
#SUDDEN 0.88 0
21,
#SUDDEN 0 0
12040303,
21211202,
0
#SCROLL 1.5
4044040,
#SCROLL 1
21212121,
12040303,
#MEASURE 7/8
2121211,
#MEASURE 1/4
3,
#SUDDEN 0.24 0
3,
#MEASURE 5/8
30
#SCROLL 1.5
#SUDDEN 0 0
444,
#MEASURE 4/4
#SCROLL 1
21212121,
12040303,
21211202,
0
#SCROLL 1.5
4044040,
#SCROLL 1
21212121,
12040303,
21212111,
04433040,
#SCROLL 1.25
#SUDDEN 0.21 0.001
2
#SUDDEN 0.315 0.11
1
#SUDDEN 0.42 0.22
2
#SUDDEN 0.525 0.33
1
#SUDDEN 0.63 0.44
2
#SUDDEN 0.735 0.55
1
#SUDDEN 0.84 0.66
2
#SUDDEN 0 0
1,
12040303,
21211202,
0
#SCROLL 1.875
4044040,
#SCROLL 1.25
21212121,
12040303,
#MEASURE 7/8
2121211,
#MEASURE 1/4
3,
#SUDDEN 0.24 0
3,
#MEASURE 5/8
30
#SCROLL 1.875
444,
#MEASURE 4/4
#SCROLL 1.25
#SUDDEN 0 0
21212121,
12040303,
21211202,
0
#SCROLL 1.875
4044040,
#SCROLL 1.25
21212121,
12040303,
21212111,
044330
#SCROLL 2
40,
#GOGOEND
#SCROLL 0.75
#SUDDEN 0.21 0
2
#SUDDEN 0.315 0
2
#SUDDEN 0.42 0
2
#SUDDEN 0.525 0
2
#SUDDEN 0.63 0
2
#SUDDEN 0.735 0
2
#SUDDEN 0.84 0
2
#SUDDEN 0.945 0
2,
#SUDDEN 1.05 0
2
#SUDDEN 1.11 0
2
#SUDDEN 0 0
040404,
#GOGOSTART
#SCROLL 1.5
21211202,
0
#SCROLL 2.25
4044040,
#SCROLL 1.5
21212121,
12040303,
#MEASURE 7/8
2121211,
#MEASURE 1/4
3,
#SUDDEN 0.24 0
3,
#MEASURE 5/8
30
#SCROLL 2.25
#SUDDEN 0 0
444,
#MEASURE 4/4
#SCROLL 1.75
21212121,
12040303,
21211202,
0
#SCROLL 2.625
4044040,
#SCROLL 1.75
21212121,
12020101,
21212111,
044330
#GOGOEND
#SCROLL 3
30,
#GOGOSTART
#SCROLL 1
20201102,
02010222,
10102201,
01010222,
10102201,
01010222,
10102203,
03030222,
21212121,
11010020,
6,
0800,
21212121,
12020010,
6,
8,
#GOGOEND
#SCROLL 0.75
2222220
#GOGOSTART
#SCROLL 1
3,
044330
#SCROLL 4
60,
#BARLINEOFF
0008,
,
#GOGOEND
0,
,
,
,
,
,
,
#END
COURSE:Normal
LEVEL:8
#START
,
,
,
,
10101001,
01010020,
10101001,
01010020,
1001,
1212,
10102005,
08,
1002,
1122,
10201004,
04040000,
#BPMCHANGE 133.5
30002220,
2020200200000000,
20002220,
2020200200202000,
30022220,
2020200200000000,
20022220,
2020200404040000,
#BPMCHANGE 66.75
30221222,
30303332,
#GOGOSTART
#BPMCHANGE 267
1111,
11010100,
10101101,
02022020,
1111,
11010100,
#MEASURE 7/8
1010110,
#MEASURE 1/4
3,
#SUDDEN 0.24 0
3,
#MEASURE 5/8
30220,
#MEASURE 4/4
#SUDDEN 0 0
1111,
11010100,
10101101,
02022020,
1111,
11010100,
10101103,
0332,
#SCROLL 1.25
#SUDDEN 0.21 0.001
1
#SUDDEN 0.42 0.22
1
#SUDDEN 0.63 0.44
1
#SUDDEN 0.84 0.66
1,
#SUDDEN 0 0
11010100,
10101101,
02022020,
1111,
11010100,
#MEASURE 7/8
1010110,
#MEASURE 1/4
3,
#SUDDEN 0.21 0
3,
#MEASURE 5/8
30220,
#MEASURE 4/4
#SUDDEN 0 0
1111,
11010100,
10101101,
02022020,
1111,
11010100,
10101103,
0332,
#GOGOEND
#BPMCHANGE 66.75
#SCROLL 1.75
#SUDDEN 0.21 0
3
#SUDDEN 0.65 0
2
#SUDDEN 1.1 0
2
#SUDDEN 1.55 0
2
#SUDDEN 2.2 0
22
#SUDDEN 0 0
22,
3020202020202220,
32222222,
30303330,
#MEASURE 3/4
#BPMCHANGE 133.5
#SCROLL 1.25
202,
202,
222,
202,
202,
202,
222,
222,
202,
402,
422,
402,
402,
402,
422,
#BPMCHANGE 133
446,
,
#BPMCHANGE 267
#SCROLL 0.622659
8,
#MEASURE 4/4
#SCROLL 0.75
3002,
2222,
20202005,
08,
2002,
2222,
20202002,
0444,
4002,
#MEASURE 2/4
2
#SCROLL 1.5
4,
#MEASURE 4/4
#GOGOSTART
#SCROLL 1
1
#SUDDEN 0.5 0
1
#SUDDEN 0.72 0
1
#SUDDEN 0.94 0
1,
#SUDDEN 0 0
11010100,
10101101,
02022020,
1111,
11010100,
#MEASURE 7/8
1010110,
#MEASURE 1/4
3,
#SUDDEN 0.24 0
3,
#MEASURE 5/8
30
#SUDDEN 0 0
220,
#MEASURE 4/4
1111,
11010100,
10101101,
02022020,
1111,
11010100,
10101103,
0334,
#SCROLL 1.25
#SUDDEN 0.21 0
1
#SUDDEN 0.42 0
1
#SUDDEN 0.63 0
1
#SUDDEN 0.84 0
1,
#SUDDEN 0 0
11010100,
10101101,
02022020,
1111,
11010100,
#MEASURE 7/8
1010110,
#MEASURE 1/4
3,
#SUDDEN 0.24 0
3,
#MEASURE 5/8
30220,
#MEASURE 4/4
#SUDDEN 0 0
1111,
11010100,
10101101,
02022020,
1111,
11010100,
10101103,
0332,
#GOGOEND
#SCROLL 0.75
#SUDDEN 0.21 0
3
#SUDDEN 0.42 0
2
#SUDDEN 0.63 0
2
#SUDDEN 0.84 0
2,
#SUDDEN 1.05 0
2
#SUDDEN 1.11 0
2
#SUDDEN 0 0
020200,
#GOGOSTART
#SCROLL 1.5
30101101,
02022020,
1111,
11010100,
#MEASURE 7/8
1010110,
#MEASURE 1/4
3,
#SUDDEN 0.24 0
3,
#MEASURE 5/8
30220,
#MEASURE 4/4
#SCROLL 1.75
#SUDDEN 0 0
1111,
11010100,
10101101,
02022020,
1111,
11010100,
10101103,
033
#GOGOEND
4,
#GOGOSTART
#SCROLL 1
30101001,
01010010,
10101001,
01010020,
10101001,
01010010,
10101003,
03030020,
2222,
22040040,
6,
0800,
2222,
22040040,
6,
8,
#GOGOEND
#SCROLL 0.75
2020220
#GOGOSTART
#SCROLL 1
3,
033
#SCROLL 4
6,
#BARLINEOFF
0008,
,
#GOGOEND
0,
,
,
,
,
,
,
#END
COURSE:Easy
LEVEL:6
#START
,
,
,
,
12,
12,
12,
1,
3001,
11,
1110,
1,
3001,
11,
10101003,
03030000,
#BPMCHANGE 133.5
3011,
1000100100000000,
1011,
1000100100000000,
2022,
2000200200000000,
22,
2000200200000000,
#BPMCHANGE 66.75
30202220,
30101133,
#GOGOSTART
#BPMCHANGE 267
1111,
10010100,
10101001,
02002020,
1111,
10010100,
#MEASURE 7/8
1010100,
#MEASURE 1/4
3,
#SUDDEN 0.24 0
3,
#MEASURE 5/8
3,
#MEASURE 4/4
#SUDDEN 0 0
1111,
10010100,
10101001,
02002020,
1111,
10010100,
10101003,
0330,
#SCROLL 1.25
#SUDDEN 0.21 0.001
1
#SUDDEN 0.42 0.22
1
#SUDDEN 0.63 0.44
1
#SUDDEN 0.84 0.66
1,
#SUDDEN 0 0
10010100,
10101001,
02002020,
1111,
10010100,
#MEASURE 7/8
1010100,
#MEASURE 1/4
3,
#SUDDEN 0.21 0
3,
#MEASURE 5/8
3,
#MEASURE 4/4
#SUDDEN 0 0
1111,
10010100,
10101001,
02002020,
1111,
10010100,
10101003,
0330,
#GOGOEND
#BPMCHANGE 66.75
#SCROLL 1.75
#SUDDEN 0.21 0
30
#SUDDEN 1.1 0
20
#SUDDEN 2.2 0
22
#SUDDEN 0 0
20,
30202220,
30202220,
30303333,
#MEASURE 3/4
#BPMCHANGE 133.5
#SCROLL 1.25
3,
2,
2,
2,
2,
2,
202,
2,
1,
4,
1,
4,
1,
4,
1,
#BPMCHANGE 133
406,
,
#BPMCHANGE 267
#SCROLL 0.622659
8,
#MEASURE 4/4
#SCROLL 0.75
3002,
22,
20002002,
,
2002,
22,
20002002,
0220,
3002,
#MEASURE 2/4
2
#SCROLL 1.5
4,
#MEASURE 4/4
#GOGOSTART
#SCROLL 1
3
#SUDDEN 0.5 0
1
#SUDDEN 0.72 0
1
#SUDDEN 0.94 0
1,
#SUDDEN 0 0
10010100,
10101001,
02002020,
1111,
10010100,
#MEASURE 7/8
1010100,
#MEASURE 1/4
3,
#SUDDEN 0.24 0
3,
#MEASURE 5/8
3,
#MEASURE 4/4
#SUDDEN 0 0
1111,
10010100,
10101001,
02002020,
1111,
10010100,
10101003,
0330,
#SCROLL 1.25
#SUDDEN 0.21 0
1
#SUDDEN 0.42 0
1
#SUDDEN 0.63 0
1
#SUDDEN 0.84 0
1,
#SUDDEN 0 0
10010100,
10101001,
02002020,
1111,
10010100,
#MEASURE 7/8
1010100,
#MEASURE 1/4
3,
#SUDDEN 0.24 0
3,
#MEASURE 5/8
3,
#MEASURE 4/4
#SUDDEN 0 0
1111,
10010100,
10101001,
02002020,
1111,
10010100,
10101003,
0330,
#GOGOEND
#SCROLL 0.75
#SUDDEN 0.21 0
2
#SUDDEN 0.42 0
2
#SUDDEN 0.63 0
2
#SUDDEN 0.84 0
2,
#SUDDEN 1.05 0
20
#SUDDEN 0 0
020200,
#GOGOSTART
#SCROLL 1.5
30101001,
02002020,
1111,
10010100,
#MEASURE 7/8
1010100,
#MEASURE 1/4
3,
#SUDDEN 0.24 0
3,
#MEASURE 5/8
3,
#MEASURE 4/4
#SCROLL 1.75
#SUDDEN 0 0
1111,
10010100,
10101001,
02002020,
1111,
10010100,
10101003,
033
#GOGOEND
0,
#GOGOSTART
#SCROLL 1
1111,
1110,
1110,
2220,
1111,
1110,
10101003,
03030000,
2222,
20040040,
6,
0800,
2222,
20040040,
6,
0800,
#GOGOEND
#SCROLL 0.75
2020200
#GOGOSTART
#SCROLL 1
3,
033
#SCROLL 4
6,
#BARLINEOFF
0008,
,
#GOGOEND
0,
,
,
,
,
,
,
#END