generated from DragonRatTiger/Custom-Charts
672 lines
2.3 KiB
Plaintext
672 lines
2.3 KiB
Plaintext
// PeepoDrumKit 2025/09/13
|
|
TITLE:Spectronizer
|
|
SUBTITLE:--Butou Sentai Express/Just Dance 3
|
|
BPM:120
|
|
WAVE:Spectronizer.ogg
|
|
OFFSET:-0.415
|
|
DEMOSTART:51.8436
|
|
MAKER:Brayan
|
|
|
|
COURSE:Edit
|
|
LEVEL:9
|
|
|
|
#START
|
|
,
|
|
,
|
|
,
|
|
,
|
|
,
|
|
,
|
|
,
|
|
,
|
|
,
|
|
,
|
|
,
|
|
,
|
|
,
|
|
,
|
|
,
|
|
,
|
|
,
|
|
,
|
|
,
|
|
,
|
|
,
|
|
,
|
|
,
|
|
,
|
|
,
|
|
,
|
|
,
|
|
,
|
|
,
|
|
,
|
|
,
|
|
,
|
|
,
|
|
,
|
|
,
|
|
,
|
|
,
|
|
,
|
|
,
|
|
,
|
|
,
|
|
,
|
|
,
|
|
,
|
|
,
|
|
,
|
|
,
|
|
,
|
|
,
|
|
,
|
|
,
|
|
,
|
|
,
|
|
,
|
|
,
|
|
,
|
|
,
|
|
,
|
|
,
|
|
,
|
|
,
|
|
,
|
|
,
|
|
,
|
|
,
|
|
,
|
|
,
|
|
,
|
|
,
|
|
,
|
|
,
|
|
,
|
|
,
|
|
,
|
|
,
|
|
,
|
|
,
|
|
,
|
|
,
|
|
,
|
|
,
|
|
,
|
|
,
|
|
,
|
|
,
|
|
,
|
|
,
|
|
,
|
|
,
|
|
,
|
|
,
|
|
,
|
|
,
|
|
,
|
|
,
|
|
,
|
|
,
|
|
,
|
|
,
|
|
,
|
|
,
|
|
,
|
|
,
|
|
,
|
|
,
|
|
,
|
|
,
|
|
,
|
|
,
|
|
,
|
|
#END
|
|
|
|
COURSE:Oni
|
|
LEVEL:9
|
|
|
|
#START
|
|
#BPMCHANGE 140
|
|
0,
|
|
,
|
|
,
|
|
,
|
|
,
|
|
,
|
|
,
|
|
,
|
|
,
|
|
,
|
|
,
|
|
,
|
|
,
|
|
,
|
|
,
|
|
,
|
|
,
|
|
,
|
|
,
|
|
,
|
|
,
|
|
,
|
|
,
|
|
,
|
|
,
|
|
,
|
|
,
|
|
,
|
|
,
|
|
,
|
|
,
|
|
,
|
|
,
|
|
,
|
|
,
|
|
,
|
|
,
|
|
,
|
|
,
|
|
,
|
|
,
|
|
,
|
|
,
|
|
,
|
|
,
|
|
,
|
|
,
|
|
,
|
|
,
|
|
,
|
|
,
|
|
,
|
|
,
|
|
,
|
|
,
|
|
,
|
|
,
|
|
,
|
|
,
|
|
,
|
|
,
|
|
,
|
|
,
|
|
,
|
|
,
|
|
,
|
|
,
|
|
,
|
|
,
|
|
,
|
|
,
|
|
,
|
|
,
|
|
,
|
|
,
|
|
,
|
|
,
|
|
,
|
|
,
|
|
,
|
|
,
|
|
,
|
|
,
|
|
,
|
|
,
|
|
,
|
|
,
|
|
,
|
|
,
|
|
,
|
|
,
|
|
,
|
|
,
|
|
,
|
|
,
|
|
,
|
|
,
|
|
,
|
|
,
|
|
,
|
|
,
|
|
,
|
|
,
|
|
,
|
|
,
|
|
,
|
|
,
|
|
,
|
|
,
|
|
,
|
|
,
|
|
,
|
|
,
|
|
,
|
|
,
|
|
,
|
|
,
|
|
,
|
|
,
|
|
,
|
|
,
|
|
,
|
|
,
|
|
,
|
|
,
|
|
,
|
|
,
|
|
,
|
|
#END
|
|
|
|
COURSE:Hard
|
|
LEVEL:7
|
|
|
|
#START
|
|
#BPMCHANGE 140
|
|
0,
|
|
,
|
|
,
|
|
,
|
|
,
|
|
,
|
|
,
|
|
,
|
|
,
|
|
,
|
|
,
|
|
,
|
|
,
|
|
,
|
|
,
|
|
,
|
|
,
|
|
,
|
|
,
|
|
,
|
|
,
|
|
,
|
|
,
|
|
,
|
|
,
|
|
,
|
|
,
|
|
,
|
|
,
|
|
,
|
|
,
|
|
,
|
|
,
|
|
,
|
|
,
|
|
,
|
|
,
|
|
,
|
|
,
|
|
,
|
|
,
|
|
,
|
|
,
|
|
,
|
|
,
|
|
,
|
|
,
|
|
,
|
|
,
|
|
,
|
|
,
|
|
,
|
|
,
|
|
,
|
|
,
|
|
,
|
|
,
|
|
,
|
|
,
|
|
,
|
|
,
|
|
,
|
|
,
|
|
,
|
|
,
|
|
,
|
|
,
|
|
,
|
|
,
|
|
,
|
|
,
|
|
,
|
|
,
|
|
,
|
|
,
|
|
,
|
|
,
|
|
,
|
|
,
|
|
,
|
|
,
|
|
,
|
|
,
|
|
,
|
|
,
|
|
,
|
|
,
|
|
,
|
|
,
|
|
,
|
|
,
|
|
,
|
|
,
|
|
,
|
|
,
|
|
,
|
|
,
|
|
,
|
|
,
|
|
,
|
|
,
|
|
,
|
|
,
|
|
,
|
|
,
|
|
,
|
|
,
|
|
,
|
|
,
|
|
,
|
|
,
|
|
,
|
|
,
|
|
,
|
|
,
|
|
,
|
|
,
|
|
,
|
|
,
|
|
,
|
|
,
|
|
,
|
|
,
|
|
,
|
|
,
|
|
,
|
|
,
|
|
,
|
|
#END
|
|
|
|
COURSE:Normal
|
|
LEVEL:6
|
|
BALLOON:2,2,12
|
|
|
|
#START
|
|
#BPMCHANGE 140
|
|
33,
|
|
33,
|
|
3333,
|
|
07807800,
|
|
30010010,
|
|
11000000,
|
|
20020220,
|
|
33060080,
|
|
3,
|
|
10010110,
|
|
1110,
|
|
10010110,
|
|
2220,
|
|
10001110,
|
|
10110000,
|
|
02022020,
|
|
6008,
|
|
30010110,
|
|
1110,
|
|
10010110,
|
|
2220,
|
|
10001110,
|
|
10110000,
|
|
02022020,
|
|
6008,
|
|
30110010,
|
|
1110,
|
|
20022020,
|
|
6008,
|
|
7008,
|
|
30003300,
|
|
11101000,
|
|
40004400,
|
|
22202000,
|
|
30003300,
|
|
11101010,
|
|
,
|
|
,
|
|
,
|
|
,
|
|
,
|
|
,
|
|
,
|
|
,
|
|
,
|
|
,
|
|
,
|
|
,
|
|
,
|
|
,
|
|
,
|
|
,
|
|
,
|
|
,
|
|
,
|
|
,
|
|
,
|
|
,
|
|
,
|
|
,
|
|
,
|
|
,
|
|
,
|
|
,
|
|
,
|
|
,
|
|
,
|
|
,
|
|
,
|
|
,
|
|
,
|
|
,
|
|
,
|
|
,
|
|
,
|
|
,
|
|
,
|
|
,
|
|
,
|
|
,
|
|
,
|
|
,
|
|
,
|
|
,
|
|
,
|
|
,
|
|
,
|
|
,
|
|
,
|
|
,
|
|
,
|
|
,
|
|
,
|
|
,
|
|
,
|
|
,
|
|
,
|
|
,
|
|
,
|
|
,
|
|
,
|
|
,
|
|
,
|
|
,
|
|
,
|
|
,
|
|
,
|
|
,
|
|
,
|
|
,
|
|
,
|
|
,
|
|
,
|
|
,
|
|
,
|
|
,
|
|
,
|
|
,
|
|
,
|
|
,
|
|
,
|
|
,
|
|
,
|
|
,
|
|
,
|
|
,
|
|
,
|
|
,
|
|
#END
|
|
|
|
COURSE:Easy
|
|
LEVEL:3
|
|
BALLOON:4,3,5,7,7,3,5,7,7,1,1,1,1,1,1,1,1,9,7,7,8
|
|
|
|
#START
|
|
#BPMCHANGE 140
|
|
11,
|
|
11,
|
|
33,
|
|
07000080,
|
|
31,
|
|
1,
|
|
11,
|
|
70080000,
|
|
,
|
|
31,
|
|
11,
|
|
11,
|
|
12,
|
|
11,
|
|
11,
|
|
11,
|
|
5008,
|
|
11,
|
|
11,
|
|
11,
|
|
12,
|
|
11,
|
|
11,
|
|
11,
|
|
5008,
|
|
1001,
|
|
11,
|
|
1001,
|
|
6008,
|
|
70000800,
|
|
#GOGOSTART
|
|
33,
|
|
1110,
|
|
33,
|
|
2220,
|
|
33,
|
|
1110,
|
|
70000008,
|
|
#GOGOEND
|
|
0,
|
|
#GOGOSTART
|
|
31,
|
|
1,
|
|
11,
|
|
0220,
|
|
31,
|
|
11,
|
|
70000008,
|
|
02,
|
|
#GOGOEND
|
|
31,
|
|
1,
|
|
11,
|
|
70080000,
|
|
,
|
|
31,
|
|
11,
|
|
11,
|
|
12,
|
|
11,
|
|
11,
|
|
11,
|
|
5008,
|
|
11,
|
|
11,
|
|
11,
|
|
12,
|
|
11,
|
|
11,
|
|
11,
|
|
5008,
|
|
1001,
|
|
11,
|
|
1001,
|
|
6008,
|
|
70000800,
|
|
33,
|
|
1110,
|
|
33,
|
|
2220,
|
|
33,
|
|
1110,
|
|
70000008,
|
|
,
|
|
31,
|
|
1,
|
|
11,
|
|
0220,
|
|
31,
|
|
11,
|
|
70000008,
|
|
02,
|
|
78007800,
|
|
78007800,
|
|
78007800,
|
|
78007800,
|
|
11,
|
|
1,
|
|
22,
|
|
2,
|
|
11,
|
|
11,
|
|
01,
|
|
1,
|
|
11,
|
|
1,
|
|
00002009,
|
|
,
|
|
8,
|
|
33,
|
|
1110,
|
|
33,
|
|
2220,
|
|
33,
|
|
1110,
|
|
70000008,
|
|
,
|
|
31,
|
|
1,
|
|
11,
|
|
0220,
|
|
31,
|
|
11,
|
|
70000008,
|
|
02,
|
|
11,
|
|
11,
|
|
33,
|
|
9,
|
|
8,
|
|
#BARLINEOFF
|
|
0,
|
|
,
|
|
#END
|