generated from DragonRatTiger/Custom-Charts
1202 lines
11 KiB
Plaintext
1202 lines
11 KiB
Plaintext
TITLE:666
|
|
TITLEJA:666
|
|
SUBTITLE:--RoughSketch「SOUND VOLTEX」より
|
|
SUBTITLEJA:--RoughSketch
|
|
PREIMAGE:666.png
|
|
BPM:333
|
|
WAVE:666.ogg
|
|
OFFSET:-0.683
|
|
DEMOSTART:88.611
|
|
GENRE:ゲームミュージック
|
|
MAKER:Entharex
|
|
|
|
COURSE:Oni
|
|
LEVEL:12.0
|
|
BALLOON:3
|
|
|
|
#START
|
|
30002220,
|
|
20002022,
|
|
10222020,
|
|
00202222,
|
|
|
|
10222020,
|
|
2220200020002020,
|
|
10222020,
|
|
22202022,
|
|
|
|
1112,
|
|
2000200020002220,
|
|
1111,
|
|
20202222,
|
|
|
|
11112222,
|
|
11112222,
|
|
1111222211112222,
|
|
1212100020000000,
|
|
|
|
300000300000102020200100,
|
|
102020200100102020200100,
|
|
300000300000102020200100,
|
|
#SCROLL 2
|
|
60000080
|
|
#SCROLL 1
|
|
10101111,
|
|
|
|
10111111,
|
|
1110101010101010,
|
|
1110101010101010,
|
|
3443,
|
|
|
|
30111111,
|
|
1110101011101010,
|
|
1110101110101110,
|
|
30303034,
|
|
|
|
30111111,
|
|
1110101020201010,
|
|
1110101010102220,
|
|
334333,
|
|
|
|
300000100100101010100100,
|
|
100100220220100100000100,
|
|
#SCROLL 2
|
|
6008,
|
|
#SCROLL 1
|
|
1000000010101110,
|
|
|
|
#GOGOSTART
|
|
1220122012201220,
|
|
1120112011201020,
|
|
1210121012101210,
|
|
1110111010201110,
|
|
|
|
1120112011201120,
|
|
100200200000100200200000200010002000100020000000,
|
|
1120222220200020,
|
|
1110111011102010,
|
|
|
|
#GOGOEND
|
|
70008000
|
|
#GOGOSTART
|
|
12222020,
|
|
1220122012201020,
|
|
1120112011201120,
|
|
11110101,
|
|
|
|
2211102011201120,
|
|
1110122012201220,
|
|
1110112220111111,
|
|
1000111120201000,
|
|
|
|
#GOGOEND
|
|
300000000000200200200200100010001000100000000000,
|
|
31113131,
|
|
32222222,
|
|
200020002000100100100000200000000000100000000000,
|
|
|
|
30000000
|
|
#SCROLL 0.75
|
|
22201000,
|
|
2022202022202020,
|
|
1022202022201000,
|
|
2022202022202020,
|
|
|
|
100000200200200200200200100010001000100000000000,
|
|
2022202022202020,
|
|
1022202022201000,
|
|
#SCROLL 1
|
|
3443,
|
|
|
|
30040030,
|
|
#SCROLL 0.75
|
|
2022202022202020,
|
|
1022202011101000,
|
|
2220222011101000,
|
|
|
|
#SCROLL 1
|
|
30201211,
|
|
20111020,
|
|
10201211,
|
|
2258,
|
|
|
|
300000000000200020002000100100100100100010001000,
|
|
200000000000100010001000200200200200100010001000,
|
|
12212212,
|
|
200200200200100010001000100100100100200020002000,
|
|
|
|
100000000000200020002000100100100100100010001000,
|
|
200000000000100010001000200200200200100010001000,
|
|
12212212,
|
|
211211211200,
|
|
|
|
100100200200200200200200100010001000100010001000,
|
|
200000000000200020002000100100100100200020002000,
|
|
100100200200200020002000100010001000100100100100,
|
|
200000000000200000000000100010001000100200200200,
|
|
|
|
12212212,
|
|
200200200200100000100000100100100100200020002000,
|
|
10201110,
|
|
200200200200100010001000100100100100200020002000,
|
|
|
|
#SCROLL 0.75
|
|
30201221,
|
|
2122,
|
|
10102121,
|
|
20102222,
|
|
|
|
10112121,
|
|
1110100020002020,
|
|
1122,
|
|
200000200000200000000000100010001000200200200200,
|
|
|
|
10102121,
|
|
1000100020002220,
|
|
10101212,
|
|
10102122,
|
|
|
|
11112222,
|
|
111222111222,
|
|
#BARLINEOFF
|
|
0,
|
|
0,
|
|
|
|
#GOGOSTART
|
|
#BARLINEON
|
|
#SCROLL 1
|
|
300000300000102020200
|
|
#GOGOEND
|
|
100,
|
|
#GOGOSTART
|
|
300000300000102020200
|
|
#GOGOEND
|
|
100,
|
|
#GOGOSTART
|
|
300000300000102020200
|
|
#GOGOEND
|
|
100,
|
|
#GOGOSTART
|
|
3
|
|
#GOGOEND
|
|
0
|
|
#GOGOSTART
|
|
3
|
|
#GOGOEND
|
|
0
|
|
#GOGOSTART
|
|
3
|
|
#GOGOEND
|
|
000,
|
|
|
|
#GOGOSTART
|
|
300000300000102020100
|
|
#GOGOEND
|
|
100,
|
|
#GOGOSTART
|
|
300000300000102020100
|
|
#GOGOEND
|
|
100,
|
|
#GOGOSTART
|
|
300000300000102020100
|
|
#GOGOEND
|
|
100,
|
|
#GOGOSTART
|
|
3
|
|
#GOGOEND
|
|
0
|
|
#GOGOSTART
|
|
3
|
|
#GOGOEND
|
|
0
|
|
#GOGOSTART
|
|
3
|
|
#GOGOEND
|
|
000,
|
|
|
|
30201121,
|
|
2122,
|
|
10212121,
|
|
20102222,
|
|
|
|
11112122,
|
|
1111222211221100,
|
|
#SCROLL 2
|
|
6,
|
|
08,
|
|
#SCROLL 1
|
|
2112,
|
|
200000200000100100111100,
|
|
|
|
#GOGOSTART
|
|
3000122010201010,
|
|
1220112011101120,
|
|
1110122010201020,
|
|
1220122011201010,
|
|
|
|
1110122010201020,
|
|
1220112011101120,
|
|
1210101010101111,
|
|
1220122011201222,
|
|
|
|
#GOGOEND
|
|
0000
|
|
#GOGOSTART
|
|
101011221120,
|
|
1122112211112222,
|
|
1022102011221120,
|
|
100200100200100200100200100020001000200010000000,
|
|
|
|
1212121011212210,
|
|
1220122011201111,
|
|
2022112211221122,
|
|
#GOGOEND
|
|
000000000000100100111100,
|
|
|
|
#GOGOSTART
|
|
100020002000100100100000200200100000100100200000,
|
|
1122112210101020,
|
|
100020002000100200200200100200100100100000100000,
|
|
100020001000200010002000100020002000100200100200,
|
|
|
|
100020002000100200100100100000100000100000200000,
|
|
1211221011201220,
|
|
100020002000100000100000100100100000100200100000,
|
|
201020102010100111100111,
|
|
|
|
100020001000100100100000100000100000100100200200,
|
|
1121
|
|
#GOGOEND
|
|
0000,
|
|
#GOGOSTART
|
|
100020002000100100200200100000100000200000200000,
|
|
121212
|
|
#GOGOEND
|
|
000000,
|
|
|
|
#GOGOSTART
|
|
100020002000100000100000200200100200100100200200,
|
|
1011202012121122,
|
|
102010222220101010222222,
|
|
#GOGOEND
|
|
0,
|
|
|
|
#MEASURE 4/2
|
|
#GOGOSTART
|
|
#BPMCHANGE 666
|
|
1212121212121212,
|
|
1212121212121212,
|
|
1212121212121212,
|
|
#MEASURE 4/4
|
|
#GOGOEND
|
|
#BPMCHANGE 333
|
|
3443,
|
|
|
|
#MEASURE 4/2
|
|
#GOGOSTART
|
|
#BPMCHANGE 666
|
|
2121212121212121,
|
|
2121212121212121,
|
|
#MEASURE 4/4
|
|
#GOGOEND
|
|
#BPMCHANGE 333
|
|
300000300000102020200100,
|
|
102020200100102020200100,
|
|
|
|
3,
|
|
0,
|
|
#END
|
|
|
|
COURSE:Hard
|
|
LEVEL:9.2
|
|
BALLOON:2
|
|
|
|
#START
|
|
32,
|
|
02,
|
|
1022,
|
|
00202222,
|
|
|
|
1022,
|
|
22202022,
|
|
1022,
|
|
22202000,
|
|
|
|
1111,
|
|
20202058,
|
|
1111,
|
|
2222,
|
|
|
|
11102220,
|
|
11102220,
|
|
11221122,
|
|
11102000,
|
|
|
|
300300222200,
|
|
222200222200,
|
|
300300222200,
|
|
#SCROLL 2
|
|
6008
|
|
#SCROLL 1
|
|
1150,
|
|
|
|
80111111,
|
|
11111111,
|
|
11111111,
|
|
3443,
|
|
|
|
30111111,
|
|
11111011,
|
|
11011011,
|
|
30303034,
|
|
|
|
30111111,
|
|
10112211,
|
|
11111120,
|
|
334333,
|
|
|
|
300000100100101010100000,
|
|
11221101,
|
|
#SCROLL 2
|
|
6008,
|
|
#SCROLL 1
|
|
10001158,
|
|
|
|
#GOGOSTART
|
|
2222,
|
|
10101012,
|
|
1222,
|
|
10101210,
|
|
|
|
1111,
|
|
200200202020,
|
|
10581101,
|
|
10010121,
|
|
|
|
#GOGOEND
|
|
7080
|
|
#GOGOSTART
|
|
2220,
|
|
10101012,
|
|
1222,
|
|
11110101,
|
|
|
|
0333,
|
|
0444,
|
|
10120210,
|
|
1508,
|
|
|
|
#GOGOEND
|
|
3,
|
|
11101110,
|
|
11112222,
|
|
100111200100,
|
|
|
|
3000
|
|
#SCROLL 0.75
|
|
2210,
|
|
20222222,
|
|
10222010,
|
|
20222222,
|
|
|
|
100000111100,
|
|
20222222,
|
|
10222010,
|
|
#SCROLL 1
|
|
3443,
|
|
|
|
30030030,
|
|
#SCROLL 0.75
|
|
20222222,
|
|
10221110,
|
|
20201110,
|
|
|
|
#SCROLL 1
|
|
30201110,
|
|
20111020,
|
|
10201110,
|
|
2258,
|
|
|
|
300000111100,
|
|
200000200000200200101010,
|
|
10012010,
|
|
20221120,
|
|
|
|
100000111100,
|
|
200000200000200200101010,
|
|
10012010,
|
|
4444,
|
|
|
|
300000200200101010100000,
|
|
20201110,
|
|
100200111100,
|
|
200200111100,
|
|
|
|
10012010,
|
|
20111020,
|
|
10201110,
|
|
20221120,
|
|
|
|
#SCROLL 0.75
|
|
32,
|
|
02,
|
|
1022,
|
|
00202222,
|
|
|
|
1022,
|
|
22202022,
|
|
1022,
|
|
22205080,
|
|
|
|
1111,
|
|
10101022,
|
|
1111,
|
|
10102222,
|
|
|
|
11111111,
|
|
11111111,
|
|
#BARLINEOFF
|
|
0,
|
|
0,
|
|
|
|
#GOGOSTART
|
|
#BARLINEON
|
|
#SCROLL 1
|
|
300000300000202020200
|
|
#GOGOEND
|
|
000,
|
|
#GOGOSTART
|
|
300000300000202020200
|
|
#GOGOEND
|
|
000,
|
|
#GOGOSTART
|
|
300000300000202020200
|
|
#GOGOEND
|
|
000,
|
|
#GOGOSTART
|
|
3
|
|
#GOGOEND
|
|
0
|
|
#GOGOSTART
|
|
3
|
|
#GOGOEND
|
|
0
|
|
#GOGOSTART
|
|
3
|
|
#GOGOEND
|
|
000,
|
|
|
|
#GOGOSTART
|
|
300000300000202020200
|
|
#GOGOEND
|
|
000,
|
|
#GOGOSTART
|
|
300000300000202020200
|
|
#GOGOEND
|
|
000,
|
|
#GOGOSTART
|
|
300000300000202020200
|
|
#GOGOEND
|
|
000,
|
|
#GOGOSTART
|
|
3
|
|
#GOGOEND
|
|
0
|
|
#GOGOSTART
|
|
3
|
|
#GOGOEND
|
|
0
|
|
#GOGOSTART
|
|
3
|
|
#GOGOEND
|
|
000,
|
|
|
|
30202222,
|
|
2222,
|
|
10202222,
|
|
20202220,
|
|
|
|
11111111,
|
|
11111110,
|
|
#SCROLL 2
|
|
6,
|
|
08,
|
|
#SCROLL 1
|
|
2222,
|
|
20201158,
|
|
|
|
#GOGOSTART
|
|
30201121,
|
|
2212,
|
|
10201121,
|
|
20202011,
|
|
|
|
10201121,
|
|
2212,
|
|
20111110,
|
|
2212,
|
|
|
|
#GOGOEND
|
|
00
|
|
#GOGOSTART
|
|
221121,
|
|
2212,
|
|
101010200000100100200100,
|
|
200200200200100010001000,
|
|
|
|
22221121,
|
|
200200100222,
|
|
2212,
|
|
#GOGOEND
|
|
00001158,
|
|
|
|
#GOGOSTART
|
|
10111212,
|
|
11221212,
|
|
10122210,
|
|
101010100000202020200200,
|
|
|
|
10122212,
|
|
12121112,
|
|
10121110,
|
|
222200111111,
|
|
|
|
10121112,
|
|
1121
|
|
#GOGOEND
|
|
0000,
|
|
#GOGOSTART
|
|
12121222,
|
|
111111
|
|
#GOGOEND
|
|
000000,
|
|
|
|
#GOGOSTART
|
|
12111212,
|
|
10121122,
|
|
100200101010100200101010,
|
|
#GOGOEND
|
|
0,
|
|
|
|
#MEASURE 4/2
|
|
#GOGOSTART
|
|
#BPMCHANGE 666
|
|
33333333,
|
|
33333333,
|
|
33333333,
|
|
#MEASURE 4/4
|
|
#GOGOEND
|
|
#BPMCHANGE 333
|
|
#SCROLL 2
|
|
3
|
|
#SCROLL 1
|
|
443,
|
|
|
|
#MEASURE 4/2
|
|
#GOGOSTART
|
|
#BPMCHANGE 666
|
|
33333333,
|
|
33333333,
|
|
#MEASURE 4/4
|
|
#GOGOEND
|
|
#BPMCHANGE 333
|
|
#SCROLL 2
|
|
300
|
|
#SCROLL 1
|
|
300222200,
|
|
222200222200,
|
|
|
|
3,
|
|
0,
|
|
#END
|
|
|
|
COURSE:Normal
|
|
LEVEL:8.6
|
|
BALLOON:4
|
|
|
|
#START
|
|
32,
|
|
02,
|
|
1022,
|
|
02,
|
|
|
|
12,
|
|
22202020,
|
|
1022,
|
|
22202000,
|
|
|
|
1111,
|
|
1110,
|
|
1111,
|
|
1110,
|
|
|
|
11101110,
|
|
11101110,
|
|
22222020,
|
|
11102000,
|
|
|
|
30302220,
|
|
22202220,
|
|
30302220,
|
|
#SCROLL 2
|
|
600800
|
|
#SCROLL 1
|
|
50,
|
|
|
|
80111111,
|
|
10111111,
|
|
10111010,
|
|
3443,
|
|
|
|
30111111,
|
|
10111011,
|
|
11011010,
|
|
30303044,
|
|
|
|
30111111,
|
|
10112210,
|
|
11111120,
|
|
333333,
|
|
|
|
30101110,
|
|
11111101,
|
|
#SCROLL 2
|
|
6008,
|
|
#SCROLL 1
|
|
1058,
|
|
|
|
#GOGOSTART
|
|
2222,
|
|
1111,
|
|
2222,
|
|
1110,
|
|
|
|
1111,
|
|
200200202020,
|
|
20580101,
|
|
10010110,
|
|
|
|
#GOGOEND
|
|
0000
|
|
#GOGOSTART
|
|
2220,
|
|
1111,
|
|
2222,
|
|
11110101,
|
|
|
|
0333,
|
|
0444,
|
|
10120210,
|
|
1508,
|
|
|
|
#GOGOEND
|
|
3,
|
|
1011,
|
|
11111111,
|
|
02,
|
|
|
|
3000
|
|
#SCROLL 0.75
|
|
2210,
|
|
20202220,
|
|
1221,
|
|
20202220,
|
|
|
|
78,
|
|
20202220,
|
|
1221,
|
|
#SCROLL 1
|
|
3443,
|
|
|
|
30030030,
|
|
#SCROLL 0.75
|
|
20202220,
|
|
10201110,
|
|
20201110,
|
|
|
|
#SCROLL 1
|
|
3011,
|
|
20111020,
|
|
10201110,
|
|
2258,
|
|
|
|
30001110,
|
|
20002011,
|
|
10010010,
|
|
20221120,
|
|
|
|
10001110,
|
|
20002011,
|
|
10010010,
|
|
4444,
|
|
|
|
30221110,
|
|
2021,
|
|
10001110,
|
|
20201110,
|
|
|
|
10010010,
|
|
20111020,
|
|
10201110,
|
|
20201120,
|
|
|
|
#SCROLL 0.75
|
|
32,
|
|
02,
|
|
1022,
|
|
02,
|
|
|
|
12,
|
|
22202020,
|
|
1022,
|
|
22205080,
|
|
|
|
1111,
|
|
1110,
|
|
1111,
|
|
1110,
|
|
|
|
11101110,
|
|
11111111,
|
|
#BARLINEOFF
|
|
0,
|
|
0,
|
|
|
|
#GOGOSTART
|
|
#BARLINEON
|
|
#SCROLL 1
|
|
3030222
|
|
#GOGOEND
|
|
0,
|
|
#GOGOSTART
|
|
3030222
|
|
#GOGOEND
|
|
0,
|
|
#GOGOSTART
|
|
3030222
|
|
#GOGOEND
|
|
0,
|
|
#GOGOSTART
|
|
3
|
|
#GOGOEND
|
|
0
|
|
#GOGOSTART
|
|
3
|
|
#GOGOEND
|
|
0
|
|
#GOGOSTART
|
|
3
|
|
#GOGOEND
|
|
000,
|
|
|
|
#GOGOSTART
|
|
3030222
|
|
#GOGOEND
|
|
0,
|
|
#GOGOSTART
|
|
3030222
|
|
#GOGOEND
|
|
0,
|
|
#GOGOSTART
|
|
3030222
|
|
#GOGOEND
|
|
0,
|
|
#GOGOSTART
|
|
3
|
|
#GOGOEND
|
|
0
|
|
#GOGOSTART
|
|
3
|
|
#GOGOEND
|
|
0
|
|
#GOGOSTART
|
|
3
|
|
#GOGOEND
|
|
000,
|
|
|
|
30202220,
|
|
2222,
|
|
10202220,
|
|
20202220,
|
|
|
|
11101111,
|
|
11111110,
|
|
#SCROLL 2
|
|
6,
|
|
08,
|
|
#SCROLL 1
|
|
2222,
|
|
2258,
|
|
|
|
#GOGOSTART
|
|
30201120,
|
|
1111,
|
|
10201120,
|
|
20202011,
|
|
|
|
10201120,
|
|
1111,
|
|
10111110,
|
|
2212,
|
|
|
|
#GOGOEND
|
|
00
|
|
#GOGOSTART
|
|
101120,
|
|
1111,
|
|
10201120,
|
|
200200200000100010001000,
|
|
|
|
10101120,
|
|
1115,
|
|
8222,
|
|
#GOGOEND
|
|
0058,
|
|
|
|
#GOGOSTART
|
|
10101120,
|
|
11220120,
|
|
10102210,
|
|
11102220,
|
|
|
|
10101110,
|
|
22110120,
|
|
10111110,
|
|
22201110,
|
|
|
|
20101110,
|
|
1122
|
|
#GOGOEND
|
|
0000,
|
|
#GOGOSTART
|
|
20111120,
|
|
1111
|
|
#GOGOEND
|
|
0000,
|
|
|
|
#GOGOSTART
|
|
20222210,
|
|
20111110,
|
|
11221122,
|
|
#GOGOEND
|
|
0,
|
|
|
|
#MEASURE 4/2
|
|
#GOGOSTART
|
|
#BPMCHANGE 666
|
|
6868686868686868,
|
|
6868686868686868,
|
|
6868686868686800,
|
|
#MEASURE 4/4
|
|
#GOGOEND
|
|
#BPMCHANGE 333
|
|
3443,
|
|
|
|
#MEASURE 4/2
|
|
#GOGOSTART
|
|
#BPMCHANGE 666
|
|
6868686868686868,
|
|
6868686868686800,
|
|
#MEASURE 4/4
|
|
#GOGOEND
|
|
#BPMCHANGE 333
|
|
30302220,
|
|
22202220,
|
|
|
|
3,
|
|
0,
|
|
#END
|
|
|
|
COURSE:Easy
|
|
LEVEL:6.5
|
|
BALLOON:8
|
|
|
|
#START
|
|
32,
|
|
02,
|
|
12,
|
|
02,
|
|
|
|
12,
|
|
22,
|
|
12,
|
|
02,
|
|
|
|
11,
|
|
1110,
|
|
11,
|
|
1110,
|
|
|
|
1111,
|
|
1111,
|
|
7,
|
|
08,
|
|
|
|
3320,
|
|
22,
|
|
3320,
|
|
#SCROLL 2
|
|
600800
|
|
#SCROLL 1
|
|
50,
|
|
|
|
80101011,
|
|
10101011,
|
|
1111,
|
|
33,
|
|
|
|
30101011,
|
|
10115080,
|
|
58058058,
|
|
3034,
|
|
|
|
30101011,
|
|
1121,
|
|
10111020,
|
|
33,
|
|
|
|
3111,
|
|
10101100,
|
|
#SCROLL 2
|
|
6008,
|
|
#SCROLL 1
|
|
0058,
|
|
|
|
#GOGOSTART
|
|
2220,
|
|
1110,
|
|
2220,
|
|
1110,
|
|
|
|
1110,
|
|
2220,
|
|
1110,
|
|
10050080,
|
|
|
|
#GOGOEND
|
|
0
|
|
#GOGOSTART
|
|
2,
|
|
1110,
|
|
2220,
|
|
1110,
|
|
|
|
3330,
|
|
4440,
|
|
10020010,
|
|
0508,
|
|
|
|
#GOGOEND
|
|
3,
|
|
11,
|
|
1111,
|
|
02,
|
|
|
|
300
|
|
#SCROLL 0.5
|
|
1,
|
|
2,
|
|
1001,
|
|
2,
|
|
|
|
58,
|
|
2,
|
|
1001,
|
|
3333,
|
|
|
|
3,
|
|
2,
|
|
1001,
|
|
2210,
|
|
|
|
3001,
|
|
21,
|
|
1201,
|
|
2258,
|
|
|
|
31,
|
|
2001,
|
|
10010010,
|
|
2,
|
|
|
|
11,
|
|
2001,
|
|
10010010,
|
|
2220,
|
|
|
|
31,
|
|
2001,
|
|
11,
|
|
2210,
|
|
|
|
10010010,
|
|
21,
|
|
1210,
|
|
2,
|
|
|
|
#SCROLL 0.75
|
|
32,
|
|
02,
|
|
12,
|
|
02,
|
|
|
|
12,
|
|
22,
|
|
12,
|
|
02,
|
|
|
|
11,
|
|
1110,
|
|
11,
|
|
1110,
|
|
|
|
1111,
|
|
1111,
|
|
#BARLINEOFF
|
|
1,
|
|
0,
|
|
|
|
#GOGOSTART
|
|
#BARLINEON
|
|
#SCROLL 1
|
|
3030200
|
|
#GOGOEND
|
|
0,
|
|
#GOGOSTART
|
|
3030200
|
|
#GOGOEND
|
|
0,
|
|
#GOGOSTART
|
|
3030200
|
|
#GOGOEND
|
|
0,
|
|
#GOGOSTART
|
|
3
|
|
#GOGOEND
|
|
0
|
|
#GOGOSTART
|
|
3
|
|
#GOGOEND
|
|
0
|
|
#GOGOSTART
|
|
3
|
|
#GOGOEND
|
|
000,
|
|
|
|
#GOGOSTART
|
|
3030200
|
|
#GOGOEND
|
|
0,
|
|
#GOGOSTART
|
|
3030200
|
|
#GOGOEND
|
|
0,
|
|
#GOGOSTART
|
|
3030200
|
|
#GOGOEND
|
|
0,
|
|
#GOGOSTART
|
|
3
|
|
#GOGOEND
|
|
0
|
|
#GOGOSTART
|
|
3
|
|
#GOGOEND
|
|
0
|
|
#GOGOSTART
|
|
3
|
|
#GOGOEND
|
|
000,
|
|
|
|
3,
|
|
02,
|
|
12,
|
|
02,
|
|
|
|
1111,
|
|
1111,
|
|
#SCROLL 2
|
|
6,
|
|
08,
|
|
#SCROLL 1
|
|
22,
|
|
2058,
|
|
|
|
#GOGOSTART
|
|
31,
|
|
1110,
|
|
11,
|
|
2220,
|
|
|
|
11,
|
|
1110,
|
|
10111000,
|
|
2222,
|
|
|
|
#GOGOEND
|
|
0
|
|
#GOGOSTART
|
|
508,
|
|
1110,
|
|
11,
|
|
2220,
|
|
|
|
11,
|
|
1111,
|
|
0222,
|
|
#GOGOEND
|
|
0058,
|
|
|
|
#GOGOSTART
|
|
2210,
|
|
1110,
|
|
1120,
|
|
11102220,
|
|
|
|
2210,
|
|
2110,
|
|
1110,
|
|
22201110,
|
|
|
|
1111,
|
|
1011
|
|
#GOGOEND
|
|
0000,
|
|
#GOGOSTART
|
|
2222,
|
|
2022
|
|
#GOGOEND
|
|
0000,
|
|
|
|
#GOGOSTART
|
|
10111010,
|
|
10111010,
|
|
10201022,
|
|
#GOGOEND
|
|
0,
|
|
|
|
#MEASURE 4/2
|
|
#GOGOSTART
|
|
#BPMCHANGE 666
|
|
6868686868686868,
|
|
6868686868686868,
|
|
6868686868686800,
|
|
#MEASURE 4/4
|
|
#GOGOEND
|
|
#BPMCHANGE 333
|
|
33,
|
|
|
|
#MEASURE 4/2
|
|
#GOGOSTART
|
|
#BPMCHANGE 666
|
|
6868686868686868,
|
|
6868686868686800,
|
|
#MEASURE 4/4
|
|
#GOGOEND
|
|
#BPMCHANGE 333
|
|
3320,
|
|
2020,
|
|
|
|
3,
|
|
0,
|
|
#END |