generated from DragonRatTiger/Custom-Charts
1703 lines
16 KiB
Plaintext
1703 lines
16 KiB
Plaintext
TITLE:Kawai-ku Karei-ni Uchu Kaitou
|
|
TITLEJA:Kawaiク華麗に宇宙怪盗
|
|
SUBTITLE:--D-D-Dice Vs. Tanchiky
|
|
SUBTITLEJA:打打だいず Vs. Tanchiky「Muse Dash」より
|
|
PREIMAGE:Kawai-ku Karei-ni Uchu Kaitou.png
|
|
BPM:203
|
|
WAVE:Kawai-ku Karei-ni Uchu Kaitou.ogg
|
|
OFFSET:-0.085
|
|
DEMOSTART:54.321
|
|
GENRE:ゲームミュージック
|
|
MAKER:Entharex
|
|
|
|
COURSE:Edit
|
|
LEVEL:10.9
|
|
BALLOON:2,32
|
|
|
|
#START
|
|
#BARLINEOFF
|
|
000
|
|
#SCROLL 1.5
|
|
4,
|
|
#GOGOSTART
|
|
#BARLINEON
|
|
3000
|
|
#SCROLL 1
|
|
111120040030,
|
|
0012122210030040,
|
|
0010101011112020,
|
|
000000200200100100202020100100200200100100
|
|
#GOGOEND
|
|
200100,
|
|
|
|
#GOGOSTART
|
|
#SCROLL 1.5
|
|
3000
|
|
#SCROLL 1
|
|
111120040030,
|
|
0012122210030040,
|
|
0010101012221020,
|
|
000000100100100100101010200200100100200200100000,
|
|
000120110210
|
|
#SCROLL 1.5
|
|
400000300000,
|
|
|
|
#GOGOEND
|
|
#SCROLL 1
|
|
2211202211201122,
|
|
200000100100200100202020100200200100200000
|
|
#GOGOSTART
|
|
#SCROLL 4
|
|
600000,
|
|
#SCROLL 1
|
|
0000000
|
|
#SCROLL 4
|
|
8,
|
|
#SCROLL 2
|
|
30004000
|
|
#SCROLL 1
|
|
1110
|
|
#GOGOEND
|
|
1200,
|
|
|
|
1002100210201022,
|
|
100000200200100100200000100000000000102010201020,
|
|
#GOGOSTART
|
|
#SCROLL 1.5
|
|
400030004000300
|
|
#SCROLL 1
|
|
2,
|
|
10201201
|
|
#SCROLL 1.5
|
|
40403000,
|
|
|
|
#GOGOEND
|
|
#SCROLL 1
|
|
1002100212201022,
|
|
100010200000100100200200100000200200100000000000,
|
|
#GOGOSTART
|
|
#SCROLL 1.5
|
|
4343,
|
|
40
|
|
#SCROLL 1
|
|
22121212117080,
|
|
|
|
#GOGOEND
|
|
1012112210201020,
|
|
1120112010011020,
|
|
#GOGOSTART
|
|
#SCROLL 1.5
|
|
400030004000300
|
|
#SCROLL 1
|
|
2,
|
|
10201201
|
|
#SCROLL 1.5
|
|
4040
|
|
#SCROLL 1
|
|
1111,
|
|
|
|
#GOGOEND
|
|
1012112210201020,
|
|
1122112210111020,
|
|
#GOGOSTART
|
|
#SCROLL 1.5
|
|
400000
|
|
#SCROLL 1
|
|
111100
|
|
#SCROLL 1.5
|
|
400000
|
|
#SCROLL 1
|
|
111100,
|
|
#GOGOEND
|
|
102000000000100000200000100200100200100100200200,
|
|
|
|
100000
|
|
#SCROLL 0.75
|
|
101010200000100100100000200200100200100200,
|
|
100000200100200200100200101010100000102000102000,
|
|
1111201112201212,
|
|
1011201122221212,
|
|
|
|
101010101010200000100100200200200200200200100200,
|
|
100200200100200200100100202020200100200200100200,
|
|
101010101010200000100100100200200200100200100200,
|
|
#MEASURE 3/4
|
|
122110,
|
|
|
|
#SCROLL 1
|
|
322322,
|
|
#MEASURE 4/4
|
|
3020203020201111,
|
|
#MEASURE 3/4
|
|
#SCROLL 1.1
|
|
102120102120,
|
|
#MEASURE 4/4
|
|
100000200100200000100000200100200200102010201020,
|
|
|
|
#MEASURE 2/4
|
|
#SCROLL 1.25
|
|
10111010,
|
|
20111010,
|
|
#SCROLL 1.45
|
|
20111010,
|
|
20111010,
|
|
|
|
#SCROLL 1.7
|
|
21112111,
|
|
21112111,
|
|
#SCROLL 2
|
|
21212121,
|
|
21212121,
|
|
#SCROLL 3
|
|
222222222222,
|
|
#BARLINEOFF
|
|
2
|
|
#SCROLL 1
|
|
11
|
|
#GOGOSTART
|
|
#SCROLL 1.5
|
|
4,
|
|
|
|
#MEASURE 4/4
|
|
#BARLINEON
|
|
#SCROLL 1
|
|
2022102010221011,
|
|
1011221000221110,
|
|
2121212120201120,
|
|
100111200
|
|
#GOGOEND
|
|
100000100100
|
|
#GOGOSTART
|
|
#SCROLL 1.5
|
|
400,
|
|
|
|
#SCROLL 1
|
|
2222102012201122,
|
|
100000101010200200
|
|
#GOGOEND
|
|
100000000000100000100000
|
|
#GOGOSTART
|
|
#SCROLL 1.5
|
|
400000,
|
|
#SCROLL 1
|
|
00
|
|
#GOGOEND
|
|
1110
|
|
#GOGOSTART
|
|
#SCROLL 1.5
|
|
4000
|
|
#GOGOEND
|
|
#SCROLL 1
|
|
1110
|
|
#GOGOSTART
|
|
#SCROLL 1.5
|
|
40,
|
|
#SCROLL 1
|
|
000000100200100200100100202020101010
|
|
#GOGOEND
|
|
000000300000,
|
|
|
|
0011201020221022,
|
|
1122101020112220,
|
|
000000102000202000102000100000200200100000400000,
|
|
00112210201220
|
|
#GOGOSTART
|
|
#SCROLL 1.5
|
|
40,
|
|
|
|
#SCROLL 1
|
|
0022102210102012,
|
|
1211221000112211,
|
|
202020200100100100202020200100100100202020200200,
|
|
100100100100100100100100102010201020102010201020,
|
|
#SCROLL 2
|
|
60000080
|
|
#GOGOEND
|
|
3000
|
|
#SCROLL 1
|
|
1122,
|
|
|
|
12220122,
|
|
01220112,
|
|
100000200000200000111200,
|
|
01000012,
|
|
|
|
1020112010102020,
|
|
1020112010201020,
|
|
1112201022102222,
|
|
200200100100100100101010200200200200202020101010,
|
|
|
|
1022102212021020,
|
|
1022122012021020,
|
|
1022102210221020,
|
|
100000200200100000200000100000202020100000200000,
|
|
|
|
1112122212112010,
|
|
1112122212122010,
|
|
#GOGOSTART
|
|
#SCROLL 1.25
|
|
300010200010201020111010,
|
|
201020100020100222100200,
|
|
|
|
#GOGOEND
|
|
#SCROLL 1
|
|
300000101010100000
|
|
#SCROLL 1.1
|
|
202020200200200000
|
|
#SCROLL 1.2
|
|
101010100100,
|
|
100000
|
|
#SCROLL 1.3
|
|
202020200200200000300000400000000000
|
|
#GOGOSTART
|
|
#SCROLL 2
|
|
300000,
|
|
|
|
#SCROLL 1
|
|
100000100000200000100100200000100000
|
|
#GOGOEND
|
|
202020
|
|
#GOGOSTART
|
|
#SCROLL 2
|
|
300000,
|
|
#SCROLL 1.15
|
|
101020112011
|
|
#GOGOEND
|
|
21
|
|
#GOGOSTART
|
|
#SCROLL 2
|
|
40,
|
|
#SCROLL 1.3
|
|
221112121212
|
|
#GOGOEND
|
|
22
|
|
#GOGOSTART
|
|
#SCROLL 2
|
|
30,
|
|
#BARLINEOFF
|
|
#SCROLL 1.5
|
|
101010200200100000100100200000
|
|
#SCROLL 1
|
|
100000100000
|
|
#GOGOEND
|
|
200000,
|
|
|
|
#BARLINEON
|
|
0000200020222020,
|
|
02220222,
|
|
2022202220222020,
|
|
2022202220202020,
|
|
|
|
2000202020202022,
|
|
2222011
|
|
#GOGOSTART
|
|
#SCROLL 1.5
|
|
4,
|
|
#SCROLL 1
|
|
00
|
|
#GOGOEND
|
|
1110
|
|
#GOGOSTART
|
|
#SCROLL 1.5
|
|
4000
|
|
#GOGOEND
|
|
#SCROLL 1
|
|
1110
|
|
#GOGOSTART
|
|
#SCROLL 1.5
|
|
40,
|
|
#SCROLL 1
|
|
00111212
|
|
#GOGOEND
|
|
101020
|
|
#GOGOSTART
|
|
#SCROLL 1.5
|
|
40,
|
|
|
|
#SCROLL 1
|
|
0010402210302030,
|
|
000400400
|
|
#GOGOEND
|
|
300000222111222,
|
|
#GOGOSTART
|
|
1112122212211211,
|
|
101120
|
|
#GOGOEND
|
|
10001010
|
|
#GOGOSTART
|
|
#SCROLL 1.5
|
|
40,
|
|
|
|
#SCROLL 1
|
|
0022102210201012,
|
|
2011221020112221,
|
|
2221112221111212,
|
|
1112211212121221,
|
|
|
|
2221112221111212,
|
|
111111111111121212121212,
|
|
#SCROLL 2
|
|
60000000000000000000000000000008,
|
|
#BARLINEOFF
|
|
#SCROLL 2.4
|
|
600000000800
|
|
#SCROLL 2.8
|
|
600000000800
|
|
#SCROLL 3.2
|
|
60000080
|
|
#SCROLL 3.6
|
|
60000080
|
|
#SCROLL 4
|
|
60000080
|
|
#SCROLL 4.4
|
|
600800
|
|
#SCROLL 4.8
|
|
600800
|
|
#SCROLL 5.2
|
|
600800
|
|
#SCROLL 5.6
|
|
600800
|
|
#SCROLL 6
|
|
6080
|
|
#SCROLL 6.4
|
|
6080
|
|
#SCROLL 6.8
|
|
6080
|
|
#SCROLL 7.2
|
|
6080
|
|
#SCROLL 7.6
|
|
60800000,
|
|
|
|
#GOGOEND
|
|
#BARLINEON
|
|
#SCROLL 1
|
|
301122102020,
|
|
301122101011,
|
|
301112101020,
|
|
302011221211,
|
|
|
|
321112121211,
|
|
311212121121,
|
|
300010101010200010101111,
|
|
2022222210201030,
|
|
000
|
|
#SCROLL 1.5
|
|
400300400300
|
|
#SCROLL 1
|
|
111200000,
|
|
|
|
#GOGOSTART
|
|
#SCROLL 1.5
|
|
30
|
|
#SCROLL 1
|
|
20112011211212,
|
|
100000102020100000200000
|
|
#GOGOEND
|
|
#SCROLL 1.5
|
|
400000000300000000300000,
|
|
|
|
#GOGOSTART
|
|
30
|
|
#SCROLL 1
|
|
20112011221211,
|
|
12121212
|
|
#GOGOEND
|
|
10
|
|
#SCROLL 3.7
|
|
2
|
|
#SCROLL 3
|
|
2
|
|
#SCROLL 2.4
|
|
2
|
|
#SCROLL 1.9
|
|
2
|
|
#SCROLL 1.5
|
|
2
|
|
#SCROLL 1.2
|
|
2,
|
|
|
|
#GOGOSTART
|
|
#SCROLL 1
|
|
1022102011211212,
|
|
100100200000100100200000100200200100202020101010,
|
|
|
|
#SCROLL 1.5
|
|
4040330
|
|
#SCROLL 2
|
|
4,
|
|
#BARLINEOFF
|
|
00
|
|
#SCROLL 2.5
|
|
400
|
|
#SCROLL 3
|
|
400,
|
|
#SCROLL 3.5
|
|
400000
|
|
#SCROLL 4
|
|
40000000
|
|
#SCROLL 2
|
|
11,
|
|
9,
|
|
0,
|
|
#GOGOEND
|
|
8,
|
|
#BARLINEON
|
|
#SCROLL 1
|
|
0,
|
|
#END
|
|
|
|
COURSE:Oni
|
|
LEVEL:10.1
|
|
BALLOON:2,9,26
|
|
|
|
#START
|
|
#BARLINEOFF
|
|
0004,
|
|
#GOGOSTART
|
|
#BARLINEON
|
|
3000112040040030,
|
|
0012121030030040,
|
|
0010101011102020,
|
|
00201020112211
|
|
#GOGOEND
|
|
20,
|
|
|
|
#GOGOSTART
|
|
3000112040040030,
|
|
0012121030030040,
|
|
0010101011101020,
|
|
0011101120101020,
|
|
0
|
|
#SCROLL 1.5
|
|
4343030,
|
|
|
|
#GOGOEND
|
|
#SCROLL 1
|
|
2211202211201022,
|
|
20112122102120
|
|
#GOGOSTART
|
|
#SCROLL 2
|
|
60,
|
|
#SCROLL 1
|
|
0000000
|
|
#SCROLL 2
|
|
8,
|
|
30004000
|
|
#SCROLL 1
|
|
1110
|
|
#GOGOEND
|
|
1200,
|
|
|
|
1000100210201022,
|
|
1022112010005008,
|
|
#GOGOSTART
|
|
#SCROLL 1.5
|
|
400030004000300
|
|
#SCROLL 1
|
|
1,
|
|
2020100120101000,
|
|
|
|
#GOGOEND
|
|
1000100210201022,
|
|
1220112010221000,
|
|
#GOGOSTART
|
|
#SCROLL 1.5
|
|
4343,
|
|
40
|
|
#SCROLL 1
|
|
22122210117080,
|
|
|
|
#GOGOEND
|
|
1012112210201020,
|
|
1120112010011020,
|
|
#GOGOSTART
|
|
#SCROLL 1.5
|
|
400030004000300
|
|
#SCROLL 1
|
|
2,
|
|
1020100120201111,
|
|
|
|
#GOGOEND
|
|
1012112210201020,
|
|
1120112010011020,
|
|
#GOGOSTART
|
|
4000111040001110,
|
|
#GOGOEND
|
|
1200101020201122,
|
|
|
|
#SCROLL 0.75
|
|
3000201110221212,
|
|
1001201211102020,
|
|
1112201112201010,
|
|
1011201011201010,
|
|
|
|
3000201012222210,
|
|
1021201011210210,
|
|
1110201110201212,
|
|
#MEASURE 3/4
|
|
122110,
|
|
|
|
#SCROLL 1
|
|
301301,
|
|
#MEASURE 4/4
|
|
3000103000101110,
|
|
#MEASURE 3/4
|
|
#SCROLL 1.1
|
|
3333,
|
|
#MEASURE 4/4
|
|
3003003003003011,
|
|
|
|
#MEASURE 2/4
|
|
#SCROLL 1.25
|
|
2111,
|
|
2111,
|
|
#SCROLL 1.45
|
|
2111,
|
|
2111,
|
|
|
|
#SCROLL 1.7
|
|
21102110,
|
|
21102110,
|
|
#SCROLL 2
|
|
21212121,
|
|
22222222,
|
|
#SCROLL 3
|
|
6008,
|
|
#BARLINEOFF
|
|
0
|
|
#SCROLL 1
|
|
11
|
|
#GOGOSTART
|
|
4,
|
|
|
|
#MEASURE 4/4
|
|
#BARLINEON
|
|
0022102010221010,
|
|
0010221000221110,
|
|
2121212120201020,
|
|
101120
|
|
#GOGOEND
|
|
10001010
|
|
#GOGOSTART
|
|
40,
|
|
|
|
0022102010221010,
|
|
001022
|
|
#GOGOEND
|
|
10001010
|
|
#GOGOSTART
|
|
40,
|
|
00
|
|
#GOGOEND
|
|
1110
|
|
#GOGOSTART
|
|
4000
|
|
#GOGOEND
|
|
1110
|
|
#GOGOSTART
|
|
40,
|
|
001212115008
|
|
#GOGOEND
|
|
0030,
|
|
|
|
0011201020201022,
|
|
2020102020112220,
|
|
0020202010221040,
|
|
00112210201220
|
|
#GOGOSTART
|
|
40,
|
|
|
|
0022102010102011,
|
|
1011221000112211,
|
|
2221112221112222,
|
|
1111111122222222,
|
|
#SCROLL 2
|
|
6008
|
|
#GOGOEND
|
|
3000,
|
|
|
|
#SCROLL 1
|
|
10120122,
|
|
01220112,
|
|
1000200020002220,
|
|
01000011,
|
|
|
|
22121011,
|
|
22121212,
|
|
1112201020102222,
|
|
2211101122222221,
|
|
|
|
1020102210101020,
|
|
1012102010201020,
|
|
1022102010221020,
|
|
1022102010211010,
|
|
|
|
1012102212102010,
|
|
1012102211202010,
|
|
#GOGOSTART
|
|
301201212400,
|
|
200010002000100000002000300000200200100000200000,
|
|
|
|
#GOGOEND
|
|
301110
|
|
#SCROLL 1.1
|
|
222220
|
|
#SCROLL 1.2
|
|
1111,
|
|
10
|
|
#SCROLL 1.3
|
|
222220304000
|
|
#GOGOSTART
|
|
#SCROLL 1
|
|
30,
|
|
|
|
101020112010
|
|
#GOGOEND
|
|
20
|
|
#GOGOSTART
|
|
#SCROLL 1.2
|
|
30,
|
|
101020112022
|
|
#GOGOEND
|
|
10
|
|
#GOGOSTART
|
|
#SCROLL 1.4
|
|
40,
|
|
112212121212
|
|
#GOGOEND
|
|
22
|
|
#GOGOSTART
|
|
#SCROLL 2
|
|
70,
|
|
#BARLINEOFF
|
|
00080
|
|
#SCROLL 1
|
|
11
|
|
#GOGOEND
|
|
2,
|
|
|
|
#BARLINEON
|
|
00202222,
|
|
02220222,
|
|
20202022,
|
|
20202222,
|
|
|
|
20202222,
|
|
0222011
|
|
#GOGOSTART
|
|
4,
|
|
00
|
|
#GOGOEND
|
|
1110
|
|
#GOGOSTART
|
|
4000
|
|
#GOGOEND
|
|
1110
|
|
#GOGOSTART
|
|
40,
|
|
00111210
|
|
#GOGOEND
|
|
101020
|
|
#GOGOSTART
|
|
40,
|
|
|
|
0010402210302030,
|
|
004040
|
|
#GOGOEND
|
|
3000500008,
|
|
#GOGOSTART
|
|
1111221122112211,
|
|
112
|
|
#GOGOEND
|
|
1011
|
|
#GOGOSTART
|
|
4,
|
|
|
|
0020102210201020,
|
|
0011221000112211,
|
|
2221112221112222,
|
|
1012121212121212,
|
|
|
|
2021112221111212,
|
|
1111111121212121,
|
|
#SCROLL 2
|
|
60000000000000000000000000000008,
|
|
#BARLINEOFF
|
|
#SCROLL 2.4
|
|
600000000800
|
|
#SCROLL 2.8
|
|
600000000800
|
|
#SCROLL 3.2
|
|
60000080
|
|
#SCROLL 3.6
|
|
60000080
|
|
#SCROLL 4
|
|
60000080
|
|
#SCROLL 4.4
|
|
600800
|
|
#SCROLL 4.8
|
|
600800
|
|
#SCROLL 5.2
|
|
600800
|
|
#SCROLL 5.6
|
|
600800
|
|
#SCROLL 6
|
|
6080
|
|
#SCROLL 6.4
|
|
6080
|
|
#SCROLL 6.8
|
|
6080
|
|
#SCROLL 7.2
|
|
6080
|
|
#SCROLL 7.6
|
|
60800000,
|
|
|
|
#GOGOEND
|
|
#BARLINEON
|
|
#SCROLL 1
|
|
301122102020,
|
|
301122101011,
|
|
301112101020,
|
|
302010221211,
|
|
|
|
301112102011,
|
|
301212101101,
|
|
301111201508,
|
|
2022222220201040,
|
|
0
|
|
#SCROLL 1.5
|
|
4343068,
|
|
|
|
#GOGOSTART
|
|
#SCROLL 1
|
|
3020112010210212,
|
|
10121020
|
|
#GOGOEND
|
|
#SCROLL 1.5
|
|
40030030,
|
|
|
|
#GOGOSTART
|
|
#SCROLL 1
|
|
3020112010210210,
|
|
12121212
|
|
#GOGOEND
|
|
10222222,
|
|
|
|
#GOGOSTART
|
|
1020112010210212,
|
|
1020112012212211,
|
|
|
|
#SCROLL 1.5
|
|
40403304,
|
|
#BARLINEOFF
|
|
00400400,
|
|
40000040000000
|
|
#SCROLL 2
|
|
11,
|
|
9,
|
|
0,
|
|
#GOGOEND
|
|
8,
|
|
#BARLINEON
|
|
#SCROLL 1
|
|
0,
|
|
#END
|
|
|
|
COURSE:Hard
|
|
LEVEL:8
|
|
BALLOON:6,4,6,6,4,22
|
|
|
|
#START
|
|
#BARLINEOFF
|
|
0004,
|
|
#GOGOSTART
|
|
#BARLINEON
|
|
3000101040040030,
|
|
0010100030030040,
|
|
01111022,
|
|
00201020111020
|
|
#GOGOEND
|
|
10,
|
|
|
|
#GOGOSTART
|
|
3000101040040030,
|
|
0010100030030040,
|
|
0010101011101020,
|
|
0011101110201020,
|
|
04343030,
|
|
|
|
#GOGOEND
|
|
22122115,
|
|
8125821
|
|
#GOGOSTART
|
|
6,
|
|
00000008,
|
|
300040001010
|
|
#GOGOEND
|
|
2200,
|
|
|
|
10111212,
|
|
02121058,
|
|
#GOGOSTART
|
|
4343,
|
|
2020100110101000,
|
|
|
|
#GOGOEND
|
|
10111212,
|
|
0022202020111000,
|
|
#GOGOSTART
|
|
4343,
|
|
32222168,
|
|
|
|
#GOGOEND
|
|
10121212,
|
|
11121012,
|
|
#GOGOSTART
|
|
4343,
|
|
2000100220105080,
|
|
|
|
#GOGOEND
|
|
10121212,
|
|
11121012,
|
|
#GOGOSTART
|
|
40584058,
|
|
#GOGOEND
|
|
1100101020001000,
|
|
|
|
#SCROLL 0.75
|
|
30210210,
|
|
1001001010002020,
|
|
10210210,
|
|
11211022,
|
|
|
|
30210201,
|
|
1001001010010010,
|
|
10210258,
|
|
#MEASURE 3/4
|
|
122110,
|
|
|
|
#SCROLL 1
|
|
33,
|
|
#MEASURE 4/4
|
|
30030111,
|
|
#MEASURE 3/4
|
|
#SCROLL 1.1
|
|
3333,
|
|
#MEASURE 4/4
|
|
3003003003003010,
|
|
|
|
#MEASURE 2/4
|
|
#SCROLL 1.2
|
|
2110,
|
|
2110,
|
|
#SCROLL 1.3
|
|
2110,
|
|
2110,
|
|
|
|
#SCROLL 1.45
|
|
2121,
|
|
2121,
|
|
#SCROLL 1.6
|
|
2222,
|
|
22202220,
|
|
#SCROLL 2
|
|
6008,
|
|
#BARLINEOFF
|
|
0
|
|
#SCROLL 1
|
|
11
|
|
#GOGOSTART
|
|
4,
|
|
|
|
#MEASURE 4/4
|
|
#BARLINEON
|
|
02121212,
|
|
01210221,
|
|
50082212,
|
|
112
|
|
#GOGOEND
|
|
1011
|
|
#GOGOSTART
|
|
4,
|
|
|
|
02121212,
|
|
012
|
|
#GOGOEND
|
|
1011
|
|
#GOGOSTART
|
|
4,
|
|
0
|
|
#GOGOEND
|
|
11
|
|
#GOGOSTART
|
|
40
|
|
#GOGOEND
|
|
11
|
|
#GOGOSTART
|
|
6,
|
|
000000000008
|
|
#GOGOEND
|
|
0030,
|
|
|
|
0010201010201022,
|
|
2020102020102220,
|
|
02221124,
|
|
00222010001020
|
|
#GOGOSTART
|
|
40,
|
|
|
|
02121211,
|
|
01110508,
|
|
2011102011102020,
|
|
5008
|
|
#SCROLL 1.5
|
|
7008,
|
|
#SCROLL 2
|
|
6008
|
|
#GOGOEND
|
|
3000,
|
|
|
|
#SCROLL 1
|
|
10120112,
|
|
01220112,
|
|
10202058,
|
|
01000011,
|
|
|
|
22102011,
|
|
22102210,
|
|
1110201020105000,
|
|
00087080,
|
|
|
|
10101112,
|
|
1011100010101020,
|
|
12121220,
|
|
1022202010111010,
|
|
|
|
1011101010102010,
|
|
1011101010102010,
|
|
#GOGOSTART
|
|
300200211400,
|
|
202102300100,
|
|
|
|
#GOGOEND
|
|
608
|
|
#SCROLL 1.3
|
|
608
|
|
#SCROLL 1.6
|
|
60,
|
|
8
|
|
#SCROLL 1.9
|
|
608340
|
|
#GOGOSTART
|
|
#SCROLL 1
|
|
3,
|
|
|
|
012012
|
|
#GOGOEND
|
|
2
|
|
#GOGOSTART
|
|
#SCROLL 1.2
|
|
3,
|
|
012012
|
|
#GOGOEND
|
|
2
|
|
#GOGOSTART
|
|
#SCROLL 1.4
|
|
3,
|
|
101110101020
|
|
#GOGOEND
|
|
22
|
|
#GOGOSTART
|
|
#SCROLL 2
|
|
70,
|
|
#BARLINEOFF
|
|
00080
|
|
#SCROLL 1
|
|
11
|
|
#GOGOEND
|
|
2,
|
|
|
|
#BARLINEON
|
|
00202002,
|
|
02220220,
|
|
20202022,
|
|
2222,
|
|
|
|
20202022,
|
|
0222011
|
|
#GOGOSTART
|
|
4,
|
|
0
|
|
#GOGOEND
|
|
11
|
|
#GOGOSTART
|
|
40
|
|
#GOGOEND
|
|
11
|
|
#GOGOSTART
|
|
6,
|
|
0000
|
|
#GOGOEND
|
|
811
|
|
#GOGOSTART
|
|
4,
|
|
|
|
00301323,
|
|
044
|
|
#GOGOEND
|
|
30508,
|
|
#GOGOSTART
|
|
1010222010201110,
|
|
112
|
|
#GOGOEND
|
|
1011
|
|
#GOGOSTART
|
|
4,
|
|
|
|
02121212,
|
|
01210508,
|
|
21121122,
|
|
11111111,
|
|
|
|
2011102011102020,
|
|
5008
|
|
#SCROLL 1.5
|
|
7008,
|
|
#SCROLL 2
|
|
6,
|
|
#BARLINEOFF
|
|
0008,
|
|
|
|
#GOGOEND
|
|
#BARLINEON
|
|
#SCROLL 1
|
|
300222,
|
|
300111,
|
|
400112,
|
|
401010200100,
|
|
|
|
311222,
|
|
311112,
|
|
401010200508,
|
|
2022202220201040,
|
|
04343068,
|
|
|
|
#GOGOSTART
|
|
3020102010010010,
|
|
10101000
|
|
#GOGOEND
|
|
40030030,
|
|
|
|
#GOGOSTART
|
|
3020102010010010,
|
|
1111
|
|
#GOGOEND
|
|
2508,
|
|
|
|
#GOGOSTART
|
|
3020102010010010,
|
|
12127008,
|
|
|
|
40403304,
|
|
#BARLINEOFF
|
|
00400400,
|
|
40040000,
|
|
#SCROLL 2
|
|
9,
|
|
0,
|
|
#GOGOEND
|
|
8,
|
|
#BARLINEON
|
|
#SCROLL 1
|
|
0,
|
|
#END
|
|
|
|
COURSE:Normal
|
|
LEVEL:7.5
|
|
BALLOON:4,3,5,4,6,3,18
|
|
|
|
#START
|
|
#BARLINEOFF
|
|
0004,
|
|
#GOGOSTART
|
|
#BARLINEON
|
|
3000000040040030,
|
|
0000000030030060,
|
|
00081022,
|
|
0222101
|
|
#GOGOEND
|
|
0,
|
|
|
|
#GOGOSTART
|
|
3000000040040030,
|
|
0000000030030060,
|
|
00081012,
|
|
01112012,
|
|
04444030,
|
|
|
|
#GOGOEND
|
|
20110110,
|
|
0112020
|
|
#GOGOSTART
|
|
6,
|
|
00000008,
|
|
304011
|
|
#GOGOEND
|
|
20,
|
|
|
|
10101111,
|
|
01101058,
|
|
#GOGOSTART
|
|
4343,
|
|
22101110,
|
|
|
|
#GOGOEND
|
|
10101111,
|
|
02202210,
|
|
#GOGOSTART
|
|
4343,
|
|
30101168,
|
|
|
|
#GOGOEND
|
|
10101110,
|
|
11111010,
|
|
#GOGOSTART
|
|
4343,
|
|
20101158,
|
|
|
|
#GOGOEND
|
|
10101110,
|
|
11111010,
|
|
#GOGOSTART
|
|
40584058,
|
|
#GOGOEND
|
|
2,
|
|
|
|
#SCROLL 0.75
|
|
30210210,
|
|
1001001010002000,
|
|
10210210,
|
|
1121,
|
|
|
|
30210201,
|
|
1001001010002000,
|
|
10210258,
|
|
#MEASURE 3/4
|
|
0,
|
|
|
|
#SCROLL 1
|
|
33,
|
|
#MEASURE 4/4
|
|
30030058,
|
|
#MEASURE 3/4
|
|
3333,
|
|
#MEASURE 4/4
|
|
3003003003003000,
|
|
|
|
#MEASURE 2/4
|
|
21,
|
|
21,
|
|
21,
|
|
21,
|
|
|
|
22,
|
|
22,
|
|
2222,
|
|
2222,
|
|
6008,
|
|
#BARLINEOFF
|
|
011
|
|
#GOGOSTART
|
|
4,
|
|
|
|
#MEASURE 4/4
|
|
#BARLINEON
|
|
00202211,
|
|
01110110,
|
|
50082220,
|
|
111
|
|
#GOGOEND
|
|
1011
|
|
#GOGOSTART
|
|
4,
|
|
|
|
00202211,
|
|
011
|
|
#GOGOEND
|
|
1011
|
|
#GOGOSTART
|
|
4,
|
|
0
|
|
#GOGOEND
|
|
11
|
|
#GOGOSTART
|
|
40
|
|
#GOGOEND
|
|
11
|
|
#GOGOSTART
|
|
6,
|
|
000000000008
|
|
#GOGOEND
|
|
0030,
|
|
|
|
01010112,
|
|
02020158,
|
|
02220106,
|
|
0081011
|
|
#GOGOSTART
|
|
4,
|
|
|
|
00202211,
|
|
01110508,
|
|
20120122,
|
|
5008
|
|
#SCROLL 1.5
|
|
7008,
|
|
#SCROLL 2
|
|
6008
|
|
#GOGOEND
|
|
3000,
|
|
|
|
#SCROLL 1
|
|
10000002,
|
|
0,
|
|
10002058,
|
|
01000010,
|
|
|
|
1120,
|
|
1121,
|
|
11201050,
|
|
00087080,
|
|
|
|
10101011,
|
|
1111,
|
|
2222,
|
|
22202020,
|
|
|
|
11101010,
|
|
11101111,
|
|
#GOGOSTART
|
|
4214,
|
|
0221,
|
|
|
|
#GOGOEND
|
|
608
|
|
#SCROLL 1.3
|
|
608
|
|
#SCROLL 1.6
|
|
60,
|
|
8
|
|
#SCROLL 1.9
|
|
608330
|
|
#GOGOSTART
|
|
#SCROLL 1
|
|
3,
|
|
|
|
002020
|
|
#GOGOEND
|
|
2
|
|
#GOGOSTART
|
|
3,
|
|
022022
|
|
#GOGOEND
|
|
0
|
|
#GOGOSTART
|
|
3,
|
|
011112
|
|
#GOGOEND
|
|
2
|
|
#GOGOSTART
|
|
7,
|
|
#BARLINEOFF
|
|
0008000
|
|
#GOGOEND
|
|
2,
|
|
|
|
#BARLINEON
|
|
00002002,
|
|
00020020,
|
|
2222,
|
|
2222,
|
|
|
|
20002002,
|
|
0002011
|
|
#GOGOSTART
|
|
4,
|
|
0
|
|
#GOGOEND
|
|
11
|
|
#GOGOSTART
|
|
40
|
|
#GOGOEND
|
|
11
|
|
#GOGOSTART
|
|
6,
|
|
0000
|
|
#GOGOEND
|
|
800
|
|
#GOGOSTART
|
|
4,
|
|
|
|
00300404,
|
|
033
|
|
#GOGOEND
|
|
30508,
|
|
#GOGOSTART
|
|
12121212,
|
|
112
|
|
#GOGOEND
|
|
1011
|
|
#GOGOSTART
|
|
4,
|
|
|
|
00101122,
|
|
01110508,
|
|
20120122,
|
|
1111,
|
|
|
|
21121122,
|
|
5008
|
|
#SCROLL 1.5
|
|
7008,
|
|
#SCROLL 2
|
|
6,
|
|
#BARLINEOFF
|
|
0008,
|
|
|
|
#GOGOEND
|
|
#BARLINEON
|
|
#SCROLL 1
|
|
300222,
|
|
300111,
|
|
400111,
|
|
400010200100,
|
|
|
|
300222,
|
|
300111,
|
|
400000500008,
|
|
78,
|
|
04444068,
|
|
|
|
#GOGOSTART
|
|
3000100010010010,
|
|
10101000
|
|
#GOGOEND
|
|
30030030,
|
|
|
|
#GOGOSTART
|
|
3000100010010010,
|
|
1110
|
|
#GOGOEND
|
|
1508,
|
|
|
|
#GOGOSTART
|
|
3000100010010010,
|
|
10107008,
|
|
|
|
40403304,
|
|
#BARLINEOFF
|
|
00400400,
|
|
40040000,
|
|
#SCROLL 2
|
|
9,
|
|
0,
|
|
#GOGOEND
|
|
8,
|
|
#BARLINEON
|
|
#SCROLL 1
|
|
0,
|
|
#END
|
|
|
|
COURSE:Easy
|
|
LEVEL:5
|
|
BALLOON:2,2,4,5,12
|
|
|
|
#START
|
|
#BARLINEOFF
|
|
0,
|
|
#GOGOSTART
|
|
#BARLINEON
|
|
3000000030030030,
|
|
0000000030030060,
|
|
0810,
|
|
0020101
|
|
#GOGOEND
|
|
0,
|
|
|
|
#GOGOSTART
|
|
3000000030030030,
|
|
0000000030030060,
|
|
00000802,
|
|
0011,
|
|
0033,
|
|
|
|
#GOGOEND
|
|
10010010,
|
|
0100000
|
|
#GOGOSTART
|
|
6,
|
|
0,
|
|
000
|
|
#GOGOEND
|
|
8,
|
|
|
|
1011,
|
|
11,
|
|
#GOGOSTART
|
|
3333,
|
|
11,
|
|
|
|
#GOGOEND
|
|
1011,
|
|
11,
|
|
#GOGOSTART
|
|
3333,
|
|
6083,
|
|
|
|
#GOGOEND
|
|
11,
|
|
1110,
|
|
#GOGOSTART
|
|
3333,
|
|
10001058,
|
|
|
|
#GOGOEND
|
|
11,
|
|
1110,
|
|
#GOGOSTART
|
|
4141,
|
|
#GOGOEND
|
|
2,
|
|
|
|
#SCROLL 0.75
|
|
30010010,
|
|
12,
|
|
10010010,
|
|
1011,
|
|
|
|
30010010,
|
|
12,
|
|
10010010,
|
|
#MEASURE 3/4
|
|
0,
|
|
|
|
#SCROLL 1
|
|
33,
|
|
#MEASURE 4/4
|
|
30030058,
|
|
#MEASURE 3/4
|
|
34,
|
|
#MEASURE 4/4
|
|
30040010,
|
|
|
|
#MEASURE 2/4
|
|
21,
|
|
01,
|
|
21,
|
|
01,
|
|
|
|
21,
|
|
21,
|
|
22,
|
|
22,
|
|
6008,
|
|
#BARLINEOFF
|
|
000
|
|
#GOGOSTART
|
|
4,
|
|
|
|
#MEASURE 4/4
|
|
#BARLINEON
|
|
0111,
|
|
0201,
|
|
50081010,
|
|
102
|
|
#GOGOEND
|
|
0000
|
|
#GOGOSTART
|
|
4,
|
|
|
|
0111,
|
|
002
|
|
#GOGOEND
|
|
0000
|
|
#GOGOSTART
|
|
4,
|
|
0
|
|
#GOGOEND
|
|
00
|
|
#GOGOSTART
|
|
40
|
|
#GOGOEND
|
|
00
|
|
#GOGOSTART
|
|
6,
|
|
000000000008
|
|
#GOGOEND
|
|
0030,
|
|
|
|
01010002,
|
|
02020058,
|
|
02020206,
|
|
0008000
|
|
#GOGOSTART
|
|
4,
|
|
|
|
0111,
|
|
00200500,
|
|
0,
|
|
00000008,
|
|
#SCROLL 2
|
|
78
|
|
#GOGOEND
|
|
#SCROLL 1
|
|
30,
|
|
|
|
1,
|
|
0,
|
|
0,
|
|
0001,
|
|
|
|
1021,
|
|
12,
|
|
1015,
|
|
00087080,
|
|
|
|
1110,
|
|
1110,
|
|
2222,
|
|
2220,
|
|
|
|
1110,
|
|
1110,
|
|
#GOGOSTART
|
|
4114,
|
|
0221,
|
|
|
|
#GOGOEND
|
|
608
|
|
#SCROLL 1.3
|
|
608
|
|
#SCROLL 1.6
|
|
60,
|
|
8
|
|
#SCROLL 1.9
|
|
608
|
|
#SCROLL 1
|
|
300
|
|
#GOGOSTART
|
|
3,
|
|
|
|
000010
|
|
#GOGOEND
|
|
0
|
|
#GOGOSTART
|
|
3,
|
|
000010
|
|
#GOGOEND
|
|
0
|
|
#GOGOSTART
|
|
3,
|
|
010101
|
|
#GOGOEND
|
|
0
|
|
#GOGOSTART
|
|
7,
|
|
#BARLINEOFF
|
|
0008000
|
|
#GOGOEND
|
|
2,
|
|
|
|
#BARLINEON
|
|
02,
|
|
00020000,
|
|
22,
|
|
2222,
|
|
|
|
22,
|
|
0002000
|
|
#GOGOSTART
|
|
4,
|
|
0
|
|
#GOGOEND
|
|
00
|
|
#GOGOSTART
|
|
40
|
|
#GOGOEND
|
|
00
|
|
#GOGOSTART
|
|
6,
|
|
0000
|
|
#GOGOEND
|
|
800
|
|
#GOGOSTART
|
|
4,
|
|
|
|
00300404,
|
|
000
|
|
#GOGOEND
|
|
30508,
|
|
#GOGOSTART
|
|
1111,
|
|
200
|
|
#GOGOEND
|
|
1000
|
|
#GOGOSTART
|
|
4,
|
|
|
|
0111,
|
|
00200500,
|
|
00000008,
|
|
1111,
|
|
|
|
5,
|
|
00000008,
|
|
#SCROLL 2
|
|
6,
|
|
#BARLINEOFF
|
|
0008,
|
|
|
|
#GOGOEND
|
|
#BARLINEON
|
|
#SCROLL 1
|
|
31,
|
|
31,
|
|
300101,
|
|
3011,
|
|
|
|
31,
|
|
31,
|
|
300000500008,
|
|
78,
|
|
0043,
|
|
|
|
#GOGOSTART
|
|
3111,
|
|
1010
|
|
#GOGOEND
|
|
3003,
|
|
|
|
#GOGOSTART
|
|
3111,
|
|
1010
|
|
#GOGOEND
|
|
5008,
|
|
|
|
#GOGOSTART
|
|
3111,
|
|
10105008,
|
|
|
|
40403304,
|
|
#BARLINEOFF
|
|
00400400,
|
|
40040000,
|
|
#SCROLL 2
|
|
9,
|
|
0,
|
|
#GOGOEND
|
|
8,
|
|
#BARLINEON
|
|
#SCROLL 1
|
|
0,
|
|
#END
|