Files

677 lines
7.3 KiB
Plaintext

TITLE:Xepher
TITLEJA:Xepher
SUBTITLE:--Tatsh
SUBTITLEJA:Tatsh「beatmania IIDX 12 HAPPY SKY」より
PREIMAGE:Xepher.png
BPM:340
WAVE:Xepher.ogg
OFFSET:0
DEMOSTART:53.6471
GENRE:ゲームミュージック
MAKER:Entharex
COURSE:Edit
LEVEL:11.1
BALLOON:24
#START
#MEASURE 8/4
#BARLINEOFF
0
#SCROLL 2
4,
#BARLINEON
#SCROLL 0.375
111211222122,
101010201010111020111010,
222020102020101020101020,
101010201010111020111010,
222010201010202020102020,
101010201010111020111111,
222210222010111010201010,
111010222020111020222010,
100000111010100000222020,
100000102020122020111010,
111020102020122020102020,
122020102020111010111010,
122020102020101010201010,
202020102020122020111222,
222210222010111010111010,
122122122122,
112020112020112020112222,
7,
08,
#GOGOSTART
#SCROLL 1
11201011201011201011201040000000,
11201011201011201011201030003000,
11201011201011201011201040404000,
#GOGOEND
1212212122111212,
#GOGOSTART
11102011102011102011102040000000,
11102011102011102011102030003000,
11102011102011102011102040000000,
1022102022222220,
#GOGOEND
#SCROLL 0.5
4010400020120210,
3020302022112210,
4010400020120210,
300000200000300000200000101020000200000100200000,
4010400020120210,
300000200000300000200000200000201010000200100000,
3020301202101020,
1212121211112222,
#SCROLL 0.666667
1010202011112121,
#SCROLL 0.75
111111111111111111111111,
#SCROLL 1
3034,
#GOGOSTART
1122122211221222,
11102020101020201010202010102020,
11102020101020201110202010102020,
11201020102010201020202010202020,
11102020102020201020202010202020,
11102020101020201110202010102020,
11112020101020201111202010102020,
11112020101020201020102011221122,
10102020101020201110202010102020,
11102020101020201120102010201020,
10221010221010221010221040000000,
10221010221010221010221030003000,
10221010221010221010221040404000,
#GOGOEND
1122112212221111,
#GOGOSTART
10112010112010112010112040000000,
10112010112010112010112030003000,
10112010112010112010112040000000,
1022102022222220,
#GOGOEND
#SCROLL 0.5
4334,
1112211211212210,
4334,
2211212211221121,
#SCROLL 0.75
1011121210221122,
1122122112211211,
1022112210221111,
1221121212211110,
30303030
#SCROLL 1
33333333,
#GOGOSTART
1122112211221122,
11102020101020201010201010201020,
11101020102010201010202010102020,
11102020101020201110202010102020,
11201020102010201020202010202020,
11102020102020201020202010202020,
11102020101020201110202010201020,
11112020101020201111202010102020,
11112020101020201020102011221122,
10102020101020201110201010102010,
#GOGOEND
3011,
#GOGOSTART
11101010100010200010200030004000,
11101010100010200010200030004000,
11202010200020100010200030004000,
11202010200020100010200030004000,
#GOGOEND
1222202202204030,
0,
10102020202010101111222211221212,
#SCROLL 2
3,
#SCROLL 1
0,
#END
COURSE:Oni
LEVEL:9.8
BALLOON:18
#START
#MEASURE 8/4
#BARLINEOFF
#SCROLL 0.5
04,
#BARLINEON
100111200222,
100111212211,
200222100112,
100121222122,
100111200222,
100121222111,
200200200200100100100100100010002000100020001000,
221122112212,
100111100212,
100121122112,
100111200222,
100121122122,
100111200211,
200112122121,
200200200200100100100100100010001000200010001000,
200222100222,
122122122122,
7,
08,
#GOGOSTART
2210210212211000,
2210210212211010,
2210210212212220,
#GOGOEND
1211212122111210,
#GOGOSTART
1120120121221000,
1120120121221010,
1120120121221000,
1000100022222220,
#GOGOEND
4010400020120210,
3020300010221020,
4010400020120210,
3020300012020120,
4010400020120210,
3020300020210210,
3020301202101020,
1212121210102020,
11222211,
1111111111111111,
1,
#GOGOSTART
1022122210121121,
1222100011221122,
1022101210221122,
1122100012221122,
1211100011221222,
1022112210221122,
1012111210221122,
1222122212221212,
1000112211221122,
1122112212121210,
2210210212211000,
2210210212211010,
2210210212212220,
#GOGOEND
1211212122111210,
#GOGOSTART
1120120121221000,
1120120121221010,
1120120121221000,
1000100022222220,
#GOGOEND
4334,
1012201210112210,
4334,
2011202210221120,
1011101210121120,
1021102210221110,
1022102110111110,
1221101210211110,
33333344,
#GOGOSTART
1112101210121022,
1022122110121122,
1122100011221122,
1022101210221112,
1122100012221122,
1211100011221222,
1022112210221122,
1012111210221122,
1222122212221212,
1222121211121121,
#GOGOEND
1011,
#GOGOSTART
1111101101103040,
1111101101103040,
1111201202103040,
1111201202103040,
#GOGOEND
1222202202204030,
0,
#SCROLL 1
60000008,
3,
#SCROLL 0.5
0,
#END
COURSE:Hard
LEVEL:7
BALLOON:14,8,8
#START
#MEASURE 8/4
#BARLINEOFF
#SCROLL 0.5
04,
#BARLINEON
100111100100,
100111100100,
100111100111,
100100222200,
100111100100,
100111100100,
222200100100,
200222222200,
300111100100,
100111100100,
100111100111,
100100111100,
100111100100,
100111100100,
200222200200,
200222200222,
200222222200,
7,
08,
#GOGOSTART
1011011011004000,
1011011011003030,
1011011011002220,
#GOGOEND
1010201020101110,
#GOGOSTART
1011011011004000,
1011011011003030,
1011011011002220,
1000100020202220,
#GOGOEND
4000400020110110,
30302121,
4000400020110110,
3000300011020220,
4000400020110110,
3000300020220110,
1000102202202010,
11221020,
11222211,
50000008,
3,
#GOGOSTART
1011101010111010,
2022200010001000,
1414,
1011100010001000,
1011101010002000,
2022202010111010,
1011100020222000,
5008,
1221,
2022202010111010,
1011011011004000,
1011011011003030,
1011011011002220,
#GOGOEND
1010201020101110,
#GOGOSTART
1011011011004000,
1011011011003030,
1011011011002220,
1000100020202220,
#GOGOEND
2112,
7008,
2112,
7008,
1011101010102000,
1011101020102000,
1022201010201000,
2220101011101000,
33333333,
#GOGOSTART
3000111010102010,
1011101020111010,
2022200010001000,
1414,
1011100010001000,
2011101010002000,
2022202010111010,
1011100020222000,
5,
0008,
#GOGOEND
3011,
#GOGOSTART
1011101101103040,
1011101101103040,
1110101101103040,
1110101101103040,
#GOGOEND
2220202202204030,
0,
#SCROLL 1
60000008,
3,
#SCROLL 0.5
0,
#END
COURSE:Normal
LEVEL:5
BALLOON:6,6
#START
#MEASURE 8/4
#BARLINEOFF
#SCROLL 0.5
04,
#BARLINEON
12,
1011,
1001,
12,
12,
1011,
5081,
12,
3011,
1001,
12,
12,
12,
1011,
5008,
6,
0008,
3,
0,
#GOGOSTART
1001001010004000,
1001001010003030,
1001001010006080,
#GOGOEND
11102010,
#GOGOSTART
1001001010004000,
1001001010003030,
1001001010004000,
10105008,
#GOGOEND
4440,
3321,
4440,
3000300010010000,
4440,
3340,
1000100100001000,
11101020,
11111011,
5008,
3,
#GOGOSTART
10101011,
1211,
1414,
1011,
2012,
20001011,
1212,
5008,
1222,
1414,
1001001010004000,
1001001010003030,
1001001010006080,
#GOGOEND
11102011,
#GOGOSTART
1001001010004000,
1001001010003030,
1001001010004000,
10105008,
#GOGOEND
2112,
7008,
2112,
7008,
10101110,
10101111,
10101110,
20201110,
6008,
#GOGOSTART
3111,
10101011,
1211,
1414,
1011,
2012,
20001011,
1212,
5,
0008,
#GOGOEND
3011,
#GOGOSTART
11011030,
11011030,
11011030,
11011030,
#GOGOEND
22022033,
0,
6008,
3,
0,
#END
COURSE:Easy
LEVEL:3
#START
#MEASURE 8/4
#BARLINEOFF
#SCROLL 0.5
04,
#BARLINEON
11,
11,
1001,
12,
11,
11,
5081,
1,
3001,
1001,
11,
12,
11,
1,
5008,
6,
0008,
3,
0,
#GOGOSTART
10010040,
10010030,
10010040,
#GOGOEND
5008,
#GOGOSTART
10010040,
10010030,
10010040,
1158,
#GOGOEND
4440,
1110,
4440,
1110,
4440,
1110,
1001,
1110,
1111,
5008,
3,
#GOGOSTART
1110,
1011,
11,
1011,
1011,
11,
11,
5008,
1111,
11,
10010040,
10010030,
10010040,
#GOGOEND
5008,
#GOGOSTART
10010040,
10010030,
10010040,
1158,
#GOGOEND
2222,
0,
2222,
0,
1011,
1011,
1011,
1111,
6008,
#GOGOSTART
3011,
11,
1011,
11,
1011,
1011,
11,
11,
5,
0008,
#GOGOEND
3,
#GOGOSTART
10010030,
10010030,
10010030,
10010030,
#GOGOEND
00000033,
0,
6008,
3,
0,
#END