Files
Entharex-Custom-Charts/Game Music/Designant./Designant..tja
T

4623 lines
43 KiB
Plaintext

TITLE:Designant.
TITLEJA:Designant.
SUBTITLE:--Designant
SUBTITLEJA:Designant 「Arcaea」より
PREIMAGE:Designant..png
BPM:200
WAVE:Designant..ogg
OFFSET:-1.646
DEMOSTART:49.59
GENRE:ゲームミュージック
MAKER:Entharex
COURSE:Edit
LEVEL:12.2
BALLOON:5,1,1,1,999,1,1,4,1,1,1,1,1
#START
30202200,
20202200,
10101100,
100000000000000000000000100000000000100010001000100010001000100000000000100100100100200200200000,
12120120,
12120140,
3000301120301120,
300000000000200000200000200000000000
#SCROLL 2
100010001000200000000000100000000000200200200200200200200000,
3
#SCROLL 1
000122010221020,
102020200200100000200200100200200000100200100000,
1020122010221020,
100000200200100200202020100100100100202020100000,
1000302212201220,
30002010200030002010200030001111,
1010300010221111,
202020100100202020100200200100200200102020102020,
#SCROLL 2
3000
#SCROLL 1
101210201220,
3000122210221210,
300000000000100200000200102020200200100000200000,
300000200000100200200200100000200200100200102020,
100100100100100100100100100000200000200000
#SCROLL 1.25
102020,
100100100100100100100100100000200000200000
#SCROLL 1.5
102020,
100100100100100100100100
#SCROLL 1.52
20
#SCROLL 1.54
20
#SCROLL 1.56
10
#SCROLL 1.59
10
#SCROLL 1.62
20
#SCROLL 1.65
20
#SCROLL 1.69
10
#SCROLL 1.73
10
#SCROLL 1.77
20
#SCROLL 1.82
10
#SCROLL 1.87
20
#SCROLL 1.92
10,
#MEASURE 1/16
#SCROLL 2
70
#SCROLL 1.8
0,
0
#SCROLL 1.6
00,
#SCROLL 1.4
00
#SCROLL 1.25
0,
0
#SCROLL 1.15
00,
#SCROLL 1.1
80
#SCROLL 1.05
0,
0
#SCROLL 1.02
0
0,
#SCROLL 1
#BARLINEOFF
202,
020,
200,
100,
200,
100,
200,
000,
100,
000,
#BARLINEON
#SCROLL 2
#MEASURE 4/4
#GOGOSTART
300111100300000300000300,
000000000000300000000000
#GOGOEND
#SCROLL 1
100010001000100000100000200000000000200200200200100010001000100010001000,
#GOGOSTART
#SCROLL 2
300100300111100300000300,
000000000000300000000000
#GOGOEND
#SCROLL 1
200010001000200000100000200000000000200200200200200200200200200200200200,
#GOGOSTART
#SCROLL 2
33030303,
000000000000300000000000
#GOGOEND
#SCROLL 1
100010001000100000100000200000000000200200200200200000200000100010001000,
100000200000100000100000200000200000200000200000100000000000200020002000200200200200100000000000,
#SCROLL 1.01
200000
#SCROLL 1.02
200000
#SCROLL 1.03
100000
#SCROLL 1.04
100000
#SCROLL 1.05
1000
#SCROLL 1.06
2000
#SCROLL 1.07
1000
#SCROLL 1.09
2000
#SCROLL 1.11
1000
#SCROLL 1.13
2000
#SCROLL 1.16
1000
#SCROLL 1.2
0000
#SCROLL 1.25
0000
#SCROLL 1.3
2000
#SCROLL 1.35
2000
#SCROLL 1.4
2000
#SCROLL 1.46
200
#SCROLL 1.52
200
#SCROLL 1.58
200
#SCROLL 1.63
200
#SCROLL 1.7
700000800000,
#GOGOSTART
#SCROLL 2
300111100300000300000300,
000000000000300000000000
#GOGOEND
#SCROLL 1
200020002000200000200000100000000000100020002000100100200200100100200200,
#GOGOSTART
#SCROLL 2
300100300111100300000300,
000000000000300000000000
#GOGOEND
#SCROLL 1
200020002000200000200000100000100000200020002000100100100100100100100100,
#GOGOSTART
#SCROLL 2
33030303,
000000000000300000000000
#GOGOEND
#SCROLL 1
200020002000200000200000100000100000200000200000100020001000200010002000,
100200200200200200200000100000000000100000000000
#SCROLL 1.01
100000000000
#SCROLL 1.02
100000
#SCROLL 1.03
100000
#SCROLL 1.04
1000
#SCROLL 1.05
1000
#SCROLL 1.06
1000
#SCROLL 1.07
1000
#SCROLL 1.09
1000
#SCROLL 1.11
0000,
#SCROLL 1.13
1
#SCROLL 1.15
1
#SCROLL 1.18
1
#SCROLL 1.21
1
#SCROLL 1.24
1
#SCROLL 1.27
1
#SCROLL 1.31
1
#SCROLL 1.35
0
#SCROLL 1.39
2
#SCROLL 1.43
2
#SCROLL 1.47
2
#SCROLL 1.52
2
#SCROLL 1.57
2
#SCROLL 1.62
2
#SCROLL 1.67
2
#SCROLL 1.72
2
#SCROLL 1.77
70008000
#SCROLL 2
10002000,
#GOGOSTART
30
#SCROLL 1
20102210221110,
100000200200100200200000101010200200101010102020,
1020102210221110,
100000000000200000200000100010001000200000200000100010001000100000100000200020002000200200200200,
1022102212201110,
100000200200100200200000101010200200101010101010,
100000200200100000200200100200200000101010100000,
200000000000100000100000100000200000100000200000200010002000100020002000100100100100200000000000,
1022101222101210,
100000200200100000100000101010200100200100202020,
100000200200100000200000100200200200100000202020,
100000000000200000200000100000000000200000000000100010001000200000100000200020002000200200200200,
1110102012221020,
100000100000100000000000100000000000100000200000100000000000200020002000100100100100200000000000,
100100100000100000100200102020102020102020700000,
8000
#SCROLL 2
112211221212,
#GOGOEND
#SCROLL 1
3000112110400040,
0000001220202010,
3000112110400040,
000100200000111111111110,
300000000000200000202020100000100100200200200000,
100000100200200200100000202020100100202020202020,
100200100100100000200000100000100100202020100000,
20001000200020001111201022222000,
#MEASURE 2/4
#SCROLL 1.5
400000
#SCROLL 1
111111,
211111,
211111101010,
211010101010,
#SCROLL 1.5
40
#SCROLL 1
1010101011,
201010101011,
211010111011,
211111101010,
#BPMCHANGE 180
#SCROLL 1.6667
400
#SCROLL 1
101,
211211,
#BPMCHANGE 170
#SCROLL 1.5
4
#SCROLL 1
11211,
#SCROLL 1.4118
4
#SCROLL 0.9412
11211,
#BPMCHANGE 150
#SCROLL 1.5
4
#SCROLL 1
11211,
#BPMCHANGE 130
#SCROLL 1.5
4
#SCROLL 1
11211,
#BPMCHANGE 100
111111111111100010002000,
111111111111100020001000,
#GOGOSTART
#BPMCHANGE 97.1659919
#MEASURE 1/64
#SCROLL 10
7,
#SCROLL 53
0,
#SCROLL 51.5
0,
#SCROLL 50
0,
#SCROLL 48.6
0,
#SCROLL 47.2
0,
#SCROLL 45.8
0,
#SCROLL 44.4
0,
#SCROLL 43
0,
#SCROLL 41.7
0,
#SCROLL 40.4
0,
#SCROLL 39.1
0,
#SCROLL 37.8
0,
#SCROLL 36.5
0,
#SCROLL 35.3
0,
#SCROLL 34.1
0,
#SCROLL 32.9
0,
#SCROLL 31.7
0,
#SCROLL 30.5
0,
#SCROLL 29.4
0,
#SCROLL 28.3
0,
#SCROLL 27.2
0,
#SCROLL 26.1
0,
#SCROLL 25
0,
#SCROLL 24
0,
#SCROLL 23
0,
#SCROLL 22
0,
#SCROLL 21
0,
#SCROLL 20
0,
#SCROLL 19.1
0,
#SCROLL 18.2
0,
#SCROLL 17.3
0,
#SCROLL 16.4
0,
#SCROLL 15.5
0,
#SCROLL 14.7
0,
#SCROLL 13.9
0,
#SCROLL 13.1
0,
#SCROLL 12.3
0,
#SCROLL 11.5
0,
#SCROLL 10.8
0,
#SCROLL 10.1
0,
#SCROLL 9.4
0,
#SCROLL 8.7
0,
#SCROLL 8
0,
#SCROLL 7.6
0,
#SCROLL 7.2
0,
#SCROLL 6.8
0,
#SCROLL 6.4
0,
#SCROLL 6
8,
#SCROLL 5.7
0,
#SCROLL 5.4
0,
#SCROLL 5.1
0,
#SCROLL 4.8
0,
#SCROLL 4.5
0,
#SCROLL 4.3
0,
#SCROLL 4.1
0,
#SCROLL 3.9
0,
#SCROLL 3.7
0,
#SCROLL 3.5
0,
#SCROLL 3.4
0,
#SCROLL 3.3
0,
#SCROLL 3.2
0,
#SCROLL 3.1
0,
#SCROLL 3
0,
#BARLINEOFF
#MEASURE 4/4
#BPMCHANGE 110
#SCROLL 1.1818
22202020
#BPMCHANGE 115
#SCROLL 1.1304
20002020
#BPMCHANGE 120
#SCROLL 1.0833
00201110
#BPMCHANGE 130
#SCROLL 3
40000000,
#GOGOEND
#BARLINEON
#BPMCHANGE 140
#SCROLL 1
30002222102220201020202010202020,
10202220102022201020222010202220,
#SCROLL 1.2
30
#SCROLL 1
222020102220201020202010222020,
10222220102022201020222210202220,
#SCROLL 1.2
30
#SCROLL 1
111110102220201020202010202020,
10202220102022201020222010221220,
#SCROLL 1.6
30222030222078003022203022207800,
#SCROLL 2.4
11110000111100005008000070080000,
#BPMCHANGE 150
#MEASURE 1/4
30
#SCROLL 1
111110,
#SCROLL 1.2
10
#SCROLL 1
222020,
#SCROLL 1.2
10
#SCROLL 1
202020,
#SCROLL 1.2
10
#SCROLL 1
202020,
#SCROLL 1.2
10
#SCROLL 1
202220,
#SCROLL 1.2
10
#SCROLL 1
202220,
#SCROLL 1.2
10
#SCROLL 1
202220,
#SCROLL 1.2
1000
#SCROLL 1
1010,
#BPMCHANGE 155
#SCROLL 1.2
3000
#SCROLL 1
2222,
#SCROLL 1.2
10
#SCROLL 1
222020,
#SCROLL 1.2
10
#SCROLL 1
202020,
#SCROLL 1.2
10
#SCROLL 1
222020,
#SCROLL 1.2
10
#SCROLL 1
222220,
#SCROLL 1.2
10
#SCROLL 1
202220,
#SCROLL 1.2
10
#SCROLL 1
202222,
#SCROLL 1.2
10
#SCROLL 1
202220,
#BPMCHANGE 160
#SCROLL 1.2
30
#SCROLL 1
22,
#SCROLL 1.2
10
#SCROLL 1
222020,
#SCROLL 1.2
1
#SCROLL 1
222,
#SCROLL 1.2
1
#SCROLL 1
222,
#SCROLL 1.2
10
#SCROLL 1
202220,
#SCROLL 1.2
10
#SCROLL 1
202220,
#SCROLL 1.2
10
#SCROLL 1
202220,
#SCROLL 1.2
10
#SCROLL 1
202220,
#BPMCHANGE 165
#SCROLL 0.9697
101000
#SCROLL 1.2
40,
00
#SCROLL 1
221210,
101000
#SCROLL 1.2
40,
00
#SCROLL 1
111110,
#SCROLL 1.44
40
#SCROLL 1.2
101010,
#SCROLL 1.44
40
#SCROLL 1.2
101010,
#SCROLL 1.44
40
#SCROLL 1.2
111110,
20202110,
#BPMCHANGE 170
#SCROLL 1.44
30
#SCROLL 1
22,
#SCROLL 1.2
10
#SCROLL 1
222020,
#BPMCHANGE 175
#SCROLL 1.2
1
#SCROLL 1
222,
#SCROLL 1.2
1
#SCROLL 1
222,
#BPMCHANGE 180
#SCROLL 1.2
10
#SCROLL 1
202220,
#SCROLL 1.2
10
#SCROLL 1
202220,
#BPMCHANGE 185
#SCROLL 1.2
10
#SCROLL 1
202220,
#SCROLL 1.2
10
#SCROLL 1
202220,
#BPMCHANGE 190
#SCROLL 1.2
30
#SCROLL 1
22,
#SCROLL 1.2
10
#SCROLL 1
222020,
#BPMCHANGE 195
#SCROLL 1.2
1
#SCROLL 1
222,
#SCROLL 1.2
1
#SCROLL 1
222,
#BPMCHANGE 200
#SCROLL 1.2
1
#SCROLL 1
222,
#SCROLL 1.2
1
#SCROLL 1
222,
#BPMCHANGE 205
#SCROLL 1.2
1
#SCROLL 1
22
#SCROLL 1.2
1,
#SCROLL 1
222
#SCROLL 1.2
100,
#BPMCHANGE 210
30
#SCROLL 1
22,
#SCROLL 1.2
1
#SCROLL 1
222,
#BPMCHANGE 215
#SCROLL 1.2
1
#SCROLL 1
222,
#SCROLL 1.2
1
#SCROLL 1
222,
#BPMCHANGE 220
#SCROLL 1.2
1
#SCROLL 1
222,
#SCROLL 1.2
1
#SCROLL 1
222,
#BPMCHANGE 225
#SCROLL 1.2
1
#SCROLL 1
222,
#SCROLL 1.2
1
#SCROLL 1
22220,
#BPMCHANGE 230
#SCROLL 1.2
300
#SCROLL 1
2,
1222,
#BPMCHANGE 235
#SCROLL 0.9787
1111,
1010,
#BPMCHANGE 240
#SCROLL 1.2
400
#SCROLL 1
222,
1012,
#BPMCHANGE 245
#SCROLL 0.9796
2211,
10
22,
#BPMCHANGE 250
#GOGOSTART
#SCROLL 2.4
78,
#GOGOEND
#SCROLL 1
11,
#BPMCHANGE 255
#SCROLL 1.2
20
#SCROLL 1
12,
1022,
#BPMCHANGE 260
#GOGOSTART
#SCROLL 2.4
78,
#GOGOEND
#SCROLL 1
11,
#BPMCHANGE 265
#SCROLL 1.2
20
#SCROLL 1
12,
1022,
#BPMCHANGE 270
#GOGOSTART
#SCROLL 2.4
78,
#GOGOEND
#SCROLL 1
11,
#BPMCHANGE 275
#SCROLL 1.2
20
#SCROLL 1
12,
1022,
#BPMCHANGE 280
#GOGOSTART
#SCROLL 2.4
78,
#GOGOEND
#SCROLL 1
11,
#BPMCHANGE 285
#SCROLL 1.2
200000
#SCROLL 1
202020,
1220,
#BPMCHANGE 290
#GOGOSTART
#SCROLL 1.2
300
#GOGOEND
4,
#BPMCHANGE 295
#SCROLL 1.1797
0022,
#BPMCHANGE 300
#GOGOSTART
#SCROLL 1.2
300
#GOGOEND
4,
#BPMCHANGE 305
#SCROLL 1.1803
0022,
#BPMCHANGE 310
#GOGOSTART
#SCROLL 1.2
300
#GOGOEND
4,
#BPMCHANGE 315
#SCROLL 1.1810
0022,
#BPMCHANGE 320
#GOGOSTART
#SCROLL 1.2
300
#GOGOEND
4,
#BPMCHANGE 325
#SCROLL 1.1815
02,
#GOGOSTART
#SCROLL 1.2
#BPMCHANGE 330
32,
#BPMCHANGE 335
32,
#BPMCHANGE 340
32,
#BPMCHANGE 345
32,
#MEASURE 1/8
#BPMCHANGE 350
302,
020,
302,
020,
302,
020,
302,
020,
#MEASURE 1/16
1,
2,
2,
2,
1,
2,
2,
2,
1,
2,
2,
2,
1,
2,
2,
2,
#MEASURE 4/4
1222222222222222,
#BARLINEOFF
2222222222222222,
#BPMCHANGE 400
#MEASURE 2/4
#SCROLL 1.05
2222222,
222222,
22222,
2222,
#GOGOEND
#BARLINEON
#MEASURE 1/16
#SCROLL 9
0,
#SCROLL 4
0,
#SCROLL 5
0,
#SCROLL 2
0,
#SCROLL 3
0,
#SCROLL 4
0,
#SCROLL 2
0,
#SCROLL 3
0,
#SCROLL 1.8
0,
#BARLINEOFF
0,
#BARLINEON
#SCROLL 4
0,
#SCROLL 8
0,
#SCROLL 7
0,
#SCROLL 3
0,
#SCROLL 2
0,
#SCROLL 8
0,
#SCROLL 6
0,
#SCROLL 4
0,
#SCROLL 5
0,
#SCROLL 7
0,
#SCROLL 3
0,
#SCROLL 2
0,
#SCROLL 6
0,
#SCROLL 9
0,
#BARLINEOFF
0,
0,
0,
#BARLINEON
#SCROLL 5
0,
#SCROLL 6
0,
#SCROLL 8
0,
#SCROLL 11
0,
#SCROLL 7
0,
#MEASURE 2/4
#BPMCHANGE 100
#SCROLL 10
0,
#MEASURE 4/4
#SCROLL 1
1010
#BPMCHANGE 110
#SCROLL 0.9091
1020
#BPMCHANGE 120
#SCROLL 0.8333
2010
#BPMCHANGE 130
#SCROLL 0.7692
120
#SCROLL 1.0769
1,
#BPMCHANGE 140
#SCROLL 1
20
#BPMCHANGE 150
#SCROLL 0.9333
20
#BPMCHANGE 160
#SCROLL 0.875
10
#BPMCHANGE 170
#SCROLL 0.8235
20
#BPMCHANGE 180
#SCROLL 0.7778
11
#BPMCHANGE 185
#SCROLL 0.7568
11
#BPMCHANGE 190
#SCROLL 4
40
#BPMCHANGE 195
#SCROLL 1
00,
#GOGOSTART
#BPMCHANGE 400
#MEASURE 8/4
#SCROLL 0.625
10102000100020001020221020001000,
20201000102020221010200020001020,
10102000100020001020221020001000,
20201000102010111020200020001020,
10102000100011201022112010002000,
10102000100011201011222010001000,
100010001000200000000000100000000000200000200200100010001000200000000000100000200000000000200000,
#SCROLL 0.9375
100100100010001000100000200200100010001000100000100020001000200200100100
#GOGOEND
700000800000000000000000,
#GOGOSTART
#SCROLL 0.75
30002010101020001020221020001000,
20102000101020221010200010001020,
10102010101020001020221020001000,
200000100000200000000000100010001000200000200200100000100000200000000000100000000000100000200000,
10102000100011201022112010002000,
101020001000112010112222100010
#GOGOEND
20,
#SCROLL 1.5
#GOGOSTART
30000000
#SCROLL 0.75
2222222
#GOGOEND
2
#SCROLL 1.5
#GOGOSTART
30000000
#SCROLL 0.75
2222222
#GOGOEND
2,
#SCROLL 1.5
#GOGOSTART
3000
#SCROLL 0.75
2222222
#GOGOEND
2
#SCROLL 1.5
#GOGOSTART
3000
#SCROLL 0.75
2222222
#GOGOEND
2
#SCROLL 1.5
#GOGOSTART
3000
#SCROLL 0.75
222
#GOGOEND
2,
#GOGOSTART
#SCROLL 1.75
300000
#SCROLL 0.875
200200101020200200101010200200101010100200,
10102010112010112010201011201020,
102020200100100100202020200100100100202020200100,
100000100000200000100000100000100000200000100000100000200000100000200000200020002000100200200000,
102020200200101020200200101010200200101010100200,
10102010112010112010201011201020,
200020002000200100200100100000100000200020002000200100200100100000100000200020002000100010001000,
#SCROLL 1
22221010211110102211111122121212,
#SCROLL 1.5
3000003330030030,
#BPMCHANGE 200
#MEASURE 2/4
#SCROLL 3
3
#BPMCHANGE 150
#SCROLL 4
4,
#MEASURE 4/4
#BPMCHANGE 75
#SCROLL 12
#GOGOEND
#MEASURE 1/32
6,
#SCROLL 13
0,
#SCROLL 14
0,
#SCROLL 15
0,
#SCROLL 16
0,
#SCROLL 18
0,
#SCROLL 20
0,
#SCROLL 22
0,
#SCROLL 24
0,
#SCROLL 27
0,
#SCROLL 30
0,
#SCROLL 33
0,
#SCROLL 36
0,
#SCROLL 40
0,
#SCROLL 44
0,
#SCROLL 48
0,
#SCROLL 52
0,
#SCROLL 57
0,
#SCROLL 62
0,
#SCROLL 67
0,
#SCROLL 72
0,
#SCROLL 78
0,
#SCROLL 85
0,
#SCROLL 93
0,
#MEASURE 1/4
8,
#END
COURSE:Oni
LEVEL:11.3
BALLOON:5,1,1,1,999,1,1,4,1,1,1,1,999,1
#START
30202200,
20202200,
10101100,
100000100111100100111200,
12120120,
12120140,
3000301120301120,
300000200200200000101010200000100000202020200000,
#SCROLL 2
3
#SCROLL 1
000100010221000,
102020200000100000200000100000200200100000100000,
1000100010221000,
100000200000100000202020100100100100202020100000,
1000302210201000,
300000000100000000300000000100000000300000101010,
1010300010201011,
5000081121211110,
3000101010201220,
3000122010221010,
300000000000100000200000102020200200100000200000,
300000000000100000200200100000200000100000102020,
100100100100100100100100100000200000200000
#SCROLL 1.25
202020,
100100100100100100100100100000200000200000
#SCROLL 1.5
202020,
1111111121121121,
#MEASURE 1/16
#SCROLL 2
70
#SCROLL 1.8
0,
0
#SCROLL 1.6
00,
#SCROLL 1.4
00
#SCROLL 1.25
0,
0
#SCROLL 1.15
00,
#SCROLL 1.1
80
#SCROLL 1.05
0,
0
#SCROLL 1.02
0
0,
#SCROLL 1
#BARLINEOFF
202,
020,
200,
100,
200,
100,
200,
000,
100,
000,
#BARLINEON
#SCROLL 2
#MEASURE 4/4
#GOGOSTART
36830303,
000000300000
#GOGOEND
#SCROLL 1
101010100000200200200200101010101010,
#GOGOSTART
#SCROLL 2
300100300600800300000300,
00003000
#GOGOEND
#SCROLL 1
201020102000222222222220,
#GOGOSTART
#SCROLL 2
33030303,
000000300000
#GOGOEND
#SCROLL 1
101010100000100100202020200200100000,
10001010100000001000000022221000,
200000100100202020202020100000202020202020700800,
#GOGOSTART
#SCROLL 2
36830303,
000000300000
#GOGOEND
#SCROLL 1
202020202020100000100200102010201020,
#GOGOSTART
#SCROLL 2
31368303,
000000300000
#GOGOEND
#SCROLL 1
200200200000100100200200101010101000,
#GOGOSTART
#SCROLL 2
33030303,
000000300000
#GOGOEND
#SCROLL 1
200200200000100100200200102010201020,
500000000800100000100000100000100100101010101000,
#SCROLL 1.2
5008
#SCROLL 1.4
5008
#SCROLL 1.6
7080
#SCROLL 2
1020,
#GOGOSTART
30
#SCROLL 1
20102210201110,
100000200000100000200200101010100000101010100000,
1020102210201110,
100200111100111100222222,
1020102210201110,
100000200000100000200200101010100000101010100000,
100000200000100000200200100000200000101010100000,
200000100100100000100000200100200200101010200000,
1020101022101010,
100000200000100000100000101010000100200000202020,
100000200000100000200000100000200200100000202020,
100200100200111100222222,
1110102010221020,
10101000100010001000202011112000,
1110101012121270,
8000
#SCROLL 2
111111111111,
#GOGOEND
#SCROLL 1
3000112110400040,
0000001220202010,
3000112110400040,
000100200000500000000080,
3000202210102220,
100000100200200200100000200000100000202020202020,
100000100100100000200000100000100000202020100000,
20001000200020001111100022222000,
#MEASURE 2/4
#SCROLL 1.5
400
#SCROLL 1
001,
211111,
211111101010,
211010101010,
#SCROLL 1.5
40000
#SCROLL 1
1,
211111,
211010111010,
211111101010,
#BPMCHANGE 180
#SCROLL 1.6667
400
#SCROLL 1
101,
211211,
#BPMCHANGE 170
411211,
#SCROLL 0.9412
411211,
#BPMCHANGE 150
411211,
#BPMCHANGE 130
411211,
#BPMCHANGE 100
312112,
321121,
#GOGOSTART
#BPMCHANGE 97.1659919
#MEASURE 1/64
#SCROLL 10
7,
#SCROLL 53
0,
#SCROLL 51.5
0,
#SCROLL 50
0,
#SCROLL 48.6
0,
#SCROLL 47.2
0,
#SCROLL 45.8
0,
#SCROLL 44.4
0,
#SCROLL 43
0,
#SCROLL 41.7
0,
#SCROLL 40.4
0,
#SCROLL 39.1
0,
#SCROLL 37.8
0,
#SCROLL 36.5
0,
#SCROLL 35.3
0,
#SCROLL 34.1
0,
#SCROLL 32.9
0,
#SCROLL 31.7
0,
#SCROLL 30.5
0,
#SCROLL 29.4
0,
#SCROLL 28.3
0,
#SCROLL 27.2
0,
#SCROLL 26.1
0,
#SCROLL 25
0,
#SCROLL 24
0,
#SCROLL 23
0,
#SCROLL 22
0,
#SCROLL 21
0,
#SCROLL 20
0,
#SCROLL 19.1
0,
#SCROLL 18.2
0,
#SCROLL 17.3
0,
#SCROLL 16.4
0,
#SCROLL 15.5
0,
#SCROLL 14.7
0,
#SCROLL 13.9
0,
#SCROLL 13.1
0,
#SCROLL 12.3
0,
#SCROLL 11.5
0,
#SCROLL 10.8
0,
#SCROLL 10.1
0,
#SCROLL 9.4
0,
#SCROLL 8.7
0,
#SCROLL 8
0,
#SCROLL 7.6
0,
#SCROLL 7.2
0,
#SCROLL 6.8
0,
#SCROLL 6.4
0,
#SCROLL 6
8,
#SCROLL 5.7
0,
#SCROLL 5.4
0,
#SCROLL 5.1
0,
#SCROLL 4.8
0,
#SCROLL 4.5
0,
#SCROLL 4.3
0,
#SCROLL 4.1
0,
#SCROLL 3.9
0,
#SCROLL 3.7
0,
#SCROLL 3.5
0,
#SCROLL 3.4
0,
#SCROLL 3.3
0,
#SCROLL 3.2
0,
#SCROLL 3.1
0,
#SCROLL 3
0,
#BARLINEOFF
#MEASURE 4/4
#BPMCHANGE 110
#SCROLL 1.1818
22202020
#BPMCHANGE 115
#SCROLL 1.1304
20002020
#BPMCHANGE 120
#SCROLL 1.0833
00201110
#BPMCHANGE 130
#SCROLL 3
40000000,
#GOGOEND
#BARLINEON
#BPMCHANGE 140
#SCROLL 1
30002222102220201020202010202020,
10202220102022201020222010202220,
#SCROLL 1.2
30
#SCROLL 1
222020102220201020202010222020,
10222220102022201020222210202220,
#SCROLL 1.2
30500080
#SCROLL 1
102220201020202010202020,
10202220102022201020222010001000,
#SCROLL 1.6
30222030222078003022203022207800,
#SCROLL 2.4
11110000111100005008000070080000,
#BPMCHANGE 150
#MEASURE 1/4
30500080,
#SCROLL 1
10222020,
10202020,
10202020,
10202220,
10202220,
10202220,
10001010,
#BPMCHANGE 155
#SCROLL 1.2
3000
#SCROLL 1
2222,
10222020,
10202020,
10222020,
10222220,
10202220,
10202222,
10202220,
#BPMCHANGE 160
#SCROLL 1.2
30
#SCROLL 1
22,
10222020,
1222,
1222,
10202220,
10202220,
10202220,
10202220,
#BPMCHANGE 165
#SCROLL 0.9697
101000
#SCROLL 1.2
40,
00
#SCROLL 1
221010,
101000
#SCROLL 1.2
40,
00500080,
40101010,
40101010,
40111110,
20202110,
#BPMCHANGE 170
30
#SCROLL 1
22,
1222,
#BPMCHANGE 175
#SCROLL 0.9714
1222,
1222,
#BPMCHANGE 180
#SCROLL 0.9444
1222,
1222,
#BPMCHANGE 185
#SCROLL 0.9189
1222,
1222,
#BPMCHANGE 190
#SCROLL 1.2
30
#SCROLL 1
22,
1222,
#BPMCHANGE 195
#SCROLL 0.9744
1222,
1222,
#BPMCHANGE 200
#SCROLL 0.95
1222,
1222,
#BPMCHANGE 205
#SCROLL 0.9268
1221,
2210,
#BPMCHANGE 210
#SCROLL 1.2
30
#SCROLL 1
22,
1222,
#BPMCHANGE 215
#SCROLL 0.9767
1222,
1222,
#BPMCHANGE 220
#SCROLL 0.9545
1222,
1222,
#BPMCHANGE 225
#SCROLL 0.9333
1222,
1222,
#BPMCHANGE 230
#SCROLL 1.2
300
#SCROLL 1
2,
1222,
#BPMCHANGE 235
#SCROLL 0.9787
1111,
1010,
#BPMCHANGE 240
#SCROLL 1.2
400
#SCROLL 1
111,
1012,
#BPMCHANGE 245
#SCROLL 0.9796
2211,
12,
#BPMCHANGE 250
#GOGOSTART
#SCROLL 2.4
78,
#GOGOEND
#SCROLL 1
11,
#BPMCHANGE 255
#SCROLL 0.9804
2012,
12,
#BPMCHANGE 260
#GOGOSTART
#SCROLL 2.4
78,
#GOGOEND
#SCROLL 1
11,
#BPMCHANGE 265
#SCROLL 0.9811
2012,
12,
#BPMCHANGE 270
#GOGOSTART
#SCROLL 2.4
78,
#GOGOEND
#SCROLL 1
11,
#BPMCHANGE 275
#SCROLL 0.9818
2012,
12,
#BPMCHANGE 280
#GOGOSTART
#SCROLL 2.4
78,
#GOGOEND
#SCROLL 1
11,
#BPMCHANGE 285
#SCROLL 0.9825
2058,
12,
#BPMCHANGE 290
#GOGOSTART
#SCROLL 1.2
300
#GOGOEND
4,
#BPMCHANGE 295
#SCROLL 1.1797
0040,
#BPMCHANGE 300
#GOGOSTART
#SCROLL 1.2
300
#GOGOEND
4,
#BPMCHANGE 305
#SCROLL 1.1803
0040,
#BPMCHANGE 310
#GOGOSTART
#SCROLL 1.2
300
#GOGOEND
4,
#BPMCHANGE 315
#SCROLL 1.1810
0040,
#BPMCHANGE 320
#GOGOSTART
#SCROLL 1.2
300
#GOGOEND
4,
#BPMCHANGE 325
#SCROLL 1.1815
04,
#GOGOSTART
#SCROLL 1.2
#BPMCHANGE 330
32,
#BPMCHANGE 335
32,
#BPMCHANGE 340
32,
#BPMCHANGE 345
32,
#MEASURE 1/8
#BPMCHANGE 350
302,
020,
302,
020,
302,
020,
302,
020,
#MEASURE 1/16
1,
2,
2,
2,
1,
2,
2,
2,
1,
2,
2,
2,
1,
2,
2,
2,
#MEASURE 4/4
7,
#BARLINEOFF
0,
#BPMCHANGE 400
#MEASURE 2/4
0,
0,
0,
0008,
#GOGOEND
#BARLINEON
#MEASURE 1/16
#SCROLL 9
0,
#SCROLL 4
0,
#SCROLL 5
0,
#SCROLL 2
0,
#SCROLL 3
0,
#SCROLL 4
0,
#SCROLL 2
0,
#SCROLL 3
0,
#SCROLL 1.8
0,
#BARLINEOFF
0,
#BARLINEON
#SCROLL 4
0,
#SCROLL 8
0,
#SCROLL 7
0,
#SCROLL 3
0,
#SCROLL 2
0,
#SCROLL 8
0,
#SCROLL 6
0,
#SCROLL 4
0,
#SCROLL 5
0,
#SCROLL 7
0,
#SCROLL 3
0,
#SCROLL 2
0,
#SCROLL 6
0,
#SCROLL 9
0,
#BARLINEOFF
0,
0,
0,
#BARLINEON
#SCROLL 5
0,
#SCROLL 6
0,
#SCROLL 8
0,
#SCROLL 11
0,
#SCROLL 7
0,
#MEASURE 2/4
#BPMCHANGE 100
#SCROLL 10
0,
#MEASURE 4/4
#SCROLL 1
1010
#BPMCHANGE 110
#SCROLL 0.9091
1020
#BPMCHANGE 120
#SCROLL 0.8333
2010
#BPMCHANGE 130
#SCROLL 0.7692
120
#SCROLL 1.0769
1,
#BPMCHANGE 140
#SCROLL 1
20
#BPMCHANGE 150
#SCROLL 0.9333
20
#BPMCHANGE 160
#SCROLL 0.875
10
#BPMCHANGE 170
#SCROLL 0.8235
20
#BPMCHANGE 180
#SCROLL 0.7778
11
#BPMCHANGE 185
#SCROLL 0.7568
11
#BPMCHANGE 190
#SCROLL 4
40
#BPMCHANGE 195
#SCROLL 1
00,
#GOGOSTART
#BPMCHANGE 400
#MEASURE 8/4
#SCROLL 0.625
1120102012021010,
20201000100020221010200020001000,
1120102012021010,
20201000100010111020200020001000,
100100200000100000100200100202010100100000200000,
100100200000100000100200100101020200100000100000,
101010200000100000200000101010200000100200000200,
#SCROLL 0.9375
500000000000800000000000500000000000800000000000100010001000200200200200
#GOGOEND
700000800000000000000000,
#GOGOSTART
#SCROLL 0.75
3021102012021010,
20102000100020221010200010001000,
1121102012021010,
20102000100020221010200010001000,
100100200000100000100200000200100000101010200000,
100100200000100000100200000100200200202020
#GOGOEND
100000,
#SCROLL 1.5
#GOGOSTART
300000
#SCROLL 0.75
22222
#GOGOEND
2
#SCROLL 1.5
#GOGOSTART
300000
#SCROLL 0.75
22222
#GOGOEND
2,
#SCROLL 1.5
#GOGOSTART
300
#SCROLL 0.75
22222
#GOGOEND
2
#SCROLL 1.5
#GOGOSTART
300
#SCROLL 0.75
22222
#GOGOEND
2
#SCROLL 1.5
#GOGOSTART
300
#SCROLL 0.75
22
#GOGOEND
2,
#GOGOSTART
#SCROLL 1.75
300000
#SCROLL 0.875
200200101020200200101010200200101010100000,
10102000102000102000200011221000,
102020200100100000202020200100100000202020200100,
100000200100100000200100100200100200202020101010,
100000200200101020200200101010200200101010100000,
10102000102000102000200011221000,
202020101010100000202020101010100000202020100000,
#SCROLL 1
22222000111110001111111122222222,
#SCROLL 1.5
3000003330030030,
#BPMCHANGE 200
#MEASURE 2/4
#SCROLL 3
3
#BPMCHANGE 150
#SCROLL 4
4,
#MEASURE 4/4
#BPMCHANGE 75
#SCROLL 12
#GOGOEND
#MEASURE 1/32
6,
#SCROLL 13
0,
#SCROLL 14
0,
#SCROLL 15
0,
#SCROLL 16
0,
#SCROLL 18
0,
#SCROLL 20
0,
#SCROLL 22
0,
#SCROLL 24
0,
#SCROLL 27
0,
#SCROLL 30
0,
#SCROLL 33
0,
#SCROLL 36
0,
#SCROLL 40
0,
#SCROLL 44
0,
#SCROLL 48
0,
#SCROLL 52
0,
#SCROLL 57
0,
#SCROLL 62
0,
#SCROLL 67
0,
#SCROLL 72
0,
#SCROLL 78
0,
#SCROLL 85
0,
#SCROLL 93
0,
#MEASURE 1/4
8,
#END
COURSE:Hard
LEVEL:9.4
BALLOON:13,4,1,1,1,999,3,1,1,1,1,999,1
#START
30202200,
20202200,
10101100,
100000000000100000101000100000100000100100200000,
12120120,
12120140,
30310310,
300000100100100000100000000000100000101010100000,
30101210,
12211211,
30101210,
1000102011112010,
10321210,
3001003001003011,
1010300010201011,
7008,
30111010,
30121211,
3000100022201020,
3000101110101010,
1011111010101000,
#SCROLL 1.25
2022222020202000,
#SCROLL 1.5
1011101022222222,
#MEASURE 1/16
#SCROLL 2
70
#SCROLL 1.8
0,
0
#SCROLL 1.6
00,
#SCROLL 1.4
00
#SCROLL 1.25
0,
0
#SCROLL 1.15
00,
#SCROLL 1.1
80
#SCROLL 1.05
0,
0
#SCROLL 1.02
0
0,
#BARLINEOFF
0,
0,
0,
0,
0,
0,
0,
0,
0,
0,
#BARLINEON
#SCROLL 2
#MEASURE 4/4
#GOGOSTART
33030303,
000000300000
#GOGOEND
#SCROLL 1
100000100000200200200000101010100000,
#GOGOSTART
#SCROLL 2
31330303,
000300
#GOGOEND
#SCROLL 1
100100200222222200,
#GOGOSTART
#SCROLL 2
33030303,
0030
#GOGOEND
#SCROLL 1
100010222010,
1011100010002210,
2010222010222278,
#GOGOSTART
#SCROLL 2
33030303,
000000300000
#GOGOEND
#SCROLL 1
100000100100100000100000202020200000,
#GOGOSTART
#SCROLL 2
31330303,
000300
#GOGOEND
#SCROLL 1
100200100200111100,
#GOGOSTART
#SCROLL 2
33030303,
0030
#GOGOEND
#SCROLL 1
102010121212,
100000000000100000100000100000100100100000101010,
#SCROLL 1.2
5008
#SCROLL 1.4
5008
#SCROLL 1.6
70800000,
#GOGOSTART
#SCROLL 1
3020102010201110,
1020102022201110,
1020102010201110,
1020111022202222,
1020102010201110,
1020102022201110,
1020102010201110,
2011101020201020,
12112111,
1020101011012020,
1020102010201110,
100000200000100000200000100100100000202020200000,
1110102010201020,
100100100000100000100000100000200000202020200000,
1110101010101070,
8,
#GOGOEND
30111404,
02,
30111404,
000100200000500000000080,
3000102210111020,
1011101000200000,
1011102010112010,
200100200200111100222200,
#MEASURE 2/4
#SCROLL 1.5
400
#SCROLL 1
001,
211111,
21,
211111,
#SCROLL 1.5
40000
#SCROLL 1
1,
211111,
200101,
211111,
#BPMCHANGE 180
#SCROLL 1.6667
400
#SCROLL 1
101,
211211,
#BPMCHANGE 170
#SCROLL 1.0588
400
#SCROLL 1
211,
400
#SCROLL 0.9412
211,
#BPMCHANGE 150
#SCROLL 1.0667
400
#SCROLL 1
211,
#BPMCHANGE 130
#SCROLL 1.1538
400
#SCROLL 1
211,
#BPMCHANGE 100
#SCROLL 1.3
300
#SCROLL 1
112,
300121,
#GOGOSTART
#BPMCHANGE 97.1659919
#MEASURE 1/64
#SCROLL 10
7,
#SCROLL 53
0,
#SCROLL 51.5
0,
#SCROLL 50
0,
#SCROLL 48.6
0,
#SCROLL 47.2
0,
#SCROLL 45.8
0,
#SCROLL 44.4
0,
#SCROLL 43
0,
#SCROLL 41.7
0,
#SCROLL 40.4
0,
#SCROLL 39.1
0,
#SCROLL 37.8
0,
#SCROLL 36.5
0,
#SCROLL 35.3
0,
#SCROLL 34.1
0,
#SCROLL 32.9
0,
#SCROLL 31.7
0,
#SCROLL 30.5
0,
#SCROLL 29.4
0,
#SCROLL 28.3
0,
#SCROLL 27.2
0,
#SCROLL 26.1
0,
#SCROLL 25
0,
#SCROLL 24
0,
#SCROLL 23
0,
#SCROLL 22
0,
#SCROLL 21
0,
#SCROLL 20
0,
#SCROLL 19.1
0,
#SCROLL 18.2
0,
#SCROLL 17.3
0,
#SCROLL 16.4
0,
#SCROLL 15.5
0,
#SCROLL 14.7
0,
#SCROLL 13.9
0,
#SCROLL 13.1
0,
#SCROLL 12.3
0,
#SCROLL 11.5
0,
#SCROLL 10.8
0,
#SCROLL 10.1
0,
#SCROLL 9.4
0,
#SCROLL 8.7
0,
#SCROLL 8
0,
#SCROLL 7.6
0,
#SCROLL 7.2
0,
#SCROLL 6.8
0,
#SCROLL 6.4
0,
#SCROLL 6
0,
#SCROLL 5.7
0,
#SCROLL 5.4
0,
#SCROLL 5.1
0,
#SCROLL 4.8
0,
#SCROLL 4.5
0,
#SCROLL 4.3
0,
#SCROLL 4.1
0,
#SCROLL 3.9
0,
#SCROLL 3.7
0,
#SCROLL 3.5
0,
#SCROLL 3.4
0,
#SCROLL 3.3
0,
#SCROLL 3.2
0,
#SCROLL 3.1
0,
#SCROLL 3
0,
#BARLINEOFF
#MEASURE 4/4
#BPMCHANGE 110
8
#BPMCHANGE 115
0
#BPMCHANGE 120
0
#BPMCHANGE 130
#SCROLL 3
4,
#GOGOEND
#BARLINEON
#BPMCHANGE 140
#SCROLL 1
300000101010100000100100100000100100100000100100,
10002200100022001000220010002200,
50008000100010101000101010001010,
10002200100022001000222010002220,
5008101110111011,
10002200100022001000220010001000,
#SCROLL 1.6
3003004030030040,
#SCROLL 2.4
100010001000000000000000100010001000000000000000500000000800000000000000700000000800000000000000,
#BPMCHANGE 150
#MEASURE 1/4
5008,
#SCROLL 1
1011,
1011,
1011,
10002200,
10002200,
10002200,
10001010,
#BPMCHANGE 155
3011,
1011,
1011,
1011,
10002200,
10002200,
10002220,
10002220,
#BPMCHANGE 160
3011,
1011,
1011,
1011,
10002200,
10002200,
10002200,
10002200,
#BPMCHANGE 165
#SCROLL 0.9697
1104,
0210,
1104,
00500080,
#SCROLL 1.2
4,
4,
5008,
2222,
#BPMCHANGE 170
3,
#SCROLL 1
1011,
#BPMCHANGE 175
#SCROLL 0.9714
1011,
1011,
#BPMCHANGE 180
#SCROLL 0.9444
1011,
1011,
#BPMCHANGE 185
#SCROLL 0.9189
1011,
1011,
#BPMCHANGE 190
#SCROLL 1
3,
1011,
#BPMCHANGE 195
#SCROLL 0.9744
1011,
1011,
#BPMCHANGE 200
#SCROLL 0.95
1011,
1011,
#BPMCHANGE 205
#SCROLL 0.9268
1001,
0010,
#BPMCHANGE 210
#SCROLL 1
3,
1011,
#BPMCHANGE 215
#SCROLL 0.9767
1011,
1011,
#BPMCHANGE 220
#SCROLL 0.9545
1011,
1011,
#BPMCHANGE 225
#SCROLL 0.9333
1011,
1011,
#BPMCHANGE 230
#SCROLL 1
3,
11,
#BPMCHANGE 235
#SCROLL 0.9787
1111,
1010,
#BPMCHANGE 240
#SCROLL 1
42,
11,
#BPMCHANGE 245
#SCROLL 0.9796
2011,
12,
#BPMCHANGE 250
#GOGOSTART
#SCROLL 2.4
78,
#GOGOEND
#SCROLL 1
11,
#BPMCHANGE 255
#SCROLL 0.9804
21,
1,
#BPMCHANGE 260
#GOGOSTART
#SCROLL 2.4
78,
#GOGOEND
#SCROLL 1
11,
#BPMCHANGE 265
#SCROLL 0.9811
21,
1,
#BPMCHANGE 270
#GOGOSTART
#SCROLL 2.4
78,
#GOGOEND
#SCROLL 1
11,
#BPMCHANGE 275
#SCROLL 0.9818
21,
1,
#BPMCHANGE 280
#GOGOSTART
#SCROLL 2.4
78,
#GOGOEND
#SCROLL 1
11,
#BPMCHANGE 285
#SCROLL 0.9825
2058,
1,
#BPMCHANGE 290
#GOGOSTART
#SCROLL 1.2
300
#GOGOEND
4,
#BPMCHANGE 295
#SCROLL 1.1797
0040,
#BPMCHANGE 300
#GOGOSTART
#SCROLL 1.2
300
#GOGOEND
4,
#BPMCHANGE 305
#SCROLL 1.1803
0040,
#BPMCHANGE 310
#GOGOSTART
#SCROLL 1.2
300
#GOGOEND
4,
#BPMCHANGE 315
#SCROLL 1.1810
0040,
#BPMCHANGE 320
#GOGOSTART
#SCROLL 1.2
300
#GOGOEND
4,
#BPMCHANGE 325
#SCROLL 1.1815
04,
#GOGOSTART
#SCROLL 1.2
#BPMCHANGE 330
32,
#BPMCHANGE 335
32,
#BPMCHANGE 340
32,
#BPMCHANGE 345
32,
#MEASURE 1/8
#BPMCHANGE 350
3,
2,
3,
2,
3,
2,
3,
2,
#MEASURE 1/16
300,
020,
002,
000,
200,
020,
002,
000,
200,
020,
002,
000,
200,
020,
002,
000,
#MEASURE 4/4
7,
#BARLINEOFF
0,
#BPMCHANGE 400
#MEASURE 2/4
0,
0,
0,
0008,
#GOGOEND
#BARLINEON
#MEASURE 1/16
#SCROLL 9
0,
#SCROLL 4
0,
#SCROLL 5
0,
#SCROLL 2
0,
#SCROLL 3
0,
#SCROLL 4
0,
#SCROLL 2
0,
#SCROLL 3
0,
#SCROLL 1.8
0,
#BARLINEOFF
0,
#BARLINEON
#SCROLL 4
0,
#SCROLL 8
0,
#SCROLL 7
0,
#SCROLL 3
0,
#SCROLL 2
0,
#SCROLL 8
0,
#SCROLL 6
0,
#SCROLL 4
0,
#SCROLL 5
0,
#SCROLL 7
0,
#SCROLL 3
0,
#SCROLL 2
0,
#SCROLL 6
0,
#SCROLL 9
0,
#BARLINEOFF
0,
0,
0,
#BARLINEON
#SCROLL 5
0,
#SCROLL 6
0,
#SCROLL 8
0,
#SCROLL 11
0,
#SCROLL 7
0,
#MEASURE 2/4
#BPMCHANGE 100
#SCROLL 10
0,
#MEASURE 4/4
#SCROLL 1
1010
#BPMCHANGE 110
#SCROLL 0.9091
1020
#BPMCHANGE 120
#SCROLL 0.8333
2010
#BPMCHANGE 130
#SCROLL 0.7692
120
#SCROLL 1.0769
1,
#BPMCHANGE 140
#SCROLL 1
20
#BPMCHANGE 150
#SCROLL 0.9333
20
#BPMCHANGE 160
#SCROLL 0.875
10
#BPMCHANGE 170
#SCROLL 0.8235
20
#BPMCHANGE 180
#SCROLL 0.7778
11
#BPMCHANGE 185
#SCROLL 0.7568
10
#BPMCHANGE 190
#SCROLL 3
40
#BPMCHANGE 195
#SCROLL 1
00,
#GOGOSTART
#BPMCHANGE 400
#MEASURE 8/4
#SCROLL 0.625
1020102012021010,
2010102011202010,
1020102012021010,
2010101202102010,
1020101210111020,
1020101210221010,
1120102011201202,
#SCROLL 0.9375
500000800000500000800000202020202020
#GOGOEND
700800000000,
#GOGOSTART
#SCROLL 0.75
1020102012021010,
2020102011201010,
1120102012021010,
2020102011201010,
1120101202101020,
11201012012011
#GOGOEND
10,
#SCROLL 1.5
#GOGOSTART
300000
#SCROLL 0.75
222
#GOGOEND
200
#SCROLL 1.5
#GOGOSTART
300000
#SCROLL 0.75
222
#GOGOEND
200,
#SCROLL 1.5
#GOGOSTART
300
#SCROLL 0.75
222
#GOGOEND
200
#SCROLL 1.5
#GOGOSTART
300
#SCROLL 0.75
222
#GOGOEND
200
#SCROLL 1.5
#GOGOSTART
300
#GOGOEND
000,
#GOGOSTART
#SCROLL 1.75
30
#SCROLL 0.875
20122011201110,
1020120120201210,
222200100222200100222200,
1020102110122210,
2220122011201110,
1020120120201210,
202020200000100000202020200000100000200200100000,
#SCROLL 1
222200111100111100222200,
#SCROLL 1.5
3000003330030030,
#BPMCHANGE 200
#MEASURE 2/4
#SCROLL 3
3
#BPMCHANGE 150
#SCROLL 4
4,
#MEASURE 4/4
#BPMCHANGE 75
#SCROLL 12
#GOGOEND
#MEASURE 1/32
6,
#SCROLL 13
0,
#SCROLL 14
0,
#SCROLL 15
0,
#SCROLL 16
0,
#SCROLL 18
0,
#SCROLL 20
0,
#SCROLL 22
0,
#SCROLL 24
0,
#SCROLL 27
0,
#SCROLL 30
0,
#SCROLL 33
0,
#SCROLL 36
0,
#SCROLL 40
0,
#SCROLL 44
0,
#SCROLL 48
0,
#SCROLL 52
0,
#SCROLL 57
0,
#SCROLL 62
0,
#SCROLL 67
0,
#SCROLL 72
0,
#SCROLL 78
0,
#SCROLL 85
0,
#SCROLL 93
0,
#MEASURE 1/4
8,
#END
COURSE:Normal
LEVEL:8.7
BALLOON:3,10,3,1,1,1,999,2,1,1,1,1,999,1
#START
30202200,
20202200,
10101100,
10111112,
12120120,
12120140,
30310310,
31110178,
30101210,
22211211,
30101210,
10121121,
10321210,
3001003001003010,
11301210,
7008,
30111010,
30121211,
30102212,
30111110,
11111110,
#SCROLL 1.25
22222220,
#SCROLL 1.5
100100100100202020202020,
#MEASURE 1/16
#SCROLL 2
70
#SCROLL 1.8
0,
0
#SCROLL 1.6
00,
#SCROLL 1.4
00
#SCROLL 1.25
0,
0
#SCROLL 1.15
00,
#SCROLL 1.1
80
#SCROLL 1.05
0,
0
#SCROLL 1.02
0
0,
#BARLINEOFF
0,
0,
0,
0,
0,
0,
0,
0,
0,
0,
#BARLINEON
#SCROLL 2
#MEASURE 4/4
#GOGOSTART
33030303,
03
#GOGOEND
#SCROLL 1
102010,
#GOGOSTART
#SCROLL 2
31330303,
03
#GOGOEND
#SCROLL 1
112508,
#GOGOSTART
#SCROLL 2
33030303,
03
#GOGOEND
#SCROLL 1
101221,
11101001,
0020002020202078,
#GOGOSTART
#SCROLL 2
33030303,
03
#GOGOEND
#SCROLL 1
101122,
#GOGOSTART
#SCROLL 2
31330303,
03
#GOGOEND
#SCROLL 1
101221,
#GOGOSTART
#SCROLL 2
33030303,
03
#GOGOEND
#SCROLL 1
101222,
1000101010111011,
#SCROLL 1.2
5008
#SCROLL 1.4
5008
#SCROLL 1.6
70800000,
#GOGOSTART
#SCROLL 1
40222110,
20112010,
20222110,
22212220,
20222110,
20221210,
20222110,
21112212,
12112110,
12111221,
12121210,
12121020,
1110102010201000,
1110101010201000,
1110101010101070,
8,
#GOGOEND
30111404,
02,
30111404,
000100200000500000000080,
30120102,
01010200,
22101010,
20221020,
#MEASURE 2/4
#SCROLL 1.5
4,
#SCROLL 1
200111,
21,
200111,
#SCROLL 1.5
40000
#SCROLL 1
1,
200111,
200101,
200111,
#BPMCHANGE 180
#SCROLL 1.6667
400
#SCROLL 1
101,
211212,
#BPMCHANGE 170
#SCROLL 1.0588
200202,
200202,
#BPMCHANGE 150
#SCROLL 1.2
200202,
#BPMCHANGE 130
#SCROLL 1.3846
200202,
#BPMCHANGE 100
#SCROLL 1.8
300
#SCROLL 1
112,
300121,
#GOGOSTART
#BPMCHANGE 97.1659919
#MEASURE 1/64
#SCROLL 10
7,
#SCROLL 53
0,
#SCROLL 51.5
0,
#SCROLL 50
0,
#SCROLL 48.6
0,
#SCROLL 47.2
0,
#SCROLL 45.8
0,
#SCROLL 44.4
0,
#SCROLL 43
0,
#SCROLL 41.7
0,
#SCROLL 40.4
0,
#SCROLL 39.1
0,
#SCROLL 37.8
0,
#SCROLL 36.5
0,
#SCROLL 35.3
0,
#SCROLL 34.1
0,
#SCROLL 32.9
0,
#SCROLL 31.7
0,
#SCROLL 30.5
0,
#SCROLL 29.4
0,
#SCROLL 28.3
0,
#SCROLL 27.2
0,
#SCROLL 26.1
0,
#SCROLL 25
0,
#SCROLL 24
0,
#SCROLL 23
0,
#SCROLL 22
0,
#SCROLL 21
0,
#SCROLL 20
0,
#SCROLL 19.1
0,
#SCROLL 18.2
0,
#SCROLL 17.3
0,
#SCROLL 16.4
0,
#SCROLL 15.5
0,
#SCROLL 14.7
0,
#SCROLL 13.9
0,
#SCROLL 13.1
0,
#SCROLL 12.3
0,
#SCROLL 11.5
0,
#SCROLL 10.8
0,
#SCROLL 10.1
0,
#SCROLL 9.4
0,
#SCROLL 8.7
0,
#SCROLL 8
0,
#SCROLL 7.6
0,
#SCROLL 7.2
0,
#SCROLL 6.8
0,
#SCROLL 6.4
0,
#SCROLL 6
0,
#SCROLL 5.7
0,
#SCROLL 5.4
0,
#SCROLL 5.1
0,
#SCROLL 4.8
0,
#SCROLL 4.5
0,
#SCROLL 4.3
0,
#SCROLL 4.1
0,
#SCROLL 3.9
0,
#SCROLL 3.7
0,
#SCROLL 3.5
0,
#SCROLL 3.4
0,
#SCROLL 3.3
0,
#SCROLL 3.2
0,
#SCROLL 3.1
0,
#SCROLL 3
0,
#BARLINEOFF
#MEASURE 4/4
#BPMCHANGE 110
8
#BPMCHANGE 115
0
#BPMCHANGE 120
0
#BPMCHANGE 130
#SCROLL 3
4,
#GOGOEND
#BARLINEON
#BPMCHANGE 140
#SCROLL 1
3011102010201020,
1022202220222022,
58121212,
1022202220222022,
5008102010201020,
1022202220222010,
3003004030030040,
#SCROLL 2
10100000101000005008000070080000,
#BPMCHANGE 150
#MEASURE 1/4
5008,
#SCROLL 1
12,
12,
12,
1022,
2022,
2022,
2011,
#BPMCHANGE 155
3,
12,
12,
12,
1022,
2022,
2022,
2011,
#BPMCHANGE 160
3,
12,
12,
12,
1022,
2022,
2022,
2020,
#BPMCHANGE 165
#SCROLL 0.9697
1104,
0210,
1104,
00500080,
#SCROLL 1.2
4,
4,
4,
4,
#BPMCHANGE 170
3,
#SCROLL 1
11,
#BPMCHANGE 175
#SCROLL 0.9714
11,
11,
#BPMCHANGE 180
#SCROLL 0.9444
11,
11,
#BPMCHANGE 185
#SCROLL 0.9189
11,
11,
#BPMCHANGE 190
#SCROLL 1
3,
11,
#BPMCHANGE 195
#SCROLL 0.9744
11,
11,
#BPMCHANGE 200
#SCROLL 0.95
11,
11,
#BPMCHANGE 205
#SCROLL 0.9268
1001,
0010,
#BPMCHANGE 210
#SCROLL 1
3,
11,
#BPMCHANGE 215
#SCROLL 0.9767
11,
11,
#BPMCHANGE 220
#SCROLL 0.9545
11,
11,
#BPMCHANGE 225
#SCROLL 0.9333
11,
11,
#BPMCHANGE 230
#SCROLL 1
3,
11,
#BPMCHANGE 235
#SCROLL 0.9787
11,
11,
#BPMCHANGE 240
#SCROLL 1
4,
11,
#BPMCHANGE 245
#SCROLL 0.9796
21,
12,
#BPMCHANGE 250
#GOGOSTART
#SCROLL 2.4
78,
#GOGOEND
#SCROLL 1
11,
#BPMCHANGE 255
#SCROLL 0.9804
01,
1,
#BPMCHANGE 260
#GOGOSTART
#SCROLL 2.4
78,
#GOGOEND
#SCROLL 1
11,
#BPMCHANGE 265
#SCROLL 0.9811
01,
1,
#BPMCHANGE 270
#GOGOSTART
#SCROLL 2.4
78,
#GOGOEND
#SCROLL 1
11,
#BPMCHANGE 275
#SCROLL 0.9818
01,
1,
#BPMCHANGE 280
#GOGOSTART
#SCROLL 2.4
78,
#GOGOEND
#SCROLL 1
11,
#BPMCHANGE 285
#SCROLL 0.9825
01,
1,
#BPMCHANGE 290
#GOGOSTART
#SCROLL 1.2
100
#GOGOEND
2,
#BPMCHANGE 295
#SCROLL 1.1797
0020,
#BPMCHANGE 300
#GOGOSTART
#SCROLL 1.2
100
#GOGOEND
2,
#BPMCHANGE 305
#SCROLL 1.1803
0020,
#BPMCHANGE 310
#GOGOSTART
#SCROLL 1.2
100
#GOGOEND
2,
#BPMCHANGE 315
#SCROLL 1.1810
0020,
#BPMCHANGE 320
#GOGOSTART
#SCROLL 1.2
100
#GOGOEND
2,
#BPMCHANGE 325
#SCROLL 1.1815
02,
#GOGOSTART
#SCROLL 1.2
#BPMCHANGE 330
1,
#BPMCHANGE 335
1,
#BPMCHANGE 340
1,
#BPMCHANGE 345
1,
#MEASURE 1/8
#BPMCHANGE 350
1,
0,
1,
0,
1,
0,
1,
0,
#MEASURE 1/16
1,
0,
2,
0,
2,
0,
2,
0,
2,
0,
2,
0,
2,
0,
2,
0,
#MEASURE 4/4
7,
#BARLINEOFF
0,
#BPMCHANGE 400
#MEASURE 2/4
0,
0,
0,
0008,
#GOGOEND
#BARLINEON
#MEASURE 1/16
#SCROLL 9
0,
#SCROLL 4
0,
#SCROLL 5
0,
#SCROLL 2
0,
#SCROLL 3
0,
#SCROLL 4
0,
#SCROLL 2
0,
#SCROLL 3
0,
#SCROLL 1.8
0,
#BARLINEOFF
0,
#BARLINEON
#SCROLL 4
0,
#SCROLL 8
0,
#SCROLL 7
0,
#SCROLL 3
0,
#SCROLL 2
0,
#SCROLL 8
0,
#SCROLL 6
0,
#SCROLL 4
0,
#SCROLL 5
0,
#SCROLL 7
0,
#SCROLL 3
0,
#SCROLL 2
0,
#SCROLL 6
0,
#SCROLL 9
0,
#BARLINEOFF
0,
0,
0,
#BARLINEON
#SCROLL 5
0,
#SCROLL 6
0,
#SCROLL 8
0,
#SCROLL 11
0,
#SCROLL 7
0,
#MEASURE 2/4
#BPMCHANGE 100
#SCROLL 10
0,
#MEASURE 4/4
#SCROLL 1
1010
#BPMCHANGE 110
#SCROLL 0.9091
1020
#BPMCHANGE 120
#SCROLL 0.8333
2010
#BPMCHANGE 130
#SCROLL 0.7692
120
#SCROLL 1.0769
1,
#BPMCHANGE 140
#SCROLL 1
20
#BPMCHANGE 150
#SCROLL 0.9333
20
#BPMCHANGE 160
#SCROLL 0.875
10
#BPMCHANGE 170
#SCROLL 0.8235
20
#BPMCHANGE 180
#SCROLL 0.7778
10
#BPMCHANGE 185
#SCROLL 0.7568
10
#BPMCHANGE 190
#SCROLL 3
40
#BPMCHANGE 195
#SCROLL 1
00,
#GOGOSTART
#BPMCHANGE 400
#MEASURE 8/4
#SCROLL 0.625
1010102010020010,
2010102022202010,
1010102010020010,
2010101202102010,
1020100100102020,
1020100100201010,
2010102020101202,
#SCROLL 0.9375
500000800000500000800000200200200000
#GOGOEND
700800000000,
#GOGOSTART
#SCROLL 0.75
1010102010020010,
22020221,
1010102010020010,
22020221,
2020201002001020,
20202010010010
#GOGOEND
10,
#SCROLL 1.5
#GOGOSTART
3000
#SCROLL 0.75
22
#GOGOEND
20
#SCROLL 1.5
#GOGOSTART
3000
#SCROLL 0.75
22
#GOGOEND
20,
#SCROLL 1.5
#GOGOSTART
30
#SCROLL 0.75
22
#GOGOEND
20
#SCROLL 1.5
#GOGOSTART
30
#SCROLL 0.75
22
#GOGOEND
20
#SCROLL 1.5
#GOGOSTART
30
#GOGOEND
00,
#GOGOSTART
#SCROLL 1.75
3
#SCROLL 0.875
1212121,
1020120120201010,
2220102220102220,
1020102010222010,
21212121,
1020120120201010,
2220102220102220,
#SCROLL 1
2220111011102220,
#SCROLL 1.5
3000003330030030,
#BPMCHANGE 200
#MEASURE 2/4
#SCROLL 3
3
#BPMCHANGE 150
#SCROLL 4
4,
#MEASURE 4/4
#BPMCHANGE 75
#SCROLL 12
#GOGOEND
#MEASURE 1/32
6,
#SCROLL 13
0,
#SCROLL 14
0,
#SCROLL 15
0,
#SCROLL 16
0,
#SCROLL 18
0,
#SCROLL 20
0,
#SCROLL 22
0,
#SCROLL 24
0,
#SCROLL 27
0,
#SCROLL 30
0,
#SCROLL 33
0,
#SCROLL 36
0,
#SCROLL 40
0,
#SCROLL 44
0,
#SCROLL 48
0,
#SCROLL 52
0,
#SCROLL 57
0,
#SCROLL 62
0,
#SCROLL 67
0,
#SCROLL 72
0,
#SCROLL 78
0,
#SCROLL 85
0,
#SCROLL 93
0,
#MEASURE 1/4
8,
#END
COURSE:Easy
LEVEL:6.4
BALLOON:2,7,3,1,1,999,2,999
#START
40200200,
20200200,
10100100,
10100100,
10100100,
10100130,
30300300,
30010178,
3111,
10101011,
3111,
10101101,
1311,
3001003001003000,
1311,
7008,
30111010,
30101011,
3111,
30101110,
10101110,
#SCROLL 1.25
20202220,
#SCROLL 1.5
10112222,
#MEASURE 1/16
#SCROLL 2
70
#SCROLL 1.8
0,
0
#SCROLL 1.6
00,
#SCROLL 1.4
00
#SCROLL 1.25
0,
0
#SCROLL 1.15
00,
#SCROLL 1.1
80
#SCROLL 1.05
0,
0
#SCROLL 1.02
0
0,
#BARLINEOFF
0,
0,
0,
0,
0,
0,
0,
0,
0,
0,
#BARLINEON
#SCROLL 2
#MEASURE 4/4
#GOGOSTART
33030303,
03
#GOGOEND
00
#SCROLL 1
2010,
#GOGOSTART
#SCROLL 2
30330303,
03
#GOGOEND
000
#SCROLL 1
508,
#GOGOSTART
#SCROLL 2
33030303,
03
#GOGOEND
00
#SCROLL 1
1020,
11101001,
02022220,
#GOGOSTART
#SCROLL 2
33030303,
03
#GOGOEND
00
#SCROLL 1
1020,
#GOGOSTART
#SCROLL 2
30330303,
03
#GOGOEND
00
#SCROLL 1
1020,
#GOGOSTART
#SCROLL 2
33030303,
03
#GOGOEND
00
#SCROLL 1
1020,
1000101010001000,
#SCROLL 1.2
5008
#SCROLL 1.4
5008
#SCROLL 1.6
70800000,
#GOGOSTART
#SCROLL 1
40222110,
20222010,
20222110,
20111020,
20222110,
20222010,
20222110,
20112020,
10110110,
10110100,
1111,
1122,
11120200,
11110200,
11111117,
8,
#GOGOEND
30001404,
02,
30001404,
000100200000500000000080,
30020102,
01010200,
2111,
20222020,
#MEASURE 2/4
#SCROLL 1.5
4,
#SCROLL 1
21,
21,
200222,
#SCROLL 1.5
400000,
#SCROLL 1
21,
21,
200222,
#BPMCHANGE 180
#SCROLL 1.6667
4,
#SCROLL 1
2,
#BPMCHANGE 170
#SCROLL 1.0588
2,
2,
#BPMCHANGE 150
#SCROLL 1.2
2,
#BPMCHANGE 130
#SCROLL 1.3846
2,
#BPMCHANGE 100
#SCROLL 1
300111,
300111,
#GOGOSTART
#BPMCHANGE 97.1659919
#MEASURE 1/64
#SCROLL 10
7,
#SCROLL 53
0,
#SCROLL 51.5
0,
#SCROLL 50
0,
#SCROLL 48.6
0,
#SCROLL 47.2
0,
#SCROLL 45.8
0,
#SCROLL 44.4
0,
#SCROLL 43
0,
#SCROLL 41.7
0,
#SCROLL 40.4
0,
#SCROLL 39.1
0,
#SCROLL 37.8
0,
#SCROLL 36.5
0,
#SCROLL 35.3
0,
#SCROLL 34.1
0,
#SCROLL 32.9
0,
#SCROLL 31.7
0,
#SCROLL 30.5
0,
#SCROLL 29.4
0,
#SCROLL 28.3
0,
#SCROLL 27.2
0,
#SCROLL 26.1
0,
#SCROLL 25
0,
#SCROLL 24
0,
#SCROLL 23
0,
#SCROLL 22
0,
#SCROLL 21
0,
#SCROLL 20
0,
#SCROLL 19.1
0,
#SCROLL 18.2
0,
#SCROLL 17.3
0,
#SCROLL 16.4
0,
#SCROLL 15.5
0,
#SCROLL 14.7
0,
#SCROLL 13.9
0,
#SCROLL 13.1
0,
#SCROLL 12.3
0,
#SCROLL 11.5
0,
#SCROLL 10.8
0,
#SCROLL 10.1
0,
#SCROLL 9.4
0,
#SCROLL 8.7
0,
#SCROLL 8
0,
#SCROLL 7.6
0,
#SCROLL 7.2
0,
#SCROLL 6.8
0,
#SCROLL 6.4
0,
#SCROLL 6
0,
#SCROLL 5.7
0,
#SCROLL 5.4
0,
#SCROLL 5.1
0,
#SCROLL 4.8
0,
#SCROLL 4.5
0,
#SCROLL 4.3
0,
#SCROLL 4.1
0,
#SCROLL 3.9
0,
#SCROLL 3.7
0,
#SCROLL 3.5
0,
#SCROLL 3.4
0,
#SCROLL 3.3
0,
#SCROLL 3.2
0,
#SCROLL 3.1
0,
#SCROLL 3
0,
#BARLINEOFF
#MEASURE 4/4
#BPMCHANGE 110
8
#BPMCHANGE 115
0
#BPMCHANGE 120
0
#BPMCHANGE 130
#SCROLL 3
4,
#GOGOEND
#BARLINEON
#BPMCHANGE 140
#SCROLL 1
3111,
1111,
58101010,
1111,
5008100010001000,
1111,
3003004030030040,
#SCROLL 2
30000000300000005008000070080000,
#BPMCHANGE 150
#MEASURE 1/4
5008,
#SCROLL 1
1,
1,
1,
1,
1,
1,
1,
#BPMCHANGE 155
3,
1,
1,
1,
1,
1,
1,
1,
#BPMCHANGE 160
3,
1,
1,
1,
1,
1,
1,
1,
#BPMCHANGE 165
#SCROLL 0.9697
1004,
0,
1004,
00500080,
#SCROLL 1.2
4,
4,
4,
4,
#BPMCHANGE 170
3,
#SCROLL 1
1,
#BPMCHANGE 175
#SCROLL 0.9714
1,
1,
#BPMCHANGE 180
#SCROLL 0.9444
1,
1,
#BPMCHANGE 185
#SCROLL 0.9189
1,
1,
#BPMCHANGE 190
#SCROLL 1
3,
1,
#BPMCHANGE 195
#SCROLL 0.9744
1,
1,
#BPMCHANGE 200
#SCROLL 0.95
1,
1,
#BPMCHANGE 205
#SCROLL 0.9268
1001,
0010,
#BPMCHANGE 210
#SCROLL 1
3,
1,
#BPMCHANGE 215
#SCROLL 0.9767
1,
1,
#BPMCHANGE 220
#SCROLL 0.9545
1,
1,
#BPMCHANGE 225
#SCROLL 0.9333
1,
1,
#BPMCHANGE 230
#SCROLL 1
3,
1,
#BPMCHANGE 235
#SCROLL 0.9787
1,
1,
#BPMCHANGE 240
#SCROLL 1
4,
11,
#BPMCHANGE 245
#SCROLL 0.9796
0,
1,
#BPMCHANGE 250
#GOGOSTART
#SCROLL 1
3,
#GOGOEND
1,
#BPMCHANGE 255
#SCROLL 0.9804
01,
0,
#BPMCHANGE 260
#GOGOSTART
#SCROLL 1
3,
#GOGOEND
1,
#BPMCHANGE 265
#SCROLL 0.9811
01,
0,
#BPMCHANGE 270
#GOGOSTART
#SCROLL 1
3,
#GOGOEND
1,
#BPMCHANGE 275
#SCROLL 0.9818
01,
0,
#BPMCHANGE 280
#GOGOSTART
#SCROLL 1
3,
#GOGOEND
1,
#BPMCHANGE 285
#SCROLL 0.9825
01,
0,
#BPMCHANGE 290
#GOGOSTART
#SCROLL 1.2
300
#GOGOEND
0,
#BPMCHANGE 295
0,
#BPMCHANGE 300
#GOGOSTART
300
#GOGOEND
0,
#BPMCHANGE 305
0,
#BPMCHANGE 310
#GOGOSTART
300
#GOGOEND
0,
#BPMCHANGE 315
0,
#BPMCHANGE 320
#GOGOSTART
300
#GOGOEND
0,
#BPMCHANGE 325
0,
#GOGOSTART
#BPMCHANGE 330
1,
#BPMCHANGE 335
1,
#BPMCHANGE 340
1,
#BPMCHANGE 345
1,
#MEASURE 1/8
#BPMCHANGE 350
1,
0,
1,
0,
1,
0,
1,
0,
#MEASURE 1/16
5,
0,
0,
0,
0,
0,
0,
0,
0,
0,
0,
0,
0,
0,
0,
8,
#MEASURE 4/4
7,
#BARLINEOFF
0,
#BPMCHANGE 400
#MEASURE 2/4
0,
0,
0,
0008,
#GOGOEND
#BARLINEON
#MEASURE 1/16
#SCROLL 9
0,
#SCROLL 4
0,
#SCROLL 5
0,
#SCROLL 2
0,
#SCROLL 3
0,
#SCROLL 4
0,
#SCROLL 2
0,
#SCROLL 3
0,
#SCROLL 1.8
0,
#BARLINEOFF
0,
#BARLINEON
#SCROLL 4
0,
#SCROLL 8
0,
#SCROLL 7
0,
#SCROLL 3
0,
#SCROLL 2
0,
#SCROLL 8
0,
#SCROLL 6
0,
#SCROLL 4
0,
#SCROLL 5
0,
#SCROLL 7
0,
#SCROLL 3
0,
#SCROLL 2
0,
#SCROLL 6
0,
#SCROLL 9
0,
#BARLINEOFF
0,
0,
0,
#BARLINEON
#SCROLL 5
0,
#SCROLL 6
0,
#SCROLL 8
0,
#SCROLL 11
0,
#SCROLL 7
0,
#MEASURE 2/4
#BPMCHANGE 100
#SCROLL 10
0,
#MEASURE 4/4
#SCROLL 1.4
1000
#BPMCHANGE 110
#SCROLL 1.2727
1000
#BPMCHANGE 120
#SCROLL 1.1667
2000
#BPMCHANGE 130
#SCROLL 1.0769
1001,
#BPMCHANGE 140
#SCROLL 1
0
#BPMCHANGE 150
#SCROLL 0.9333
0
#BPMCHANGE 160
#SCROLL 0.875
1
#BPMCHANGE 170
#SCROLL 0.8235
0
#BPMCHANGE 180
#SCROLL 0.7778
1
#BPMCHANGE 185
#SCROLL 0.7568
1
#BPMCHANGE 190
#SCROLL 3
4
#BPMCHANGE 195
#SCROLL 1
0,
#GOGOSTART
#BPMCHANGE 400
#MEASURE 8/4
#SCROLL 0.625
10111010,
20102220,
10111010,
20102220,
10111022,
10111011,
21102110,
#SCROLL 0.9375
585830
#GOGOEND
40,
#GOGOSTART
#SCROLL 0.75
10111010,
22020220,
10111010,
22020220,
1000102002001020,
10001020020010
#GOGOEND
10,
#SCROLL 1.125
#GOGOSTART
302
#GOGOEND
2
#GOGOSTART
302
#GOGOEND
2,
#GOGOSTART
30
#GOGOEND
2
#GOGOSTART
30
#GOGOEND
2
#GOGOSTART
3
#GOGOEND
0,
#GOGOSTART
#SCROLL 1.75
30
#SCROLL 0.875
111110,
1020020020201000,
22122122,
10111221,
10111110,
1020020020201000,
22122122,
#SCROLL 1
2200110011002200,
#SCROLL 1.5
3000003030030030,
#BPMCHANGE 200
#MEASURE 2/4
#SCROLL 3
3
#BPMCHANGE 150
#SCROLL 4
4,
#MEASURE 4/4
#BPMCHANGE 75
#SCROLL 12
#GOGOEND
#MEASURE 1/32
6,
#SCROLL 13
0,
#SCROLL 14
0,
#SCROLL 15
0,
#SCROLL 16
0,
#SCROLL 18
0,
#SCROLL 20
0,
#SCROLL 22
0,
#SCROLL 24
0,
#SCROLL 27
0,
#SCROLL 30
0,
#SCROLL 33
0,
#SCROLL 36
0,
#SCROLL 40
0,
#SCROLL 44
0,
#SCROLL 48
0,
#SCROLL 52
0,
#SCROLL 57
0,
#SCROLL 62
0,
#SCROLL 67
0,
#SCROLL 72
0,
#SCROLL 78
0,
#SCROLL 85
0,
#SCROLL 93
0,
#MEASURE 1/4
8,
#END