Files
TFD500 e86d2787f2 The Donscore Incident (2025, colorized)
- Lots of Donscore2TJA stuff fixed correctly with PeepoDrumKit.
- XEVIOUS Kantan and Futsuu fixed with big note being a 12th instead of a 4th/8th.
- Star Soldier Medley has its delay correctly applied.
- The Ultimate now has the correct TITLEJA.
2025-11-17 11:20:05 -05:00

435 lines
6.7 KiB
Plaintext

//TJADB Project
TITLE:Bolero
TITLEJA:ボレロ
SUBTITLE:--Joseph-Maurice Ravel
SUBTITLEJA:ラヴェル
BPM:63.9
WAVE:Bolero.ogg
OFFSET:-5.892
DEMOSTART:5.855
COURSE:Oni
LEVEL:7
BALLOON:38,35
SCOREINIT:780
SCOREDIFF:203
#START
#MEASURE 3/4
500000000008000000200200100200100200,
#BPMCHANGE 64.58
100000200200100000101010101010200200,
#BPMCHANGE 65.6
100200100200100000101010100000100000,
#BPMCHANGE 64.71
100200200200100200100200101010101010,
#BPMCHANGE 64.96
100000101010100200200100200100200100,
#BPMCHANGE 64.71
100200101010100000200200100000200000,
#BPMCHANGE 64.58
100110700000000000,
#BPMCHANGE 65.97
008,
#BPMCHANGE 63.67
#SCROLL 1.03
500000000008000000000200200100100200,
#BPMCHANGE 66.81
#SCROLL 1
100200101010100200200100200200100100,
#BPMCHANGE 65.98
102210202212,
#BPMCHANGE 65.96
102210202210,
#BPMCHANGE 66.4
100000200200100000101010100000200200,
#BPMCHANGE 65.62
102022121022,
#BPMCHANGE 64.11
100000101010100000200200100000200200,
#BPMCHANGE 64.92
100000101010100000101010100200200100,
#BPMCHANGE 65.02
100111100111100100,
#BPMCHANGE 65.6
100111100111111111,
#BPMCHANGE 65.41
100000101010100200200100200200100200,
#BPMCHANGE 64.77
100000200200100000101010200200100100,
#BPMCHANGE 65.74
100000101010100200200100100000300000,
#BPMCHANGE 64.03
300111100300300300,
340444,
200020002000200000200200100000200200,
#BPMCHANGE 66.18
#SCROLL 0.96
122121700000,
#BPMCHANGE 65.09
#SCROLL 1
0008,
100000101010100000100000100100100000,
#BPMCHANGE 64.42
300111100100101010,
#BPMCHANGE 64.69
200200100100000000500000000008000000,
#BPMCHANGE 66.63
022112211221,
#BPMCHANGE 66.4
200100200000100000101010100000100000,
100111100111111500,
#BPMCHANGE 67.08
000000000008000000500000000008000000,
#BPMCHANGE 64.24
200200500000000008000000300000300000,
#GOGOSTART
#BPMCHANGE 65.3
300000101010100200200100200200100200,
#BPMCHANGE 66.26
100000101010100200200100200200100200,
#BPMCHANGE 66.32
112002212212,
#BPMCHANGE 66.65
112000002215,
#BPMCHANGE 65.5
000000000008000000000000200200100500,
#BPMCHANGE 64.87
000000000008000000000000200200100500,
#BPMCHANGE 65.96
000000000008000000000000200200100500,
#BPMCHANGE 67.08
000000000008000000000000200200100100,
#BPMCHANGE 64.66
#SCROLL 1.03
100111200111100300,
300111200111100300,
#BPMCHANGE 65.09
300111200111100300,
#BPMCHANGE 66.85
#SCROLL 1
300111200111100300,
#BPMCHANGE 67.08
300000600000000008000000
#BPMCHANGE 82.17
001010101010,
#MEASURE 4/4
#GOGOEND
1,
#END
COURSE:Hard
LEVEL:4
BALLOON:35
SCOREINIT:700
SCOREDIFF:200
#START
#MEASURE 3/4
#SCROLL 2
100000101010100000100100100000100000,
#BPMCHANGE 64.58
102220000011,
#BPMCHANGE 65.6
101110001000,
#BPMCHANGE 64.71
222011101000,
#BPMCHANGE 64.96
100002211010,
#BPMCHANGE 64.71
100111100100100100,
#BPMCHANGE 64.58
330,
#BPMCHANGE 65.97
100111100111100000,
#BPMCHANGE 63.67
100000101010100000000100100000100100,
#BPMCHANGE 66.81
101001112220,
#BPMCHANGE 65.98
101110201110,
#BPMCHANGE 65.96
101110201110,
#BPMCHANGE 66.4
101110201011,
#BPMCHANGE 65.62
102011102011,
#BPMCHANGE 64.11
100000111022,
#BPMCHANGE 64.92
200000000221,
#BPMCHANGE 65.02
100111100111100100,
#BPMCHANGE 65.6
100111100111100200,
#BPMCHANGE 65.41
100001111011,
#BPMCHANGE 64.77
101120002022,
#BPMCHANGE 65.74
100001111010,
#BPMCHANGE 64.03
300111100100100100,
020202,
200020002000200000200200200000200200,
#BPMCHANGE 66.18
201110700000,
#BPMCHANGE 65.09
000000000000080000,
100000102220,
#BPMCHANGE 64.42
100000100100101010,
#BPMCHANGE 64.69
101100100000,
#BPMCHANGE 66.63
011122221020,
#BPMCHANGE 66.4
111000000000,
100000200111100100,
#BPMCHANGE 67.08
101201,
#BPMCHANGE 64.24
111020001010,
#GOGOSTART
#BPMCHANGE 65.3
300111100100100100,
#BPMCHANGE 66.26
300111100100100100,
#BPMCHANGE 66.32
300111100100100100,
#BPMCHANGE 66.65
300111100100100100,
#BPMCHANGE 65.5
500000000000000008000000100000100000,
#BPMCHANGE 64.87
500000000000000008000000100000100000,
#BPMCHANGE 65.96
500000000000000008000000100000100000,
#BPMCHANGE 67.08
500000000000000008000000100000100000,
#BPMCHANGE 64.66
300111100000300300,
300111100000300300,
#BPMCHANGE 65.09
300111100000300300,
#BPMCHANGE 66.85
300111100000300300,
#BPMCHANGE 67.08
300000600000000008000000
#BPMCHANGE 82.17
001010101010,
#MEASURE 4/4
#GOGOEND
1,
#END
COURSE:Normal
LEVEL:5
BALLOON:20,20,20
SCOREINIT:930
SCOREDIFF:283
#START
#MEASURE 3/4
#SCROLL 2
500800111010,
#BPMCHANGE 64.58
101050080010,
#BPMCHANGE 65.6
101050080000,
#BPMCHANGE 64.71
101110101000,
#BPMCHANGE 64.96
100010111010,
#BPMCHANGE 64.71
101000111010,
#BPMCHANGE 64.58
170,
#BPMCHANGE 65.97
000000080000,
#BPMCHANGE 63.67
500008001110,
#BPMCHANGE 66.81
100000001110,
#BPMCHANGE 65.98
101110101000,
#BPMCHANGE 65.96
101110101000,
#BPMCHANGE 66.4
101110001000,
#BPMCHANGE 65.62
111011,
#BPMCHANGE 64.11
500008000010,
#BPMCHANGE 64.92
500000080000,
#BPMCHANGE 65.02
3,
#BPMCHANGE 65.6
3,
#BPMCHANGE 65.41
500008001111,
#BPMCHANGE 64.77
101110001111,
#BPMCHANGE 65.74
000001115008,
#BPMCHANGE 64.03
000111,
010101,
111212,
#BPMCHANGE 66.18
101110700000,
#BPMCHANGE 65.09
000008000000,
100000101110,
#BPMCHANGE 64.42
101110,
#BPMCHANGE 64.69
101100100000,
#BPMCHANGE 66.63
101110,
#BPMCHANGE 66.4
170000,
008001,
#BPMCHANGE 67.08
01,
#BPMCHANGE 64.24
111000001010,
#GOGOSTART
#BPMCHANGE 65.3
301110003000,
#BPMCHANGE 66.26
301110101110,
#BPMCHANGE 66.32
301110003000,
#BPMCHANGE 66.65
301110101110,
#BPMCHANGE 65.5
500008001110,
#BPMCHANGE 64.87
500008001110,
#BPMCHANGE 65.96
500008001110,
#BPMCHANGE 67.08
500008001110,
#BPMCHANGE 64.66
101130004010,
101130004010,
#BPMCHANGE 65.09
101130004010,
#BPMCHANGE 66.85
101130004010,
#BPMCHANGE 67.08
3300
#BPMCHANGE 82.17
00,
#MEASURE 4/4
#GOGOEND
3,
#END
COURSE:Easy
LEVEL:2
BALLOON:15
SCOREINIT:750
SCOREDIFF:336
#START
#MEASURE 3/4
#SCROLL 2
508000000,
#BPMCHANGE 64.58
100508000,
#BPMCHANGE 65.6
100508000,
#BPMCHANGE 64.71
101011,
#BPMCHANGE 64.96
101011,
#BPMCHANGE 64.71
110011,
#BPMCHANGE 64.58
100500008,
#BPMCHANGE 65.97
0,
#BPMCHANGE 63.67
500080000000100100,
#BPMCHANGE 66.81
1,
#BPMCHANGE 65.98
301130,
#BPMCHANGE 65.96
301130,
#BPMCHANGE 66.4
301130,
#BPMCHANGE 65.62
301130,
#BPMCHANGE 64.11
301130,
#BPMCHANGE 64.92
500008000,
#BPMCHANGE 65.02
3,
#BPMCHANGE 65.6
3,
#BPMCHANGE 65.41
101110,
#BPMCHANGE 64.77
121,
#BPMCHANGE 65.74
101110,
#BPMCHANGE 64.03
102011,
111,
121,
#BPMCHANGE 66.18
101700,
#BPMCHANGE 65.09
000008000,
100110,
#BPMCHANGE 64.42
100110,
#BPMCHANGE 64.69
101100,
#BPMCHANGE 66.63
111,
#BPMCHANGE 66.4
005000008,
,
#BPMCHANGE 67.08
100110,
#BPMCHANGE 64.24
101,
#GOGOSTART
#BPMCHANGE 65.3
313,
#BPMCHANGE 66.26
301011,
#BPMCHANGE 66.32
313,
#BPMCHANGE 66.65
301011,
#BPMCHANGE 65.5
500000080000000000,
#BPMCHANGE 64.87
500000080000000000,
#BPMCHANGE 65.96
600000080000000000,
#BPMCHANGE 67.08
600000080000000000,
#BPMCHANGE 64.66
133,
133,
#BPMCHANGE 65.09
133,
#BPMCHANGE 66.85
133,
#BPMCHANGE 67.08
10
#BPMCHANGE 82.17
0,
#MEASURE 4/4
#GOGOEND
3,
#END