Files
ESE/06 Classical/Carmen Prelude/Carmen Prelude TDM 2P.tja

1393 lines
17 KiB
Plaintext

//TJADB Project
TITLE:Carmen Prelude -TDM 2P Chart-
TITLEJA:カルメン 組曲一番終曲
TITLEZH:卡门第一组曲 斗牛士之歌
SUBTITLE:--Georges Bizet
SUBTITLEJA:TDM2人用譜面 ビゼー
SUBTITLEZH:比才
BPM:120.26
WAVE:Carmen Prelude.ogg
OFFSET:-2.027
DEMOSTART:1.992
//SONG_ID(TDM chart):cca
//Only AC7 and TDM has this 2 Player Chart
//Note: TDM's Single Player chart follows original chart.
//AC7 Go-Go Time: Bars 39-43.
COURSE:Oni
LEVEL:8
//7* in AC7
STYLE:SINGLE
SCOREINIT:
SCOREDIFF:
BALLOON:25,10
SCOREMODE:0
//Small drumroll replaces 10-hit balloon in AC7
//Handholding note: Only the final note
#START
1011111010001000,
#BPMCHANGE 119
1011100010003000,
#BPMCHANGE 120
1000100010111110,
1000202220000000,
1000100010111110,
#BPMCHANGE 120.69
1000101110003000,
#BPMCHANGE 119.938
1011111010001000,
#BPMCHANGE 118.825
#SCROLL 1.01
1011100010003000, //8
#BPMCHANGE 120.06
#SCROLL 1
11221110,
1010202010111000,
11,
11,
#BPMCHANGE 118.336
2220222022202220,
#BPMCHANGE 122.22
#SCROLL 0.97
11121120,
#BPMCHANGE 119.94
#SCROLL 0.99
44,
#SCROLL 1
7,
#BPMCHANGE 120.57
0008, //17
#BPMCHANGE 120
1010111010111011,
1010111010003000,
1011101110101110,
1022202220000000,
1011101110101110,
1011101110003000,
1010111010111011,
#BPMCHANGE 118.861
1011101110003000,
#BPMCHANGE 120.26
0,
22, //27
#BPMCHANGE 120
100102200100,
201101100000,
100102200000,
200101100000,
100101100200,
100101100200,
100102200000,
100102200000, //35
101200101200,
101200101200,
100010200100100000200000,
#BPMCHANGE 117.989
200000000000500000000000000000000008000000000000,
#BPMCHANGE 122.08
#SCROLL 0.97
2222,
#BPMCHANGE 120
#SCROLL 1
2222,
2222,
#BPMCHANGE 119.305
2220, //43
#BPMCHANGE 120
10120112,
11111000,
1122,
#BPMCHANGE 121.03
22,
#BPMCHANGE 120
10222020,
10222011,
1212, //50
1011111110001000,
1011100010003000,
1000100010111111,
1000202220000000,
1011111110001000,
1011100010003000,
1000100010111110,
1110111011101110,
700000000000000008000100,
1300,
0,
0, //62
#END
STYLE:DOUBLE
SCOREINIT:
SCOREDIFF:
BALLOON:25,10
SCOREMODE:0
#START P1
1011111010001000,
#BPMCHANGE 119
1011100010003000,
#BPMCHANGE 120
1000100010111110,
1000202220000000,
1000100010111110,
#BPMCHANGE 120.69
1000101110003000,
#BPMCHANGE 119.938
1011111010001000,
#BPMCHANGE 118.825
#SCROLL 1.01
1011100010003000, //8
#BPMCHANGE 120.06
#SCROLL 1
11221110,
1010202010111000,
11,
11,
#BPMCHANGE 118.336
2220222022202220,
#BPMCHANGE 122.22
#SCROLL 0.97
11121120,
#BPMCHANGE 119.94
#SCROLL 0.99
44,
#SCROLL 1
7,
#BPMCHANGE 120.57
0008, //17
#BPMCHANGE 120
1010111010111011,
1010111010003000,
1011101110101110,
1022202220000000,
1011101110101110,
1011101110003000,
1010111010111011,
#BPMCHANGE 118.861
1011101110003000,
#BPMCHANGE 120.26
0,
22, //27
#BPMCHANGE 120
100102200100,
201101100000,
100102200000,
200101100000,
100101100200,
100101100200,
100102200000,
100102200000, //35
101200101200,
101200101200,
100010200100100000200000,
#BPMCHANGE 117.989
200000000000500000000000000000000008000000000000,
#BPMCHANGE 122.08
#SCROLL 0.97
2222,
#BPMCHANGE 120
#SCROLL 1
2222,
2222,
#BPMCHANGE 119.305
2220, //43
#BPMCHANGE 120
10120112,
11111000,
1122,
#BPMCHANGE 121.03
22,
#BPMCHANGE 120
10222020,
10222011,
1212, //50
1011111110001000,
1011100010003000,
1000100010111111,
1000202220000000,
1011111110001000,
1011100010003000,
1000100010111110,
1110111011101110,
700000000000000008000100,
1300,
0,
0, //62
#END
SCOREINIT:
SCOREDIFF:
BALLOON:25,10
SCOREMODE:0
#START P2
1000100010111110,
#BPMCHANGE 119
1000101110003000,
#BPMCHANGE 120
1011111010001000,
1022200020000000,
1011111010001000,
#BPMCHANGE 120.69
1011100010003000,
#BPMCHANGE 119.938
1000100010111110,
#BPMCHANGE 118.825
#SCROLL 1.01
1000101110003000, //8
#BPMCHANGE 120.06
#SCROLL 1
11,
11,
11221110,
1010202010111000,
#BPMCHANGE 118.336
44,
#BPMCHANGE 122.22
#SCROLL 0.97
11121120,
#BPMCHANGE 119.94
#SCROLL 0.99
2220222022202220,
#SCROLL 1
7,
#BPMCHANGE 120.57
0008, //17
#BPMCHANGE 120
1011101110101110,
1011101110003000,
1010111010111011,
1022202220000000,
1010111010111011,
1010111010003000,
1011101110101110,
#BPMCHANGE 118.861
1011101110003000,
#BPMCHANGE 120.26
0,
0202, //27
#BPMCHANGE 120
2222,
2222,
2222,
2220,
10120112,
11111000,
1122,
22, //35
10222020,
10222011,
1212,
#BPMCHANGE 117.989
200000000000500000000000000000000008000000000000,
#BPMCHANGE 122.08
#SCROLL 0.97
100102200100,
#BPMCHANGE 120
#SCROLL 1
201101100000,
100102200000,
#BPMCHANGE 119.305
200101100000, //43
#BPMCHANGE 120
100101100200,
100101100200,
100102200000,
#BPMCHANGE 121.03
100102200000,
#BPMCHANGE 120
101200101200,
101200101200,
11211020, //50
1000100010111111,
1000101110003000,
1011111110001000,
1022200020000000,
1000100010111111,
1000101110003000,
1011111010001000,
1110111011101110,
700000000000000008000100,
1300,
0,
0, //62
#END
COURSE:Hard
LEVEL:4
//5* in AC7
STYLE:SINGLE
SCOREINIT:630
SCOREDIFF:150
BALLOON:25,10
SCOREMODE:1
//Small drumroll replaces 10-hit balloon in AC7
//Handholding note: Only the final note
#START
1011111010001000,
#BPMCHANGE 119
1011100010003000,
#BPMCHANGE 120
1000100010111110,
1000202220000000,
1000100010111110,
#BPMCHANGE 120.69
1000101110003000,
#BPMCHANGE 119.938
1011111010001000,
#BPMCHANGE 118.825
#SCROLL 1.01
1011100010003000, //8
#BPMCHANGE 120.06
#SCROLL 1
11221110,
1010202010111000,
11,
11,
#BPMCHANGE 118.336
2220222022202220,
#BPMCHANGE 122.22
#SCROLL 0.97
11121120,
#BPMCHANGE 119.94
#SCROLL 0.99
44,
#SCROLL 1
7,
#BPMCHANGE 120.57
0008, //17
#BPMCHANGE 120
1010111010111011,
1010111010003000,
1011101110101110,
1022202220000000,
1011101110101110,
1011101110003000,
1010111010111011,
#BPMCHANGE 118.861
1011101110003000,
#BPMCHANGE 120.26
0,
22, //27
#BPMCHANGE 120
100102200100,
201101100000,
100102200000,
200101100000,
100101100200,
100101100200,
100102200000,
100102200000, //35
101200101200,
101200101200,
100010200100100000200000,
#BPMCHANGE 117.989
200000000000500000000000000000000008000000000000,
#BPMCHANGE 122.08
#SCROLL 0.97
2222,
#BPMCHANGE 120
#SCROLL 1
2222,
2222,
#BPMCHANGE 119.305
2220, //43
#BPMCHANGE 120
10120112,
11111000,
1122,
#BPMCHANGE 121.03
22,
#BPMCHANGE 120
10222020,
10222011,
1212, //50
1011111110001000,
1011100010003000,
1000100010111111,
1000202220000000,
1011111110001000,
1011100010003000,
1000100010111110,
1110111011101110,
700000000000000008000100,
1300,
0,
0, //62
#END
STYLE:DOUBLE
SCOREINIT:630
SCOREDIFF:150
BALLOON:25,10
SCOREMODE:1
#START P1
1011111010001000,
#BPMCHANGE 119
1011100010003000,
#BPMCHANGE 120
1000100010111110,
1000202220000000,
1000100010111110,
#BPMCHANGE 120.69
1000101110003000,
#BPMCHANGE 119.938
1011111010001000,
#BPMCHANGE 118.825
#SCROLL 1.01
1011100010003000, //8
#BPMCHANGE 120.06
#SCROLL 1
11221110,
1010202010111000,
11,
11,
#BPMCHANGE 118.336
2220222022202220,
#BPMCHANGE 122.22
#SCROLL 0.97
11121120,
#BPMCHANGE 119.94
#SCROLL 0.99
44,
#SCROLL 1
7,
#BPMCHANGE 120.57
0008, //17
#BPMCHANGE 120
1010111010111011,
1010111010003000,
1011101110101110,
1022202220000000,
1011101110101110,
1011101110003000,
1010111010111011,
#BPMCHANGE 118.861
1011101110003000,
#BPMCHANGE 120.26
0,
22, //27
#BPMCHANGE 120
100102200100,
201101100000,
100102200000,
200101100000,
100101100200,
100101100200,
100102200000,
100102200000, //35
101200101200,
101200101200,
100010200100100000200000,
#BPMCHANGE 117.989
200000000000500000000000000000000008000000000000,
#BPMCHANGE 122.08
#SCROLL 0.97
2222,
#BPMCHANGE 120
#SCROLL 1
2222,
2222,
#BPMCHANGE 119.305
2220, //43
#BPMCHANGE 120
10120112,
11111000,
1122,
#BPMCHANGE 121.03
22,
#BPMCHANGE 120
10222020,
10222011,
1212, //50
1011111110001000,
1011100010003000,
1000100010111111,
1000202220000000,
1011111110001000,
1011100010003000,
1000100010111110,
1110111011101110,
700000000000000008000100,
1300,
0,
0, //62
#END
SCOREINIT:630
SCOREDIFF:150
BALLOON:25,10
SCOREMODE:1
#START P2
1000100010111110,
#BPMCHANGE 119
1000101110003000,
#BPMCHANGE 120
1011111010001000,
1022200020000000,
1011111010001000,
#BPMCHANGE 120.69
1011100010003000,
#BPMCHANGE 119.938
1000100010111110,
#BPMCHANGE 118.825
#SCROLL 1.01
1000101110003000, //8
#BPMCHANGE 120.06
#SCROLL 1
11,
11,
11221110,
1010202010111000,
#BPMCHANGE 118.336
44,
#BPMCHANGE 122.22
#SCROLL 0.97
11121120,
#BPMCHANGE 119.94
#SCROLL 0.99
2220222022202220,
#SCROLL 1
7,
#BPMCHANGE 120.57
0008, //17
#BPMCHANGE 120
1011101110101110,
1011101110003000,
1010111010111011,
1022202220000000,
1010111010111011,
1010111010003000,
1011101110101110,
#BPMCHANGE 118.861
1011101110003000,
#BPMCHANGE 120.26
0,
0202, //27
#BPMCHANGE 120
2222,
2222,
2222,
2220,
10120112,
11111000,
1122,
22, //35
10222020,
10222011,
1212,
#BPMCHANGE 117.989
200000000000500000000000000000000008000000000000,
#BPMCHANGE 122.08
#SCROLL 0.97
100102200100,
#BPMCHANGE 120
#SCROLL 1
201101100000,
100102200000,
#BPMCHANGE 119.305
200101100000, //43
#BPMCHANGE 120
100101100200,
100101100200,
100102200000,
#BPMCHANGE 121.03
100102200000,
#BPMCHANGE 120
101200101200,
101200101200,
11211020, //50
1000100010111111,
1000101110003000,
1011111110001000,
1022200020000000,
1000100010111111,
1000101110003000,
1011111010001000,
1110111011101110,
700000000000000008000100,
1300,
0,
0, //62
#END
COURSE:Normal
LEVEL:2
//5* in AC7
STYLE:SINGLE
SCOREINIT:730
SCOREDIFF:190
BALLOON:20,7
SCOREMODE:1
#START
11101110,
#BPMCHANGE 119
1110,
#BPMCHANGE 120
10111010,
11101000,
11101110,
#BPMCHANGE 120.69
1110,
#BPMCHANGE 119.938
10111010,
#BPMCHANGE 118.825
#SCROLL 1.01
11101030, //8
#BPMCHANGE 120.06
#SCROLL 1
10101110,
10101110,
0202,
0202,
#BPMCHANGE 118.336
22202000,
#BPMCHANGE 122.22
#SCROLL 0.97
11101000,
#BPMCHANGE 119.94
#SCROLL 0.99
20002220,
#SCROLL 1
7,
#BPMCHANGE 120.57
0008, //17
#BPMCHANGE 120
11101110,
10111020,
10111010,
11101000,
11101110,
10111020,
10111010,
#BPMCHANGE 118.861
10111030,
#BPMCHANGE 120.26
0,
12, //27
#BPMCHANGE 120
100101100000,
100101100000,
100101100000,
100101100000,
100101100101,
100101100000,
200202200202,
2220, //35
101100101100,
1130,
101100200200,
#BPMCHANGE 117.989
200000000000500000000000000000000008000000000000,
#BPMCHANGE 122.08
#SCROLL 0.97
0022,
#BPMCHANGE 120
#SCROLL 1
0022,
0022,
#BPMCHANGE 119.305
0022, //43
#BPMCHANGE 120
0022,
0022,
0022,
#BPMCHANGE 121.03
0022,
#BPMCHANGE 120
1212,
12121000,
12121000, //50
1011100010111000,
1011100010000000,
1111,
1110,
1000100010111000,
1011100010004000,
1011100010001000,
00120012,
700000000000000008000100,
1300,
0,
0, //62
#END
STYLE:DOUBLE
SCOREINIT:730
SCOREDIFF:190
BALLOON:20,7
SCOREMODE:1
#START P1
11101110,
#BPMCHANGE 119
1110,
#BPMCHANGE 120
10111010,
11101000,
11101110,
#BPMCHANGE 120.69
1110,
#BPMCHANGE 119.938
10111010,
#BPMCHANGE 118.825
#SCROLL 1.01
11101030, //8
#BPMCHANGE 120.06
#SCROLL 1
10101110,
10101110,
0202,
0202,
#BPMCHANGE 118.336
22202000,
#BPMCHANGE 122.22
#SCROLL 0.97
11101000,
#BPMCHANGE 119.94
#SCROLL 0.99
20002220,
#SCROLL 1
7,
#BPMCHANGE 120.57
0008, //17
#BPMCHANGE 120
11101110,
10111020,
10111010,
11101000,
11101110,
10111020,
10111010,
#BPMCHANGE 118.861
10111030,
#BPMCHANGE 120.26
0,
12, //27
#BPMCHANGE 120
100101100000,
100101100000,
100101100000,
100101100000,
100101100101,
100101100000,
200202200202,
2220, //35
101100101100,
1130,
101100200200,
#BPMCHANGE 117.989
200000000000500000000000000000000008000000000000,
#BPMCHANGE 122.08
#SCROLL 0.97
0022,
#BPMCHANGE 120
#SCROLL 1
0022,
0022,
#BPMCHANGE 119.305
0022, //43
#BPMCHANGE 120
0022,
0022,
0022,
#BPMCHANGE 121.03
0022,
#BPMCHANGE 120
1212,
12121000,
12121000, //50
1011100010111000,
1011100010000000,
1111,
1110,
1000100010111000,
1011100010004000,
1011100010001000,
00120012,
700000000000000008000100,
1300,
0,
0, //62
#END
SCOREINIT:730
SCOREDIFF:190
BALLOON:20,7
SCOREMODE:1
#START P2
10111010,
#BPMCHANGE 119
11101000,
#BPMCHANGE 120
11101110,
11101000,
10111010,
#BPMCHANGE 120.69
11101000,
#BPMCHANGE 119.938
11101110,
#BPMCHANGE 118.825
#SCROLL 1.01
10111030, //8
#BPMCHANGE 120.06
#SCROLL 1
0202,
0202,
10101110,
10101110,
#BPMCHANGE 118.336
20002220,
#BPMCHANGE 122.22
#SCROLL 0.97
10001110,
#BPMCHANGE 119.94
#SCROLL 0.99
22202000,
#SCROLL 1
7,
#BPMCHANGE 120.57
0008, //17
#BPMCHANGE 120
10111010,
11101020,
11101110,
10111000,
10111010,
11101020,
11101110,
#BPMCHANGE 118.861
10111030,
#BPMCHANGE 120.26
0,
0102, //27
#BPMCHANGE 120
0022,
0022,
0022,
0022,
0022,
0022,
0022,
0022, //35
1212,
12121000,
12121000,
#BPMCHANGE 117.989
200000000000500000000000000000000008000000000000,
#BPMCHANGE 122.08
#SCROLL 0.97
100101100000,
#BPMCHANGE 120
#SCROLL 1
100101100000,
100101100000,
#BPMCHANGE 119.305
100101100000, //43
#BPMCHANGE 120
100101100101,
100101100000,
200202200202,
#BPMCHANGE 121.03
2220,
#BPMCHANGE 120
101100101100,
1130,
101100200200, //50
1111,
1114,
1011100010111000,
1011100010000000,
1011100010001000,
1011100010004000,
1000100010111000,
12001200,
700000000000000008000100,
1300,
0,
0, //62
#END
COURSE:Easy
LEVEL:4
//3* in AC7
STYLE:SINGLE
SCOREINIT:1300
SCOREDIFF:490
BALLOON:
SCOREMODE:1
#START
1110,
#BPMCHANGE 119
1110,
#BPMCHANGE 120
1011,
11,
2220,
#BPMCHANGE 120.69
2220,
#BPMCHANGE 119.938
1011,
#BPMCHANGE 118.825
#SCROLL 1.01
11, //8
#BPMCHANGE 120.06
#SCROLL 1
1210,
1210,
1012,
11,
#BPMCHANGE 118.336
0,
#BPMCHANGE 122.22
#SCROLL 0.97
11,
#BPMCHANGE 119.94
#SCROLL 0.99
22,
#SCROLL 1
5,
#BPMCHANGE 120.57
000000000000000000000008000000000000000000000000, //17
#BPMCHANGE 120
11,
1110,
0202,
11,
22,
22,
0101,
#BPMCHANGE 118.861
1033,
#BPMCHANGE 120.26
0,
1, //27
#BPMCHANGE 120
1100,
1100,
02,
02,
01,
0200,
1,
11, //35
0001,
1001,
1001,
#BPMCHANGE 117.989
100000000000500000000000000000000008000000000000,
#BPMCHANGE 122.08
#SCROLL 0.97
02,
#BPMCHANGE 120
#SCROLL 1
02,
1100,
#BPMCHANGE 119.305
1100, //43
#BPMCHANGE 120
1,
11,
01,
#BPMCHANGE 121.03
0200,
#BPMCHANGE 120
22,
22,
22, //50
1110,
1110,
3011,
11,
2022,
44,
33,
1111,
500000000000000000000000000008000000000000100000,
1300,
0,
0, //62
#END
STYLE:DOUBLE
SCOREINIT:1300
SCOREDIFF:490
BALLOON:
SCOREMODE:1
#START P1
1110,
#BPMCHANGE 119
1110,
#BPMCHANGE 120
1011,
11,
2220,
#BPMCHANGE 120.69
2220,
#BPMCHANGE 119.938
1011,
#BPMCHANGE 118.825
#SCROLL 1.01
11, //8
#BPMCHANGE 120.06
#SCROLL 1
1210,
1210,
1012,
11,
#BPMCHANGE 118.336
0,
#BPMCHANGE 122.22
#SCROLL 0.97
11,
#BPMCHANGE 119.94
#SCROLL 0.99
22,
#SCROLL 1
5,
#BPMCHANGE 120.57
000000000000000000000008000000000000000000000000, //17
#BPMCHANGE 120
11,
1110,
0202,
11,
22,
22,
0101,
#BPMCHANGE 118.861
1033,
#BPMCHANGE 120.26
0,
1, //27
#BPMCHANGE 120
1100,
1100,
02,
02,
01,
0200,
1,
11, //35
0001,
1001,
1001,
#BPMCHANGE 117.989
100000000000500000000000000000000008000000000000,
#BPMCHANGE 122.08
#SCROLL 0.97
02,
#BPMCHANGE 120
#SCROLL 1
02,
1100,
#BPMCHANGE 119.305
1100, //43
#BPMCHANGE 120
1,
11,
01,
#BPMCHANGE 121.03
0200,
#BPMCHANGE 120
22,
22,
22, //50
1110,
1110,
3011,
11,
2022,
44,
33,
1111,
500000000000000000000000000008000000000000100000,
1300,
0,
0, //62
#END
SCOREINIT:1300
SCOREDIFF:490
BALLOON:
SCOREMODE:1
#START P2
1011,
#BPMCHANGE 119
11,
#BPMCHANGE 120
1110,
1110,
2022,
#BPMCHANGE 120.69
22,
#BPMCHANGE 119.938
1110,
#BPMCHANGE 118.825
#SCROLL 1.01
1110, //8
#BPMCHANGE 120.06
#SCROLL 1
1012,
11,
1210,
1210,
#BPMCHANGE 118.336
22,
#BPMCHANGE 122.22
#SCROLL 0.97
11,
#BPMCHANGE 119.94
#SCROLL 0.99
0,
#SCROLL 1
5,
#BPMCHANGE 120.57
000000000000000000000008000000000000000000000000, //17
#BPMCHANGE 120
0202,
11,
11,
1110,
0101,
22,
22,
#BPMCHANGE 118.861
1033,
#BPMCHANGE 120.26
0,
01, //27
#BPMCHANGE 120
02,
02,
1100,
1100,
1,
11,
01,
0200, //35
22,
22,
22,
#BPMCHANGE 117.989
200000000000500000000000000000000008000000000000,
#BPMCHANGE 122.08
#SCROLL 0.97
1100,
#BPMCHANGE 120
#SCROLL 1
1100,
02,
#BPMCHANGE 119.305
02, //43
#BPMCHANGE 120
01,
0200,
1,
#BPMCHANGE 121.03
11,
#BPMCHANGE 120
0001,
1001,
1001, //50
3011,
11,
1110,
1110,
2220,
44,
33,
1111,
500000000000000000000000000008000000000000100000,
1300,
0,
0, //62
#END