676 lines
7.0 KiB
Plaintext
676 lines
7.0 KiB
Plaintext
//TJADB Project
|
|
TITLE:Classical Medley -Home Party Version-
|
|
TITLEJA:クラシックメドレー(ホームパーティ編)
|
|
SUBTITLE:--Tomoko Tatsuda
|
|
BPM:110
|
|
WAVE:Classical Medley Home Party Version.ogg
|
|
OFFSET:-4.314
|
|
DEMOSTART:2.134
|
|
|
|
COURSE:Oni
|
|
LEVEL:2
|
|
STYLE:Double
|
|
|
|
#START P1
|
|
10101110,
|
|
11101000,
|
|
02020202,
|
|
0020002000201200,
|
|
10101110,
|
|
11101000,
|
|
02020202,
|
|
0020002000201200,
|
|
10101102,
|
|
10111000,
|
|
10101110,
|
|
1010121010000000,
|
|
1200,
|
|
0220,
|
|
00022202,
|
|
2222,
|
|
,
|
|
10101012,
|
|
22000012,
|
|
1000100000001022,
|
|
11,
|
|
100000500000000000000000000008000000000000000000,
|
|
00011200,
|
|
0101,
|
|
00111010,
|
|
1111,
|
|
,
|
|
12121250,
|
|
000000000080000000000100,
|
|
10101110,
|
|
00001200,
|
|
02020220,
|
|
10121000,
|
|
02020220,
|
|
1002000000000010,
|
|
10101110,
|
|
10121000,
|
|
1001101010000000,
|
|
1001102010000000,
|
|
11101110,
|
|
1011101010000000,
|
|
2000200020222000,
|
|
2000200020201200,
|
|
02020220,
|
|
#BPMCHANGE 102
|
|
10111100,
|
|
#BARLINEOFF
|
|
#BPMCHANGE 110
|
|
500000000000000000000000000000000000000000000008,
|
|
#END
|
|
|
|
|
|
#START P2
|
|
02020202,
|
|
0000002000201200,
|
|
10101110,
|
|
11101000,
|
|
02020202,
|
|
0020002000201200,
|
|
10101110,
|
|
11101000,
|
|
02020202,
|
|
0022202000201200,
|
|
10101110,
|
|
1010121010000000,
|
|
00000022,
|
|
20000002,
|
|
22000000,
|
|
,
|
|
1111,
|
|
,
|
|
00122012,
|
|
1000000010000022,
|
|
1101,
|
|
000000500000000000000000000008000000000000100000,
|
|
12000000,
|
|
11,
|
|
1111,
|
|
10111010,
|
|
12121212,
|
|
1005,
|
|
000008000000,
|
|
02020220,
|
|
12000001,
|
|
10101110,
|
|
10121001,
|
|
10101110,
|
|
0000000010020000,
|
|
02020220,
|
|
10121000,
|
|
2000200020222000,
|
|
2000200020201200,
|
|
02020220,
|
|
0020002000201200,
|
|
1001101010000000,
|
|
1001102010000000,
|
|
10101110,
|
|
#BPMCHANGE 102
|
|
10111100,
|
|
#BARLINEOFF
|
|
#BPMCHANGE 110
|
|
500000000000000000000000000000000000000000000008,
|
|
#END
|
|
|
|
STYLE:Single
|
|
|
|
|
|
#START
|
|
10101110,
|
|
11101000,
|
|
10101110,
|
|
11101000,
|
|
10101110,
|
|
11101000,
|
|
10101110,
|
|
11101000,
|
|
10101102,
|
|
10111000,
|
|
10101110,
|
|
1010121010000000,
|
|
10200022,
|
|
20202002,
|
|
22022202,
|
|
2222,
|
|
1111,
|
|
10101012,
|
|
22122012,
|
|
1000100010001022,
|
|
1111,
|
|
10101011,
|
|
12011201,
|
|
2111,
|
|
1111,
|
|
1111,
|
|
12121212,
|
|
1115,
|
|
000000000000000000000008000000000000000000100000,
|
|
10101110,
|
|
12001201,
|
|
10101110,
|
|
10121001,
|
|
10101110,
|
|
1002000010020010,
|
|
10101110,
|
|
10121000,
|
|
1001102010200000,
|
|
10111000,
|
|
11101110,
|
|
1011101010000000,
|
|
1001102010000000,
|
|
1001102010000000,
|
|
10101110,
|
|
#BPMCHANGE 102
|
|
1110,
|
|
#BARLINEOFF
|
|
#BPMCHANGE 110
|
|
500000000000000000000000000000000000000000000008,
|
|
#END
|
|
|
|
COURSE:Hard
|
|
LEVEL:2
|
|
STYLE:Double
|
|
|
|
|
|
#START P1
|
|
10101110,
|
|
11101000,
|
|
02020202,
|
|
0020002000201200,
|
|
10101110,
|
|
11101000,
|
|
02020202,
|
|
0020002000201200,
|
|
10101102,
|
|
10111000,
|
|
10101110,
|
|
1010121010000000,
|
|
1200,
|
|
0220,
|
|
00022202,
|
|
2222,
|
|
,
|
|
10101012,
|
|
22000012,
|
|
1000100000001022,
|
|
11,
|
|
100000500000000000000000000008000000000000000000,
|
|
00011200,
|
|
0101,
|
|
00111010,
|
|
1111,
|
|
,
|
|
12121250,
|
|
000000000080000000000100,
|
|
10101110,
|
|
00001200,
|
|
02020220,
|
|
10121000,
|
|
02020220,
|
|
1002000000000010,
|
|
10101110,
|
|
10121000,
|
|
1001101010000000,
|
|
1001102010000000,
|
|
11101110,
|
|
1011101010000000,
|
|
2000200020222000,
|
|
2000200020201200,
|
|
02020220,
|
|
#BPMCHANGE 102
|
|
10111100,
|
|
#BARLINEOFF
|
|
#BPMCHANGE 110
|
|
500000000000000000000000000000000000000000000008,
|
|
#END
|
|
|
|
SCOREINIT:
|
|
SCOREDIFF:
|
|
|
|
#START P2
|
|
02020202,
|
|
0000002000201200,
|
|
10101110,
|
|
11101000,
|
|
02020202,
|
|
0020002000201200,
|
|
10101110,
|
|
11101000,
|
|
02020202,
|
|
0022202000201200,
|
|
10101110,
|
|
1010121010000000,
|
|
00000022,
|
|
20000002,
|
|
22000000,
|
|
,
|
|
1111,
|
|
,
|
|
00122012,
|
|
1000000010000022,
|
|
1101,
|
|
000000500000000000000000000008000000000000100000,
|
|
12000000,
|
|
11,
|
|
1111,
|
|
10111010,
|
|
12121212,
|
|
1005,
|
|
000008000000,
|
|
02020220,
|
|
12000001,
|
|
10101110,
|
|
10121001,
|
|
10101110,
|
|
0000000010020000,
|
|
02020220,
|
|
10121000,
|
|
2000200020222000,
|
|
2000200020201200,
|
|
02020220,
|
|
0020002000201200,
|
|
1001101010000000,
|
|
1001102010000000,
|
|
10101110,
|
|
#BPMCHANGE 102
|
|
10111100,
|
|
#BARLINEOFF
|
|
#BPMCHANGE 110
|
|
500000000000000000000000000000000000000000000008,
|
|
#END
|
|
|
|
STYLE:Single
|
|
|
|
SCOREINIT:860
|
|
SCOREDIFF:230
|
|
|
|
#START
|
|
10101110,
|
|
11101000,
|
|
10101110,
|
|
11101000,
|
|
10101110,
|
|
11101000,
|
|
10101110,
|
|
11101000,
|
|
10101102,
|
|
10111000,
|
|
10101110,
|
|
1010121010000000,
|
|
10200022,
|
|
20202002,
|
|
22022202,
|
|
2222,
|
|
1111,
|
|
10101012,
|
|
22122012,
|
|
1000100010001022,
|
|
1111,
|
|
10101011,
|
|
12011201,
|
|
2111,
|
|
1111,
|
|
1111,
|
|
12121212,
|
|
1115,
|
|
000000000000000000000008000000000000000000100000,
|
|
10101110,
|
|
12001201,
|
|
10101110,
|
|
10121001,
|
|
10101110,
|
|
1002000010020010,
|
|
10101110,
|
|
10121000,
|
|
1001102010200000,
|
|
10111000,
|
|
11101110,
|
|
1011101010000000,
|
|
1001102010000000,
|
|
1001102010000000,
|
|
10101110,
|
|
#BPMCHANGE 102
|
|
1110,
|
|
#BARLINEOFF
|
|
#BPMCHANGE 110
|
|
500000000000000000000000000000000000000000000008,
|
|
#END
|
|
|
|
COURSE:Normal
|
|
LEVEL:3
|
|
STYLE:Double
|
|
SCOREINIT:1360
|
|
|
|
#START P1
|
|
1110,
|
|
11101000,
|
|
02020220,
|
|
20222000,
|
|
1110,
|
|
11101000,
|
|
02020220,
|
|
20222000,
|
|
10101100,
|
|
10111000,
|
|
1110,
|
|
11103000,
|
|
1200,
|
|
2220,
|
|
00022200,
|
|
0022,
|
|
2,
|
|
10101002,
|
|
22000000,
|
|
2220,
|
|
0101,
|
|
0101,
|
|
00011200,
|
|
,
|
|
0101,
|
|
0101,
|
|
2022,
|
|
2225,
|
|
000000000000000000000000000008000000000000000000,
|
|
1110,
|
|
00001200,
|
|
02020220,
|
|
10111000,
|
|
02020220,
|
|
3,
|
|
10101110,
|
|
10111000,
|
|
1110,
|
|
10111000,
|
|
10101110,
|
|
10111000,
|
|
02020220,
|
|
02020220,
|
|
,
|
|
#BPMCHANGE 102
|
|
1110,
|
|
#BARLINEOFF
|
|
#BPMCHANGE 110
|
|
500000000000000000000000000000000000000000000008,
|
|
#END
|
|
|
|
#START P2
|
|
02020220,
|
|
20222000,
|
|
1110,
|
|
11101000,
|
|
02020220,
|
|
20222000,
|
|
1110,
|
|
11101000,
|
|
00200022,
|
|
00200022,
|
|
1110,
|
|
11103000,
|
|
,
|
|
00000002,
|
|
22000000,
|
|
2220,
|
|
1111,
|
|
,
|
|
00222000,
|
|
2220,
|
|
11,
|
|
10001001,
|
|
12000000,
|
|
1110,
|
|
11,
|
|
11,
|
|
2220,
|
|
2225,
|
|
000000000000000000000000000008000000000000000000,
|
|
02020220,
|
|
12000000,
|
|
1110,
|
|
10111000,
|
|
10101110,
|
|
03,
|
|
02020220,
|
|
10111000,
|
|
02020220,
|
|
02020220,
|
|
02020220,
|
|
02022000,
|
|
10111000,
|
|
10111000,
|
|
10101110,
|
|
#BPMCHANGE 102
|
|
1110,
|
|
#BARLINEOFF
|
|
#BPMCHANGE 110
|
|
500000000000000000000000000000000000000000000008,
|
|
#END
|
|
|
|
STYLE:Single
|
|
SCOREINIT:1100
|
|
SCOREDIFF:320
|
|
|
|
#START
|
|
1110,
|
|
11101000,
|
|
1110,
|
|
11101000,
|
|
1110,
|
|
11101000,
|
|
1110,
|
|
11101000,
|
|
10101100,
|
|
10111000,
|
|
1110,
|
|
11103000,
|
|
1200,
|
|
20202002,
|
|
22022200,
|
|
2220,
|
|
1111,
|
|
10101002,
|
|
22022000,
|
|
2220,
|
|
1111,
|
|
10101001,
|
|
12011200,
|
|
1110,
|
|
1111,
|
|
1111,
|
|
2222,
|
|
1111,
|
|
1,
|
|
1110,
|
|
12001200,
|
|
1110,
|
|
10111000,
|
|
10101110,
|
|
33,
|
|
10101110,
|
|
10111000,
|
|
10101200,
|
|
10111000,
|
|
10101110,
|
|
10111000,
|
|
10111000,
|
|
10111000,
|
|
10101110,
|
|
#BPMCHANGE 102
|
|
1110,
|
|
#BARLINEOFF
|
|
#BPMCHANGE 110
|
|
500000000000000000000000000000000000000000000008,
|
|
#END
|
|
|
|
COURSE:Easy
|
|
LEVEL:1
|
|
STYLE:Double
|
|
SCOREINIT:1110
|
|
|
|
|
|
#START P1
|
|
11,
|
|
1110,
|
|
0202,
|
|
0220,
|
|
0202,
|
|
0220,
|
|
1110,
|
|
1130,
|
|
10001100,
|
|
1110,
|
|
1110,
|
|
1130,
|
|
2200,
|
|
2220,
|
|
04,
|
|
,
|
|
1110,
|
|
1110,
|
|
1110,
|
|
1110,
|
|
,
|
|
11121,
|
|
03,
|
|
500000000000000000000008000000000000000000000000,
|
|
1120,
|
|
,
|
|
1110,
|
|
1015,
|
|
000000000000000000000000000008000000000000000000,
|
|
1110,
|
|
4,
|
|
0202,
|
|
1130,
|
|
0202,
|
|
03,
|
|
1110,
|
|
1130,
|
|
10111000,
|
|
2220,
|
|
1110,
|
|
1130,
|
|
2220,
|
|
10111000,
|
|
0202,
|
|
#BPMCHANGE 102
|
|
1110,
|
|
#BARLINEOFF
|
|
#BPMCHANGE 110
|
|
500000000000000000000000000000000000000000000008,
|
|
#END
|
|
|
|
SCOREINIT:1110
|
|
SCOREDIFF:
|
|
|
|
#START P2
|
|
0202,
|
|
0220,
|
|
1110,
|
|
1130,
|
|
11,
|
|
1110,
|
|
0202,
|
|
0220,
|
|
0202,
|
|
0220,
|
|
1110,
|
|
1130,
|
|
,
|
|
,
|
|
4,
|
|
2220,
|
|
0011,
|
|
1011,
|
|
11,
|
|
1110,
|
|
1121,
|
|
,
|
|
3,
|
|
3,
|
|
,
|
|
1120,
|
|
1011,
|
|
1015,
|
|
000000000000000000000000000008000000000000000000,
|
|
0202,
|
|
04,
|
|
1110,
|
|
1130,
|
|
1110,
|
|
3,
|
|
0202,
|
|
1130,
|
|
2220,
|
|
10111000,
|
|
0202,
|
|
0230,
|
|
10111000,
|
|
2220,
|
|
1110,
|
|
#BPMCHANGE 102
|
|
1110,
|
|
#BARLINEOFF
|
|
#BPMCHANGE 110
|
|
500000000000000000000000000000000000000000000008,
|
|
#END
|
|
|
|
STYLE:Single
|
|
SCOREINIT:900
|
|
SCOREDIFF:300
|
|
|
|
#START
|
|
11,
|
|
1110,
|
|
1110,
|
|
1130,
|
|
11,
|
|
1110,
|
|
1110,
|
|
1130,
|
|
10001100,
|
|
1110,
|
|
1110,
|
|
1130,
|
|
2200,
|
|
2220,
|
|
22,
|
|
2220,
|
|
1110,
|
|
1110,
|
|
22,
|
|
1110,
|
|
1120,
|
|
1120,
|
|
10011000,
|
|
1110,
|
|
1120,
|
|
1120,
|
|
2222,
|
|
1103,
|
|
,
|
|
1110,
|
|
22,
|
|
1110,
|
|
1130,
|
|
1110,
|
|
22,
|
|
1110,
|
|
1130,
|
|
10111000,
|
|
10111000,
|
|
1110,
|
|
1130,
|
|
10111000,
|
|
10111000,
|
|
1110,
|
|
#BPMCHANGE 102
|
|
1110,
|
|
#BARLINEOFF
|
|
#BPMCHANGE 110
|
|
500000000000000000000000000000000000000000000008,
|
|
#END
|