Files
2023-06-15 19:15:39 -05:00

382 lines
4.3 KiB
Plaintext

//TJADB Project
TITLE:Eine Kleine Nachtmusik
TITLEJA:アイネクライネナハトムジーク
SUBTITLE:--Wolfgang Amadeus Mozart
SUBTITLEJA:モーツァルト
BPM:143.93
WAVE:Eine Kleine Nachtmusik.ogg
OFFSET:-3.339
DEMOSTART:3.339
COURSE:Oni
LEVEL:7
SCOREINIT:620
SCOREDIFF:165
#START
10021002,
#BPMCHANGE 142.09
1020112010000000,
#BPMCHANGE 143.26
20012001,
#BPMCHANGE 143.24
2010221010000000,
#BPMCHANGE 143
1022222220111020,
1022222220112010,
1022222220111020,
1022222220112010,
1010111110101111,
1010111110000000,
,
1110200011102000,
1110111010102020,
1000200020002222,
22,
1110202011102020,
1110111010102020,
#GOGOSTART
1022222220111010,
1022222220111010,
1022202210221022,
1022102210112220,
1111100220022002,
1111100220022002,
1010201110102011,
1011202010000000,
#GOGOEND
2000002220002000,
3340,
2000002220002000,
22,
2000002220002000,
30304002,
11021202,
1000002220202020,
1010002022202020,
1010002220202020,
1010002022202020,
1010000011201120,
1020102011201120,
1020102010111020,
1011102020101122,
1000002220202020,
3030002010102220,
3030002220202020,
3030002010102220,
3030000030002011,
1020202030002011,
1020202010111020,
1010202020101122,
1000000010101111,
#BPMCHANGE 143.39
#SCROLL 0.99
1000000010101111,
#BPMCHANGE 143.24
1020111110000000,
#BPMCHANGE 141.88
#SCROLL 1
1000002010111011,
#BPMCHANGE 142.78
1020202010102220,
#BPMCHANGE 144.16
#SCROLL 0.99
1000002010111011,
#BPMCHANGE 142.45
#SCROLL 1
1022202022202000,
#BPMCHANGE 130.46
#SCROLL 1.09
34,
#GOGOSTART
#BPMCHANGE 142.28
#SCROLL 1
32211212,
#BPMCHANGE 143
1011102210002220,
32211212,
#BPMCHANGE 142.18
1011102210002220,
#BPMCHANGE 140.12
#SCROLL 1.02
33223322,
#BPMCHANGE 128.14
#SCROLL 1.11
300304300000,
#GOGOEND
#END
COURSE:Hard
LEVEL:6
SCOREINIT:640
SCOREDIFF:170
#START
#BPMCHANGE 143
10021002,
12121000,
20012001,
21211000,
1000100000111010,
1000100000111020,
1000100000111010,
1000100000111020,
11101110,
1010111110000000,//10
0,
11201120,
10101122,
1220,
0,
11201120,
10101122,
#GOGOSTART
1000000000111020,
1000000000111020,
1011,//20
1110111011101110,
5000800010011000,
5000800010011000,
11211121,
1022202020000000,
#GOGOEND
2000002220002000,
1110,
2000002220002000,
22,
2000002220002000,//30
1110,
11021102,
10022222,
1010002022202020,
11022222,
1010002022202020,
1010000011101110,
3000000011101110,
3000000010111020,
11221112,//40
10022212,
1010002022201020,
11022212,
1010002022201020,
1010000030002011,
1000200030002011,
1000200010111020,
11222112,
1000000020201111,
1000000020201111,//50
1020111110000000,
1000001010101110,
1,
1000001010102220,
2,
#BPMCHANGE 130
#SCROLL 1.1
34,
#GOGOSTART
#BPMCHANGE 143
#SCROLL 1
30021122,
1011101110004000,
30021122,
1011101110004000,//60
#BPMCHANGE 137
#SCROLL 1.04
11221122,
#BPMCHANGE 127
#SCROLL 1.13
300404300000,
#END
COURSE:Normal
LEVEL:4
BALLOON:6,6
SCOREINIT:890
SCOREDIFF:250
#START
#BPMCHANGE 143
11,
1110,
22,
2220,
3002,
3002,
3002,
3002,
33,
3330,
0,
1212,
1122,
1220,
0,
1212,
1122,
#GOGOSTART
10000110,
10000110,
33,
3333,
60000800,
60000800,
11101110,
1110,
#GOGOEND
2022,
1110,
2022,
11,
2022,
1110,
11001100,
1022,
3022,
3022,
3022,
30001001,
10001001,
1011,
11101010,
1022,
11001010,
11002020,
11001010,
11003001,
10003001,
1011,
11101011,
1022,
1022,
1110,
1011,
7008,
1011,
7008,
34,
#GOGOSTART
#BPMCHANGE 143
#SCROLL 1
50000800,
1112,
50000800,
1112,//60
#BPMCHANGE 137
#SCROLL 1.04
5858,
#BPMCHANGE 127
#SCROLL 1.13
3330,
#END
COURSE:Easy
LEVEL:4
BALLOON:5,5,10
SCOREINIT:750
SCOREDIFF:250
#START
#BPMCHANGE 143
11,
1110,
22,
2220,
3,
1,
3,
1,
11,
1110,
0,
0202,
0202,
1110,
0,
0202,
0211,
#GOGOSTART
1001,
1001,
11,
3333,
50000800,
50000800,
1111,
3330,
#GOGOEND
22,
1110,
22,
11,
22,
1110,
3011,
1002,
1002,
1002,
1002,
1030,
43,
41,
1011,
1070,
0811,
1070,
0811,
13,
43,
41,
1033,
3022,
1022,
2220,
1011,
1,
1022,
2,
#BPMCHANGE 130
#SCROLL 1.1
34,
#GOGOSTART
#BPMCHANGE 143
#SCROLL 1
50008000,
1110,
50008000,
1110,//60
#BPMCHANGE 137
#SCROLL 1.04
9,
#BPMCHANGE 127
#SCROLL 1.13
0008,
#END