- Lots of Donscore2TJA stuff fixed correctly with PeepoDrumKit. - XEVIOUS Kantan and Futsuu fixed with big note being a 12th instead of a 4th/8th. - Star Soldier Medley has its delay correctly applied. - The Ultimate now has the correct TITLEJA.
823 lines
9.0 KiB
Plaintext
823 lines
9.0 KiB
Plaintext
//TJADB Project
|
|
TITLE:From the New World
|
|
TITLEJA:新世界より
|
|
SUBTITLE:--Antonín Leopold Dvorak
|
|
BPM:152
|
|
WAVE:From the New World.ogg
|
|
OFFSET:-3.829
|
|
DEMOSTART:14.572
|
|
|
|
COURSE:Oni
|
|
LEVEL:7
|
|
BALLOON:5,5,5,20
|
|
SCOREINIT:540
|
|
SCOREDIFF:133
|
|
|
|
#START
|
|
,
|
|
#BPMCHANGE 162
|
|
0,
|
|
#BPMCHANGE 158
|
|
0,
|
|
#BPMCHANGE 156
|
|
1111,
|
|
1111,
|
|
#BPMCHANGE 155.5
|
|
0111,
|
|
500000000000000000000000000000000008000000000000,
|
|
#BPMCHANGE 154
|
|
3011,
|
|
#BPMCHANGE 155
|
|
30011000,
|
|
30003011,
|
|
3001,
|
|
3011,
|
|
30011000,
|
|
300222100100,
|
|
#BPMCHANGE 154
|
|
500000000000000000000000000000000008000000000000,
|
|
#BPMCHANGE 155
|
|
2022,
|
|
20022000,
|
|
20002022,
|
|
20111000,
|
|
2022,
|
|
20022000,
|
|
20002022,
|
|
20111010,
|
|
#GOGOSTART
|
|
3011,
|
|
30011000,
|
|
30003011,
|
|
3001,
|
|
3011,
|
|
3000001110000000,
|
|
1110000020001000,
|
|
1110000020001000,
|
|
1110201011102010,
|
|
#BPMCHANGE 156
|
|
1110201022112211,
|
|
#BPMCHANGE 159
|
|
111212111212,
|
|
#BPMCHANGE 160
|
|
111202101201,
|
|
#BPMCHANGE 161
|
|
122122112221,
|
|
#BPMCHANGE 160
|
|
111212111212,
|
|
111202101201,
|
|
122122122100,
|
|
#BPMCHANGE 157
|
|
1110102010222010,
|
|
1110102010222010,
|
|
22222222,
|
|
2240,
|
|
1000001010221020,
|
|
1110222011102220,
|
|
1000001010221020,
|
|
1110222011102220,
|
|
11111111,
|
|
1120,
|
|
#GOGOEND
|
|
0000200022112000,
|
|
0000200022112000,
|
|
0000200022112000,
|
|
000000500000000000080000,
|
|
#GOGOSTART
|
|
#BPMCHANGE 160
|
|
3011,
|
|
30011000,
|
|
3303,
|
|
00300330,
|
|
0303,
|
|
03300030,
|
|
1110201011102010,
|
|
1110201011102010,
|
|
1110111011201120,
|
|
1220122012201220,
|
|
#BPMCHANGE 166
|
|
500000000000000000000000000000000008000000000000,
|
|
500000000000000000000000000000000008000000000000,
|
|
3111,
|
|
1111,
|
|
1110202010012000,
|
|
1110202010012000,
|
|
1110222011102220,
|
|
1110222011102220,
|
|
2220111022201110,
|
|
2220111022201110,
|
|
1010101011221122,
|
|
1000700008000000,
|
|
1010101011221122,
|
|
1000700008000000,
|
|
1010101011221122,
|
|
1000700008000000,
|
|
#BPMCHANGE 172
|
|
1111,
|
|
1111,
|
|
1111,
|
|
100111100111,
|
|
100111100111,
|
|
100111100111,
|
|
100111100111,
|
|
1,
|
|
33,
|
|
3,
|
|
3,
|
|
7,
|
|
000000000000000000000000000000080000000000000000,
|
|
3,
|
|
#END
|
|
|
|
|
|
COURSE:Hard
|
|
LEVEL:6
|
|
BALLOON:5,5,5,20
|
|
SCOREINIT:590
|
|
SCOREDIFF:155
|
|
|
|
|
|
#START
|
|
|
|
|
|
,
|
|
#BPMCHANGE 162
|
|
,
|
|
#BPMCHANGE 158
|
|
,
|
|
#BPMCHANGE 156
|
|
1111,
|
|
1111,
|
|
#BPMCHANGE 155.5
|
|
0111,
|
|
500000000000000000000000000000000008000000000000,
|
|
|
|
#SECTION
|
|
#BRANCHSTART p,75,90
|
|
#N
|
|
#BPMCHANGE 154
|
|
3,
|
|
#BPMCHANGE 155
|
|
3,
|
|
33,
|
|
3001,
|
|
3,
|
|
3,
|
|
3011,
|
|
#BPMCHANGE 154
|
|
500000000008000000000000300000000000000000000000,
|
|
|
|
#E
|
|
#BPMCHANGE 154
|
|
3011,
|
|
#BPMCHANGE 155
|
|
3,
|
|
33,
|
|
3001,
|
|
3011,
|
|
3,
|
|
3011,
|
|
#BPMCHANGE 154
|
|
500000000000000000000000000000000008000000000000,
|
|
|
|
#M
|
|
#BPMCHANGE 154
|
|
3011,
|
|
#BPMCHANGE 155
|
|
30011000,
|
|
30003011,
|
|
3001,
|
|
3011,
|
|
30011000,
|
|
300222100100,
|
|
#BPMCHANGE 154
|
|
500000000000000000000000000000000008000000000000,
|
|
|
|
#SECTION
|
|
#BRANCHSTART p,75,90
|
|
#N
|
|
#BPMCHANGE 155
|
|
2022,
|
|
22,
|
|
22,
|
|
2110,
|
|
2022,
|
|
22,
|
|
22,
|
|
2110,
|
|
|
|
#E
|
|
#BPMCHANGE 155
|
|
2022,
|
|
20022000,
|
|
2022,
|
|
2110,
|
|
2022,
|
|
20022000,
|
|
2022,
|
|
2130,
|
|
|
|
#M
|
|
#BPMCHANGE 155
|
|
2022,
|
|
20022000,
|
|
20002022,
|
|
20111000,
|
|
2022,
|
|
20022000,
|
|
20002022,
|
|
20111010,
|
|
|
|
#SECTION
|
|
#BRANCHSTART p,75,90
|
|
#N
|
|
#GOGOSTART
|
|
3,
|
|
3,
|
|
33,
|
|
3001,
|
|
3,
|
|
31,
|
|
1011,
|
|
1011,
|
|
1111,
|
|
#BPMCHANGE 156
|
|
1111,
|
|
|
|
#E
|
|
#GOGOSTART
|
|
3011,
|
|
30011000,
|
|
33,
|
|
3001,
|
|
3011,
|
|
31,
|
|
500000000000000008000000100000000000100000000000,
|
|
500000000000000008000000100000000000100000000000,
|
|
1110100011101000,
|
|
#BPMCHANGE 156
|
|
11101110,
|
|
|
|
#M
|
|
#GOGOSTART
|
|
3011,
|
|
30011000,
|
|
30003011,
|
|
3001,
|
|
3011,
|
|
3000001110000000,
|
|
500000000000000008000000100000000000100000000000,
|
|
500000000000000008000000100000000000100000000000,
|
|
1110101011101010,
|
|
#BPMCHANGE 156
|
|
1110101010101010,
|
|
|
|
#SECTION
|
|
#BRANCHSTART p,75,90
|
|
#N
|
|
#BPMCHANGE 159
|
|
1111,
|
|
#BPMCHANGE 160
|
|
1111,
|
|
#BPMCHANGE 161
|
|
1140,
|
|
#BPMCHANGE 160
|
|
1111,
|
|
1111,
|
|
1140,
|
|
|
|
#E
|
|
#BPMCHANGE 159
|
|
1110100011101000,
|
|
#BPMCHANGE 160
|
|
1111,
|
|
#BPMCHANGE 161
|
|
1140,
|
|
#BPMCHANGE 160
|
|
1110100011101000,
|
|
1111,
|
|
1130,
|
|
|
|
#M
|
|
#BPMCHANGE 159
|
|
1110100011101000,
|
|
#BPMCHANGE 160
|
|
100100100000100000001000100000001000100000001000,
|
|
#BPMCHANGE 161
|
|
1140,
|
|
#BPMCHANGE 160
|
|
1110100011101000,
|
|
100100100000100000001000100000001000100000001000,
|
|
1130,
|
|
|
|
#SECTION
|
|
#BRANCHSTART p,75,90
|
|
#N
|
|
#BPMCHANGE 157
|
|
500000000008000000000000100000000000000000000000,
|
|
500000000008000000000000100000000000000000000000,
|
|
2222,
|
|
2240,
|
|
1001,
|
|
01,
|
|
0100,
|
|
1001,
|
|
1111,
|
|
1120,
|
|
|
|
#E
|
|
#BPMCHANGE 157
|
|
10011000,
|
|
10011000,
|
|
22202220,
|
|
2240,
|
|
10011000,
|
|
1111,
|
|
10011000,
|
|
1111,
|
|
1111,
|
|
1120,
|
|
|
|
#M
|
|
#BPMCHANGE 157
|
|
10011000,
|
|
10011000,
|
|
22222222,
|
|
2240,
|
|
10011001,
|
|
1111,
|
|
10011001,
|
|
1111,
|
|
1111,
|
|
1120,
|
|
|
|
#SECTION
|
|
#BRANCHSTART p,75,90
|
|
#N
|
|
#GOGOEND
|
|
0202,
|
|
0202,
|
|
0202,
|
|
000000000000500000000000000000000000000008000000,
|
|
|
|
#E
|
|
#GOGOEND
|
|
0202,
|
|
0202,
|
|
0202,
|
|
000000000000500000000000000000000000000008000000,
|
|
|
|
#M
|
|
#GOGOEND
|
|
0202,
|
|
0202,
|
|
0202,
|
|
000000000000500000000000000000000000000008000000,
|
|
|
|
#SECTION
|
|
#BRANCHSTART p,75,90
|
|
#N
|
|
#GOGOSTART
|
|
#BPMCHANGE 160
|
|
1,
|
|
1,
|
|
11,
|
|
1001,
|
|
11,
|
|
1,
|
|
|
|
#E
|
|
#GOGOSTART
|
|
#BPMCHANGE 160
|
|
3011,
|
|
3,
|
|
11,
|
|
1001,
|
|
11,
|
|
1001,
|
|
|
|
#M
|
|
#GOGOSTART
|
|
#BPMCHANGE 160
|
|
3011,
|
|
30011000,
|
|
1101,
|
|
00100110,
|
|
0101,
|
|
01100010,
|
|
|
|
#SECTION
|
|
#BRANCHSTART p,75,90
|
|
#N
|
|
1111,
|
|
1111,
|
|
1111,
|
|
1111,
|
|
|
|
#E
|
|
10111011,
|
|
10111010,
|
|
11111111,
|
|
11111111,
|
|
|
|
#M
|
|
1001101010011010,
|
|
1001101010011010,
|
|
1110111011101110,
|
|
1110111011101110,
|
|
|
|
#SECTION
|
|
#BRANCHSTART p,75,90
|
|
#N
|
|
#BPMCHANGE 166
|
|
3,
|
|
3,
|
|
3,
|
|
0011,
|
|
11,
|
|
11,
|
|
1111,
|
|
1111,
|
|
1111,
|
|
1111,
|
|
|
|
#E
|
|
#BPMCHANGE 166
|
|
500000000000000000000000000000000008000000000000,
|
|
500000000000000000000000000000000008000000000000,
|
|
3,
|
|
3011,
|
|
1110200010002000,
|
|
1110200010002000,
|
|
1111,
|
|
1111,
|
|
1111,
|
|
1111,
|
|
|
|
#M
|
|
#BPMCHANGE 166
|
|
500000000000000000000000000000000008000000000000,
|
|
500000000000000000000000000000000008000000000000,
|
|
3111,
|
|
1111,
|
|
1110202010002000,
|
|
1110202010002000,
|
|
1111,
|
|
1111,
|
|
1111,
|
|
1111,
|
|
|
|
#SECTION
|
|
#BRANCHSTART p,75,90
|
|
#N
|
|
11111111,
|
|
100000000000500000000000000000000008000000000000,
|
|
|
|
#E
|
|
11111111,
|
|
100000000000600000000000000000000008000000000000,
|
|
|
|
#M
|
|
11111111,
|
|
3708,
|
|
|
|
#SECTION
|
|
#BRANCHSTART p,75,90
|
|
#N
|
|
11111111,
|
|
100000000000500000000000000000000008000000000000,
|
|
|
|
#E
|
|
11111111,
|
|
100000000000600000000000000000000008000000000000,
|
|
|
|
#M
|
|
11111111,
|
|
3708,
|
|
|
|
#SECTION
|
|
#BRANCHSTART p,75,90
|
|
#N
|
|
11111111,
|
|
100000000000500000000000000000000008000000000000,
|
|
|
|
#E
|
|
11111111,
|
|
100000000000600000000000000000000008000000000000,
|
|
|
|
#M
|
|
11111111,
|
|
3708,
|
|
|
|
#SECTION
|
|
#BRANCHSTART p,75,90
|
|
#N
|
|
#BPMCHANGE 172
|
|
1111,
|
|
1111,
|
|
1111,
|
|
100111100111,
|
|
100111100111,
|
|
100111100111,
|
|
100111100111,
|
|
1,
|
|
11,
|
|
1,
|
|
1,
|
|
|
|
#E
|
|
#BPMCHANGE 172
|
|
1111,
|
|
1111,
|
|
1111,
|
|
100111100111,
|
|
100111100111,
|
|
100111100111,
|
|
100111100111,
|
|
3,
|
|
33,
|
|
3,
|
|
3,
|
|
|
|
#M
|
|
#BPMCHANGE 172
|
|
1111,
|
|
1111,
|
|
1111,
|
|
100111100111,
|
|
100111100111,
|
|
100111100111,
|
|
100111100111,
|
|
3,
|
|
33,
|
|
3,
|
|
3,
|
|
|
|
#SECTION
|
|
#BRANCHSTART p,75,90
|
|
#N
|
|
7,
|
|
0008,
|
|
3,
|
|
|
|
#E
|
|
5,
|
|
000000000000000000000000000000000008000000000000,
|
|
3,
|
|
|
|
#M
|
|
6,
|
|
000000000000000000000000000000000008000000000000,
|
|
3,
|
|
|
|
#BRANCHEND
|
|
#GOGOEND
|
|
|
|
|
|
#END
|
|
|
|
|
|
COURSE:Normal
|
|
LEVEL:5
|
|
BALLOON:14
|
|
SCOREINIT:750
|
|
SCOREDIFF:250
|
|
|
|
#START
|
|
,
|
|
#BPMCHANGE 162
|
|
0,
|
|
#BPMCHANGE 158
|
|
0,
|
|
#BPMCHANGE 156
|
|
1111,
|
|
1111,
|
|
#BPMCHANGE 155.5
|
|
0111,
|
|
500000000000000000000000000000000008000000000000,
|
|
#BPMCHANGE 154
|
|
3,
|
|
#BPMCHANGE 155
|
|
3,
|
|
33,
|
|
3001,
|
|
3,
|
|
3,
|
|
3011,
|
|
#BPMCHANGE 154
|
|
500000000008000000000000300000000000000000000000,
|
|
#BPMCHANGE 155
|
|
2022,
|
|
22,
|
|
22,
|
|
2110,
|
|
2022,
|
|
22,
|
|
22,
|
|
2130,
|
|
#GOGOSTART
|
|
3,
|
|
3,
|
|
33,
|
|
3001,
|
|
3,
|
|
11,
|
|
1011,
|
|
1011,
|
|
1111,
|
|
#BPMCHANGE 156
|
|
1111,
|
|
#BPMCHANGE 159
|
|
1111,
|
|
#BPMCHANGE 160
|
|
1111,
|
|
#BPMCHANGE 161
|
|
1140,
|
|
#BPMCHANGE 160
|
|
1111,
|
|
1111,
|
|
1130,
|
|
#BPMCHANGE 157
|
|
500000000008000000000000100000000000000000000000,
|
|
500000000008000000000000100000000000000000000000,
|
|
2222,
|
|
2240,
|
|
1001,
|
|
01,
|
|
0100,
|
|
1001,
|
|
1111,
|
|
1120,
|
|
#GOGOEND
|
|
0202,
|
|
0202,
|
|
0202,
|
|
000000000000500000000000000000000008000000000000,
|
|
#GOGOSTART
|
|
#BPMCHANGE 160
|
|
1,
|
|
1,
|
|
11,
|
|
1001,
|
|
11,
|
|
1,
|
|
1111,
|
|
1111,
|
|
1111,
|
|
1111,
|
|
#BPMCHANGE 166
|
|
3,
|
|
3,
|
|
3,
|
|
0011,
|
|
11,
|
|
11,
|
|
1111,
|
|
1111,
|
|
1111,
|
|
1111,
|
|
11101110,
|
|
500000000000000000000000000000000008000000000000,
|
|
11101110,
|
|
500000000000000000000000000000000008000000000000,
|
|
11101110,
|
|
500000000000000000000000000000000008000000000000,
|
|
#BPMCHANGE 172
|
|
1111,
|
|
1111,
|
|
1111,
|
|
11,
|
|
11,
|
|
11,
|
|
11,
|
|
1,
|
|
11,
|
|
1,
|
|
1,
|
|
7,
|
|
00000800,
|
|
3,
|
|
#END
|
|
|
|
COURSE:Easy
|
|
LEVEL:4
|
|
BALLOON:10,10
|
|
SCOREINIT:570
|
|
SCOREDIFF:213
|
|
|
|
#START
|
|
,
|
|
#BPMCHANGE 162
|
|
0,
|
|
#BPMCHANGE 158
|
|
0,
|
|
#BPMCHANGE 156
|
|
11,
|
|
1011,
|
|
#BPMCHANGE 155.5
|
|
0111,
|
|
50000800,
|
|
#BPMCHANGE 154
|
|
3,
|
|
#BPMCHANGE 155
|
|
3,
|
|
33,
|
|
3,
|
|
3,
|
|
3,
|
|
33,
|
|
#BPMCHANGE 154
|
|
600000000000000000000008000000000000000000000000,
|
|
#BPMCHANGE 155
|
|
2022,
|
|
22,
|
|
22,
|
|
2,
|
|
2022,
|
|
22,
|
|
22,
|
|
2,
|
|
#GOGOSTART
|
|
3,
|
|
3,
|
|
33,
|
|
3,
|
|
3,
|
|
33,
|
|
1011,
|
|
1011,
|
|
11,
|
|
#BPMCHANGE 156
|
|
11,
|
|
#BPMCHANGE 159
|
|
11,
|
|
#BPMCHANGE 160
|
|
1111,
|
|
#BPMCHANGE 161
|
|
1,
|
|
#BPMCHANGE 160
|
|
11,
|
|
1111,
|
|
11,
|
|
#BPMCHANGE 157
|
|
50000800,
|
|
50000800,
|
|
22,
|
|
2220,
|
|
1,
|
|
11,
|
|
1,
|
|
11,
|
|
1111,
|
|
12,
|
|
#GOGOEND
|
|
0202,
|
|
0202,
|
|
0202,
|
|
,
|
|
#GOGOSTART
|
|
#BPMCHANGE 160
|
|
1,
|
|
1,
|
|
11,
|
|
1,
|
|
11,
|
|
1,
|
|
11,
|
|
11,
|
|
1110,
|
|
1110,
|
|
#BPMCHANGE 166
|
|
9,
|
|
08,
|
|
3,
|
|
,
|
|
11,
|
|
11,
|
|
1110,
|
|
1110,
|
|
1110,
|
|
1110,
|
|
11101000,
|
|
50000800,
|
|
11101000,
|
|
50000800,
|
|
11101000,
|
|
50000800,
|
|
#BPMCHANGE 172
|
|
11,
|
|
11,
|
|
11,
|
|
1110,
|
|
1110,
|
|
1111,
|
|
1111,
|
|
1,
|
|
11,
|
|
1,
|
|
1,
|
|
9,
|
|
08,
|
|
3,
|
|
#END
|