Files
TFD500 e86d2787f2 The Donscore Incident (2025, colorized)
- Lots of Donscore2TJA stuff fixed correctly with PeepoDrumKit.
- XEVIOUS Kantan and Futsuu fixed with big note being a 12th instead of a 4th/8th.
- Star Soldier Medley has its delay correctly applied.
- The Ultimate now has the correct TITLEJA.
2025-11-17 11:20:05 -05:00

322 lines
3.4 KiB
Plaintext

//TJADB Project
TITLE:Republic Praise
TITLEJA:リパブリック産科
SUBTITLE:--Mie Arakawa -Battle Hymn of the Republic Rendition-
BPM:138
WAVE:Republic Praise.ogg
OFFSET:-2.01
DEMOSTART:15.923
COURSE:Oni
LEVEL:7
SCOREINIT:610
SCOREDIFF:163
#START
11210121,
01210121,
01210121,
0010201002002000,
11210121,
0010212002102010,
01210121,
0010201002102000,
#GOGOSTART
1010202101102010,
1010201202102022,
1010201101102010,
1010201202102000,
1010201101102010,
1010201202102022,
1010201101102000,
500000000000000000000008000000000000000000000000,
1110201101012010,
1110201101012020,
1110201101012010,
1110201101012022,
1110201101012010,
1110201101012020,
1110201101012010,
500000000000000000000000000008000000000000000000,
#GOGOEND
10200120,
1000202002002000,
1010212000102000,
1010212012002000,
1010212000102000,
1010212012002000,
1010212000102000,
1010212012002000,
1010211010102110,
1010212012102000,
1010211010102110,
1010211012102000,
1001211010012110,
1001211012102000,
1001211010012110,
1001211012102000,
1001211010012110,
1001211012102000,
1001211010012110,
1001211012102000,
3,
,
#GOGOSTART
1010200101102010,
1010200101102022,
1010200101102010,
1010200101102000,
1010200101102010,
1010200101102022,
1010200101102010,
500000000000000000000008000000000000000000000000,
1110201101012010,
1110201101012020,
1110201101012010,
1110201101012220,
10202122,
1000202202102000,
10202120,
1210200022102022,
10202120,
1000202202102000,
500000000000000000000000000000000000000000000008,
#GOGOEND
0,
,
#END
COURSE:Hard
LEVEL:6
SCOREINIT:700
SCOREDIFF:170
#START
11210121,
01210221,
01210121,
0010201002002000,
11210121,
01210121,
01210121,
01212000,
#GOGOSTART
1000200101102000,
1000200101102020,
1000200101102000,
1000200101102000,
1000200101102000,
1000200101102020,
1000200101102000,
5000000800000000,
1110201101012000,
1110201101012020,
1110201101012000,
1110201101012000,
1110201101012000,
1110201101012000,
1110201101012000,
3,
#GOGOEND
10200120,
1000202002002000,
10200120,
1000200002002000,
10200120,
1000202002002000,
10200120,
1000200002002000,
10200120,
1000202002002000,
10220120,
1000200002002000,
1000200110102000,
1000200110102000,
1000200110102000,
1001200110202000,
1000200110102000,
1000200110102000,
1000200110102000,
1001200110102000,
3,
,
#GOGOSTART
1000200101102000,
1000200101102020,
1000200101102000,
1000200101102000,
1000200101102000,
1000200101102020,
1000200101102000,
5000000800000000,
1110201101012000,
1110201101012020,
1110201101012000,
1110201101012000,
10202122,
10202120,
10202120,
10202120,
1220,
1220,
5000000000000008,
#GOGOEND
#END
COURSE:Normal
LEVEL:3
BALLOON:30
SCOREINIT:830
SCOREDIFF:320
#START
0202,
0202,
0202,
0200,
1202,
1202,
1212,
3440,
#GOGOSTART
1112,
1110,
1112,
1110,
1112,
1220,
1111,
50080000,
1012,
1110,
1012,
1110,
1012,
1110,
1212,
3,
#GOGOEND
1202,
1202,
1202,
1201,
1021,
1021,
1021,
1001,
1021,
1021,
1022,
2001,
1001,
1001,
1011,
1002,
1002,
1002,
1021,
1,
3,
,
#GOGOSTART
1112,
1110,
1112,
1110,
1112,
1110,
1111,
1,
1012,
1110,
1012,
1110,
1011,
1011,
1011,
11,
33,
33,
7,
#GOGOEND
0,
8,
#END
COURSE:Easy
LEVEL:3
SCOREINIT:740
SCOREDIFF:342
#START
0202,
0202,
0202,
0200,
0202,
0202,
0202,
2220,
#GOGOSTART
1110,
1110,
1110,
2220,
1110,
2220,
11,
3,
11,
1110,
11,
2220,
11,
1110,
11,
3,
#GOGOEND
1,
1,
1,
1,
12,
12,
12,
1,
12,
12,
1022,
2001,
1001,
1001,
1011,
1002,
1002,
1002,
1021,
1,
3,
,
#GOGOSTART
11,
1110,
11,
2220,
11,
1110,
1111,
1,
11,
1110,
11,
2220,
11,
22,
11,
1,
11,
22,
500000000000000000000000000000000000000000000008,
#GOGOEND
#END