1184 lines
17 KiB
Plaintext
1184 lines
17 KiB
Plaintext
//TJADB Project
|
|
TITLE:Toy Symphony
|
|
TITLEJA:おもちゃのシンフォニー
|
|
SUBTITLE:--L. Mozart
|
|
SUBTITLEJA:L.モーツァルト
|
|
BPM:125.28
|
|
WAVE:Toy Symphony.ogg
|
|
OFFSET:-2.315
|
|
DEMOSTART:2.304
|
|
|
|
COURSE:Oni
|
|
LEVEL:6
|
|
|
|
STYLE:Double
|
|
SCOREINIT:730
|
|
SCOREDIFF:130
|
|
|
|
|
|
#START P1
|
|
|
|
|
|
10221022,
|
|
#BPMCHANGE 124.42
|
|
1000202010222000,
|
|
#MEASURE 2/4
|
|
#BPMCHANGE 126.87
|
|
20221010,
|
|
#MEASURE 4/4
|
|
#BPMCHANGE 126.6
|
|
10221022,
|
|
#BPMCHANGE 125.46
|
|
1000202010222000,
|
|
#MEASURE 2/4
|
|
#BPMCHANGE 127.41
|
|
10221010,
|
|
#MEASURE 4/4
|
|
#BPMCHANGE 125.45
|
|
10021000,
|
|
#BPMCHANGE 125.99
|
|
10221220,
|
|
#BPMCHANGE 126.16
|
|
1022101020000000,
|
|
#BPMCHANGE 126.52
|
|
0020100000001111,
|
|
#BPMCHANGE 126
|
|
1000111110001111,
|
|
1022102210201010,
|
|
2000200220003000,
|
|
2000200220003000,
|
|
2011201120112011,
|
|
21112000,
|
|
1111102010100000,
|
|
1111102010100000,
|
|
#BPMCHANGE 124.98
|
|
10221022,
|
|
#BPMCHANGE 125.98
|
|
1000202010222000,
|
|
#BPMCHANGE 126
|
|
1000202010222020,
|
|
#BPMCHANGE 126.68
|
|
1022202010222000,
|
|
#BPMCHANGE 126
|
|
12101212,
|
|
11111210,
|
|
12101212,
|
|
11111220,
|
|
2010202020022000,
|
|
2010202020022000,
|
|
#MEASURE 2/4
|
|
#BPMCHANGE 127.57
|
|
2122,
|
|
#MEASURE 4/4
|
|
#BPMCHANGE 127.05
|
|
3222,
|
|
#BPMCHANGE 125.63
|
|
,
|
|
#BPMCHANGE 125.28
|
|
1000200011111010,
|
|
#BPMCHANGE 125.63
|
|
2002200020022000,
|
|
#MEASURE 2/4
|
|
#BPMCHANGE 125.29
|
|
2,
|
|
|
|
#GOGOSTART
|
|
#MEASURE 4/4
|
|
#BPMCHANGE 125.1
|
|
#SECTION
|
|
#BRANCHSTART p,75,90
|
|
#N
|
|
10221022,
|
|
#BPMCHANGE 127.76
|
|
1000202010222000,
|
|
#BPMCHANGE 125.29
|
|
1022101020000000,
|
|
#BPMCHANGE 127.05
|
|
30223022,
|
|
#BPMCHANGE 125.96
|
|
3000202030222000,
|
|
#BPMCHANGE 126.37
|
|
3022101040000000,
|
|
#BPMCHANGE 125.94
|
|
00021002,
|
|
12121000,
|
|
#GOGOEND
|
|
#BPMCHANGE 124.67
|
|
2222200011111000,
|
|
#BPMCHANGE 126
|
|
2222200011111000,
|
|
12021202,
|
|
1022101010200020,
|
|
1022101020000000,
|
|
11221212,
|
|
300000400000400000300000600000000008000000200000,
|
|
2011101010200020,
|
|
2011101010201001,
|
|
1000200220001001,
|
|
1000200220000000,
|
|
1000111110001111,
|
|
1011101110101010,
|
|
2000200220000000,
|
|
2000200220000000,
|
|
1111102010100000,
|
|
1111102010100000,
|
|
12101000,
|
|
11111211,
|
|
11111021,
|
|
#BPMCHANGE 127.1
|
|
1010101010022000,
|
|
#BPMCHANGE 124.91
|
|
1010101010022000,
|
|
#MEASURE 2/4
|
|
#BPMCHANGE 127.82
|
|
1111,
|
|
#MEASURE 4/4
|
|
#BPMCHANGE 126
|
|
3,
|
|
1222,
|
|
0000200011221010,
|
|
#BPMCHANGE 62.5
|
|
#SCROLL 2
|
|
100000000000500000000000
|
|
#BPMCHANGE 55.5
|
|
000000000008000000000000
|
|
#BPMCHANGE 60
|
|
300000000000000000000000000000000000000000000000,
|
|
|
|
#E
|
|
#SCROLL 1.2
|
|
1000202010112020,
|
|
#BPMCHANGE 127.76
|
|
1011202010222000,
|
|
#BPMCHANGE 125.29
|
|
1022101020002220,
|
|
#BPMCHANGE 127.05
|
|
3011202030112020,
|
|
#BPMCHANGE 125.96
|
|
3011202030222000,
|
|
#BPMCHANGE 126.37
|
|
3022101040000000,
|
|
#BPMCHANGE 125.94
|
|
00021002,
|
|
12121000,
|
|
#GOGOEND
|
|
#BPMCHANGE 124.67
|
|
2222200011111000,
|
|
#BPMCHANGE 126
|
|
2222200011111000,
|
|
12021202,
|
|
1022101010200020,
|
|
1022101020000000,
|
|
11221212,
|
|
300000400000400000300000600000000008000000200000,
|
|
2011101010200020,
|
|
2011101010201001,
|
|
1000200220001001,
|
|
1000200220000000,
|
|
1000121210001212,
|
|
1011102220101010,
|
|
2000200220000000,
|
|
2000200220000000,
|
|
1212102010100000,
|
|
1212102010100000,
|
|
10001210,
|
|
11121211,
|
|
11121021,
|
|
#BPMCHANGE 127.1
|
|
1010102010022000,
|
|
#BPMCHANGE 124.91
|
|
1010102010022000,
|
|
#MEASURE 2/4
|
|
#BPMCHANGE 127.82
|
|
1111,
|
|
#MEASURE 4/4
|
|
#BPMCHANGE 126
|
|
3,
|
|
1222,
|
|
0000200011221010,
|
|
#BPMCHANGE 62.5
|
|
#SCROLL 2.4
|
|
100000000000500000000000
|
|
#BPMCHANGE 55.5
|
|
000000000008000000000000
|
|
#BPMCHANGE 60
|
|
300000000000000000000000000000000000000000000000,
|
|
|
|
#M
|
|
#SCROLL 1.2
|
|
1000202010112020,
|
|
#BPMCHANGE 127.76
|
|
1011202010222000,
|
|
#BPMCHANGE 125.29
|
|
1022101020002220,
|
|
#BPMCHANGE 127.05
|
|
#SCROLL 1.5
|
|
3011202030112020,
|
|
#BPMCHANGE 125.96
|
|
3011202030222000,
|
|
#BPMCHANGE 126.37
|
|
3022101040000000,
|
|
#BPMCHANGE 125.94
|
|
00021002,
|
|
12121000,
|
|
#GOGOEND
|
|
#BPMCHANGE 124.67
|
|
2222222211111111,
|
|
#BPMCHANGE 126
|
|
2222222211111000,
|
|
12021202,
|
|
1022101010200020,
|
|
1022101020000000,
|
|
11221212,
|
|
300000400000400000300000600000000008000000200000,
|
|
2011101010200020,
|
|
2011101010201001,
|
|
1000200220001001,
|
|
1000200220000000,
|
|
1000121210001212,
|
|
1011102220101111,
|
|
2000200220000000,
|
|
2000200220002220,
|
|
1212102011100020,
|
|
1212102011100000,
|
|
12101210,
|
|
11121211,
|
|
1110102010002010,
|
|
#BPMCHANGE 127.1
|
|
1110102010022000,
|
|
#BPMCHANGE 124.91
|
|
1110102010022000,
|
|
#MEASURE 2/4
|
|
#BPMCHANGE 127.82
|
|
11101010,
|
|
#MEASURE 4/4
|
|
#BPMCHANGE 126
|
|
3,
|
|
1222,
|
|
0000200011221010,
|
|
#BPMCHANGE 62.5
|
|
#SCROLL 3
|
|
100000000000500000000000
|
|
#BPMCHANGE 55.5
|
|
000000000008000000000000
|
|
#BPMCHANGE 60
|
|
300000000000000000000000000000000000000000000000,
|
|
|
|
#BRANCHEND
|
|
|
|
|
|
#END
|
|
|
|
|
|
#START P2
|
|
|
|
|
|
10221022,
|
|
#BPMCHANGE 124.42
|
|
1000202010222000,
|
|
#MEASURE 2/4
|
|
#BPMCHANGE 126.87
|
|
20221010,
|
|
#MEASURE 4/4
|
|
#BPMCHANGE 126.6
|
|
10221022,
|
|
#BPMCHANGE 125.46
|
|
1000202010222000,
|
|
#MEASURE 2/4
|
|
#BPMCHANGE 127.41
|
|
10221010,
|
|
#MEASURE 4/4
|
|
#BPMCHANGE 125.45
|
|
1,
|
|
#BPMCHANGE 125.99
|
|
10221220,
|
|
#BPMCHANGE 126.16
|
|
1022101020201000,
|
|
#BPMCHANGE 126.52
|
|
0000002010001111,
|
|
#BPMCHANGE 126
|
|
1000111110001111,
|
|
1022102210201010,
|
|
2000200220003000,
|
|
2000200220003000,
|
|
2011201120112011,
|
|
21112000,
|
|
1111102010100000,
|
|
1111102010100000,
|
|
#BPMCHANGE 124.98
|
|
10221022,
|
|
#BPMCHANGE 125.98
|
|
1000202010222000,
|
|
#BPMCHANGE 126
|
|
1000202010222020,
|
|
#BPMCHANGE 126.68
|
|
1022202010222000,
|
|
#BPMCHANGE 126
|
|
12101212,
|
|
11111210,
|
|
12101212,
|
|
11111220,
|
|
2010202020022000,
|
|
2010202020022000,
|
|
#MEASURE 2/4
|
|
#BPMCHANGE 127.57
|
|
2122,
|
|
#MEASURE 4/4
|
|
#BPMCHANGE 127.05
|
|
3,
|
|
#BPMCHANGE 125.63
|
|
1222,
|
|
#BPMCHANGE 125.28
|
|
0000200011111010,
|
|
#BPMCHANGE 125.63
|
|
2002200020022000,
|
|
#MEASURE 2/4
|
|
#BPMCHANGE 125.29
|
|
2,
|
|
|
|
#GOGOSTART
|
|
#MEASURE 4/4
|
|
#BPMCHANGE 125.1
|
|
#SECTION
|
|
#BRANCHSTART p,75,90
|
|
#N
|
|
10221022,
|
|
#BPMCHANGE 127.76
|
|
1000202010222000,
|
|
#BPMCHANGE 125.29
|
|
1022101020000000,
|
|
#BPMCHANGE 127.05
|
|
30223022,
|
|
#BPMCHANGE 125.96
|
|
3000202030222000,
|
|
#BPMCHANGE 126.37
|
|
3022101040000020,
|
|
#BPMCHANGE 125.94
|
|
10000002,
|
|
12121000,
|
|
#GOGOEND
|
|
#BPMCHANGE 124.67
|
|
1111100022222000,
|
|
#BPMCHANGE 126
|
|
1111100022222000,
|
|
12021202,
|
|
1022101010200020,
|
|
1022101020000000,
|
|
11221212,
|
|
300000400000400000300000600000000008000000200000,
|
|
2011101010200020,
|
|
2011101010201001,
|
|
1000200220001001,
|
|
1000200220000000,
|
|
1000111110001111,
|
|
1011101110101010,
|
|
2000200220000000,
|
|
2000200220000000,
|
|
1111102010100000,
|
|
1111102010100000,
|
|
12101000,
|
|
11111211,
|
|
11111021,
|
|
#BPMCHANGE 127.1
|
|
1010101010022000,
|
|
#BPMCHANGE 124.91
|
|
1010101010022000,
|
|
#MEASURE 2/4
|
|
#BPMCHANGE 127.82
|
|
1111,
|
|
#MEASURE 4/4
|
|
#BPMCHANGE 126
|
|
3222,
|
|
,
|
|
1000200011221010,
|
|
#BPMCHANGE 62.5
|
|
#SCROLL 2
|
|
100000000000500000000000
|
|
#BPMCHANGE 55.5
|
|
000000000008000000000000
|
|
#BPMCHANGE 60
|
|
300000000000000000000000000000000000000000000000,
|
|
|
|
#E
|
|
#SCROLL 1.2
|
|
1000202010112020,
|
|
#BPMCHANGE 127.76
|
|
1011202010222000,
|
|
#BPMCHANGE 125.29
|
|
1022101020002220,
|
|
#BPMCHANGE 127.05
|
|
3011202030112020,
|
|
#BPMCHANGE 125.96
|
|
3011202030222000,
|
|
#BPMCHANGE 126.37
|
|
3022101040000020,
|
|
#BPMCHANGE 125.94
|
|
10000002,
|
|
12121000,
|
|
#GOGOEND
|
|
#BPMCHANGE 124.67
|
|
1111100022222000,
|
|
#BPMCHANGE 126
|
|
1111100022222000,
|
|
12021202,
|
|
1022101010200020,
|
|
1022101020000000,
|
|
11221212,
|
|
300000400000400000300000600000000008000000200000,
|
|
2011101010200020,
|
|
2011101010201001,
|
|
1000200220001001,
|
|
1000200220000000,
|
|
1000121210001212,
|
|
1011102220101010,
|
|
2000200220000000,
|
|
2000200220000000,
|
|
1212102010100000,
|
|
1212102010100000,
|
|
10001210,
|
|
11121211,
|
|
11121021,
|
|
#BPMCHANGE 127.1
|
|
1010102010022000,
|
|
#BPMCHANGE 124.91
|
|
1010102010022000,
|
|
#MEASURE 2/4
|
|
#BPMCHANGE 127.82
|
|
1111,
|
|
#MEASURE 4/4
|
|
#BPMCHANGE 126
|
|
3222,
|
|
,
|
|
1000200011221010,
|
|
#BPMCHANGE 62.5
|
|
#SCROLL 2
|
|
100000000000500000000000
|
|
#BPMCHANGE 55.5
|
|
000000000008000000000000
|
|
#BPMCHANGE 60
|
|
300000000000000000000000000000000000000000000000,
|
|
|
|
#M
|
|
#SCROLL 1.2
|
|
1000202010112020,
|
|
#BPMCHANGE 127.76
|
|
1011202010222000,
|
|
#BPMCHANGE 125.29
|
|
1022101020002220,
|
|
#BPMCHANGE 127.05
|
|
#SCROLL 1.5
|
|
3011202030112020,
|
|
#BPMCHANGE 125.96
|
|
3011202030222000,
|
|
#BPMCHANGE 126.37
|
|
3022101040000020,
|
|
#BPMCHANGE 125.94
|
|
10000002,
|
|
12121000,
|
|
#GOGOEND
|
|
#BPMCHANGE 124.67
|
|
1111111122222222,
|
|
#BPMCHANGE 126
|
|
1111111122222000,
|
|
12021202,
|
|
1022101010200020,
|
|
1022101020000000,
|
|
11221212,
|
|
300000400000400000300000600000000008000000200000,
|
|
2011101010200020,
|
|
2011101010201001,
|
|
1000200220001001,
|
|
1000200220000000,
|
|
1000121210001212,
|
|
1011102220101111,
|
|
2000200220000000,
|
|
2000200220002220,
|
|
1212102011100020,
|
|
1212102011100000,
|
|
12101210,
|
|
11121211,
|
|
1110102010002010,
|
|
#BPMCHANGE 127.1
|
|
1110102010022000,
|
|
#BPMCHANGE 124.91
|
|
1110102010022000,
|
|
#MEASURE 2/4
|
|
#BPMCHANGE 127.82
|
|
11101010,
|
|
#MEASURE 4/4
|
|
#BPMCHANGE 126
|
|
3222,
|
|
,
|
|
1000200011221010,
|
|
#BPMCHANGE 62.5
|
|
#SCROLL 2
|
|
100000000000500000000000
|
|
#BPMCHANGE 55.5
|
|
000000000008000000000000
|
|
#BPMCHANGE 60
|
|
300000000000000000000000000000000000000000000000,
|
|
|
|
|
|
#END
|
|
|
|
|
|
STYLE:Single
|
|
SCOREINIT:620
|
|
SCOREDIFF:168
|
|
|
|
|
|
#START
|
|
|
|
|
|
10221022,
|
|
#BPMCHANGE 124.42
|
|
1000202010222000,
|
|
#MEASURE 2/4
|
|
#BPMCHANGE 126.87
|
|
20221010,
|
|
#BPMCHANGE 126.6
|
|
#MEASURE 4/4
|
|
10221022,
|
|
#BPMCHANGE 125.46
|
|
1000202010222000,
|
|
#BPMCHANGE 127.41
|
|
#MEASURE 2/4
|
|
10221010,
|
|
#BPMCHANGE 125.45
|
|
#MEASURE 4/4
|
|
1,
|
|
#BPMCHANGE 125.99
|
|
1000202010222000,
|
|
#BPMCHANGE 126.16
|
|
1022101020000000,
|
|
#BPMCHANGE 126.52
|
|
0000000000001111,
|
|
#BPMCHANGE 126
|
|
1000111110001111,
|
|
1022102210201010,
|
|
2000200220001000,
|
|
2000200220001000,
|
|
2011201120112011,
|
|
21112000,
|
|
1111102010100000,
|
|
1111102010100000,
|
|
#BPMCHANGE 124.98
|
|
10221022,
|
|
#BPMCHANGE 125.98
|
|
1000202010222000,
|
|
#BPMCHANGE 126
|
|
1000202010222020,
|
|
#BPMCHANGE 126.68
|
|
1022202010222000,
|
|
#BPMCHANGE 126
|
|
12201222,
|
|
11111220,
|
|
12201222,
|
|
11111220,
|
|
2010202020022000,
|
|
2010202020022000,
|
|
#BPMCHANGE 127.57
|
|
#MEASURE 2/4
|
|
2122,
|
|
#BPMCHANGE 127.05
|
|
#MEASURE 4/4
|
|
3222,
|
|
#BPMCHANGE 125.63
|
|
1222,
|
|
#BPMCHANGE 125.28
|
|
1000200011111010,
|
|
#BPMCHANGE 125.63
|
|
2002200020022000,
|
|
#BPMCHANGE 125.29
|
|
#MEASURE 2/4
|
|
2,
|
|
|
|
#GOGOSTART
|
|
#MEASURE 4/4
|
|
#BPMCHANGE 125.1
|
|
#SECTION
|
|
#BRANCHSTART p,75,90
|
|
#N
|
|
10221022,
|
|
#BPMCHANGE 127.76
|
|
1000202010222000,
|
|
#BPMCHANGE 125.29
|
|
1022101020000000,
|
|
#BPMCHANGE 127.05
|
|
#SCROLL 1.5
|
|
30223022,
|
|
#BPMCHANGE 125.96
|
|
3000202030222000,
|
|
#BPMCHANGE 126.37
|
|
3022101040000020,
|
|
#BPMCHANGE 125.94
|
|
10021002,
|
|
12121000,
|
|
#GOGOEND
|
|
#BPMCHANGE 124.67
|
|
2222200011111000,
|
|
#BPMCHANGE 126
|
|
2222200011111000,
|
|
12021202,
|
|
1022101010200020,
|
|
1022101020000000,
|
|
11221212,
|
|
300000400000400000300000600000000008000000200000,
|
|
2011101010200020,
|
|
2011101010201001,
|
|
1000200220001001,
|
|
1000200220000000,
|
|
1000111110001111,
|
|
1011101110101010,
|
|
2000200220000000,
|
|
2000200220000000,
|
|
1111102010100000,
|
|
1111102010100000,
|
|
12101210,
|
|
11111211,
|
|
11111021,
|
|
#BPMCHANGE 127.1
|
|
1010101010022000,
|
|
#BPMCHANGE 124.91
|
|
1010101010022000,
|
|
#BPMCHANGE 127.82
|
|
#MEASURE 2/4
|
|
11101010,
|
|
#BPMCHANGE 126
|
|
#MEASURE 4/4
|
|
3222,
|
|
1222,
|
|
1000200011221010,
|
|
//use MEASURE 8/4 once it works
|
|
#BPMCHANGE 62.5
|
|
#SCROLL 2
|
|
100000000000500000000000
|
|
#BPMCHANGE 55.5
|
|
000000000008000000000000
|
|
#BPMCHANGE 60
|
|
300000000000000000000000000000000000000000000000,
|
|
|
|
#E
|
|
#SCROLL 1.2
|
|
1011202010112020,
|
|
#BPMCHANGE 127.76
|
|
1011202010222000,
|
|
#BPMCHANGE 125.29
|
|
1022101020002220,
|
|
#BPMCHANGE 127.05
|
|
3011202030112020,
|
|
#BPMCHANGE 125.96
|
|
3011202030222000,
|
|
#BPMCHANGE 126.37
|
|
3022101040000020,
|
|
#BPMCHANGE 125.94
|
|
10021002,
|
|
12121000,
|
|
#GOGOEND
|
|
#BPMCHANGE 124.67
|
|
2222200011111000,
|
|
#BPMCHANGE 126
|
|
2222200011111000,
|
|
12021202,
|
|
1022101010200020,
|
|
1022101020000000,
|
|
11221212,
|
|
300000400000400000300000600000000008000000200000,
|
|
2011101010200020,
|
|
2011101010201001,
|
|
1000200220001001,
|
|
1000200220000000,
|
|
1000121210001212,
|
|
1011102220101010,
|
|
2000200220000000,
|
|
2000200220000000,
|
|
1111102010100000,
|
|
1111102010100000,
|
|
12101210,
|
|
11121211,
|
|
11121021,
|
|
#BPMCHANGE 127.1
|
|
1010102010022000,
|
|
#BPMCHANGE 124.91
|
|
1010102010022000,
|
|
#MEASURE 2/4
|
|
#BPMCHANGE 127.82
|
|
1111,
|
|
#MEASURE 4/4
|
|
#BPMCHANGE 216
|
|
3222,
|
|
1222,
|
|
1000200011221010,
|
|
#BPMCHANGE 62.5
|
|
#SCROLL 2.4
|
|
100000000000500000000000
|
|
#BPMCHANGE 55.5
|
|
000000000008000000000000
|
|
#BPMCHANGE 60
|
|
300000000000000000000000000000000000000000000000,
|
|
|
|
#M
|
|
#SCROLL 1.2
|
|
1011202010112020,
|
|
#BPMCHANGE 125.76
|
|
1011202010222000,
|
|
#BPMCHANGE 125.29
|
|
1022101020002220,
|
|
#BPMCHANGE 127.05
|
|
#SCROLL 1.5
|
|
3011202030112020,
|
|
#BPMCHANGE 125.96
|
|
3011202030222000,
|
|
#BPMCHANGE 126.37
|
|
3022101040000020,
|
|
#BPMCHANGE 125.94
|
|
10021002,
|
|
12121000,
|
|
|
|
#GOGOEND
|
|
#BPMCHANGE 124.67
|
|
2222222211111111,
|
|
#BPMCHANGE 126
|
|
2222222211111111,
|
|
12021202,
|
|
1022101010200020,
|
|
1022101020000000,
|
|
11221212,
|
|
300000400000400000300000600000000008000000200000,
|
|
2011101010200020,
|
|
2011101010201001,
|
|
1000200220001001,
|
|
1000200220000000,
|
|
1000121210001212,
|
|
1011102220101111,
|
|
2000200220000000,
|
|
2000200220002220,
|
|
1111102011100020,
|
|
1111102011100000,
|
|
12101210,
|
|
11121211,
|
|
1110102010002010,
|
|
#BPMCHANGE 127.1
|
|
1110102010022000,
|
|
#BPMCHANGE 124.91
|
|
1110102010022000,
|
|
#MEASURE 2/4
|
|
#BPMCHANGE 127.82
|
|
11101010,
|
|
#MEASURE 4/4
|
|
#BPMCHANGE 126
|
|
3222,
|
|
1222,
|
|
1000200011221010,
|
|
#BPMCHANGE 62.5
|
|
#SCROLL 3
|
|
100000000000500000000000
|
|
#BPMCHANGE 55.5
|
|
000000000008000000000000
|
|
#BPMCHANGE 60
|
|
300000000000000000000000000000000000000000000000,
|
|
|
|
#BRANCHEND
|
|
|
|
|
|
#END
|
|
|
|
|
|
COURSE:Hard
|
|
LEVEL:5
|
|
BALLOON:20
|
|
SCOREINIT:710
|
|
SCOREDIFF:203
|
|
|
|
|
|
#START
|
|
|
|
|
|
11,
|
|
#BPMCHANGE 124.42
|
|
100000000000000000000000500000000008000000000000,
|
|
#BPMCHANGE 126.87
|
|
#MEASURE 2/4
|
|
11,
|
|
#BPMCHANGE 126.6
|
|
#MEASURE 4/4
|
|
10221022,
|
|
#BPMCHANGE 125.46
|
|
10221220,
|
|
#BPMCHANGE 127.41
|
|
#MEASURE 2/4
|
|
10221010,
|
|
#BPMCHANGE 125.45
|
|
#MEASURE 4/4
|
|
1,
|
|
#BPMCHANGE 125.99
|
|
10221220,
|
|
#BPMCHANGE 126.16
|
|
1022101020000000,
|
|
#BPMCHANGE 126.52
|
|
,
|
|
#BPMCHANGE 126
|
|
7,
|
|
00080010,
|
|
2000200220001000,
|
|
2000200220001000,
|
|
2222,
|
|
1120,
|
|
11121100,
|
|
11121100,
|
|
#BPMCHANGE 124.98
|
|
10221022,
|
|
#BPMCHANGE 125.98
|
|
1000202010222000,
|
|
#BPMCHANGE 126
|
|
10221022,
|
|
#BPMCHANGE 126.68
|
|
1000202010222000,
|
|
#BPMCHANGE 126
|
|
12201220,
|
|
11111220,
|
|
12201220,
|
|
11111220,
|
|
2010202020022000,
|
|
2010202020022000,
|
|
#BPMCHANGE 127.57
|
|
#MEASURE 2/4
|
|
2122,
|
|
#BPMCHANGE 127.05
|
|
#MEASURE 4/4
|
|
3,
|
|
#BPMCHANGE 125.63
|
|
,
|
|
#BPMCHANGE 125.28
|
|
0000200011111010,
|
|
#BPMCHANGE 125.63
|
|
2222,
|
|
#BPMCHANGE 125.29
|
|
#MEASURE 2/4
|
|
2,//34
|
|
|
|
#BPMCHANGE 125.1
|
|
#MEASURE 4/4
|
|
1022
|
|
#GOGOSTART
|
|
1022,
|
|
#BPMCHANGE 125.76
|
|
10221220,
|
|
#BPMCHANGE 125.29
|
|
1022101020000000,
|
|
#BPMCHANGE 127.05
|
|
30223022,
|
|
#BPMCHANGE 125.96
|
|
30223220,
|
|
#BPMCHANGE 126.37
|
|
3022101040000020,
|
|
#BPMCHANGE 125.94
|
|
20022002,
|
|
22222000,//42
|
|
|
|
#GOGOEND
|
|
#BPMCHANGE 124.67
|
|
22201110,
|
|
#BPMCHANGE 126
|
|
22201110,
|
|
12001200,
|
|
1022101010200000,
|
|
1022101020000000,
|
|
11111111,
|
|
300000300000300000300000600000000008000000000000,
|
|
2011101010200000,
|
|
2011101010201001,
|
|
1000200220001001,
|
|
1000200220000000,
|
|
11,
|
|
11111111,
|
|
2000200220000000,
|
|
2000200220000000,
|
|
11021100,
|
|
11021100,
|
|
11,
|
|
10101001,
|
|
11111021,
|
|
#BPMCHANGE 127.1
|
|
11111020,
|
|
#BPMCHANGE 124.91
|
|
11111020,
|
|
#BPMCHANGE 127.82
|
|
#MEASURE 2/4
|
|
1111,
|
|
#BPMCHANGE 126
|
|
#MEASURE 4/4
|
|
3,
|
|
,
|
|
0000200011111010,
|
|
#BPMCHANGE 125
|
|
100000000000000000000000000000000000000000000000
|
|
500000000000000000000000000000000000000000000000
|
|
#BPMCHANGE 114
|
|
000000000000000000000000000000000000000000000008
|
|
000000000000000000000000000000000000000000000000,
|
|
#BARLINEOFF
|
|
3,
|
|
#END
|
|
|
|
COURSE:Normal
|
|
LEVEL:4
|
|
BALLOON:8,8
|
|
SCOREINIT:980
|
|
SCOREDIFF:375
|
|
|
|
#START
|
|
11,
|
|
#BPMCHANGE 124.42
|
|
1,
|
|
#BPMCHANGE 126.87
|
|
#MEASURE 2/4
|
|
11,
|
|
#BPMCHANGE 126.6
|
|
#MEASURE 4/4
|
|
11,
|
|
#BPMCHANGE 125.46
|
|
1,
|
|
#BPMCHANGE 127.41
|
|
#MEASURE 2/4
|
|
11,
|
|
#BPMCHANGE 125.45
|
|
#MEASURE 4/4
|
|
1,
|
|
#BPMCHANGE 125.99
|
|
0022,
|
|
#BPMCHANGE 126.16
|
|
1110,
|
|
#BPMCHANGE 126.52
|
|
,
|
|
#BPMCHANGE 126
|
|
2220,
|
|
0001,
|
|
2221,
|
|
2221,
|
|
2222,
|
|
1120,
|
|
10021100,
|
|
10021100,
|
|
#BPMCHANGE 124.98
|
|
11,
|
|
#BPMCHANGE 125.98
|
|
10002220,
|
|
#BPMCHANGE 126
|
|
11,
|
|
#BPMCHANGE 126.68
|
|
10002220,
|
|
#BPMCHANGE 126
|
|
11,
|
|
1,
|
|
11,
|
|
1,
|
|
7008,
|
|
7008,
|
|
#BPMCHANGE 127.57
|
|
#MEASURE 2/4
|
|
,
|
|
#BPMCHANGE 127.05
|
|
#MEASURE 4/4
|
|
3,
|
|
#BPMCHANGE 125.63
|
|
,
|
|
#BPMCHANGE 125.28
|
|
00201011,
|
|
#BPMCHANGE 125.63
|
|
2222,
|
|
#BPMCHANGE 125.29
|
|
#MEASURE 2/4
|
|
2,//34
|
|
|
|
#BPMCHANGE 125.1
|
|
#MEASURE 4/4
|
|
#GOGOSTART
|
|
11,
|
|
#BPMCHANGE 125.76
|
|
1002,
|
|
#BPMCHANGE 125.29
|
|
1110,
|
|
#BPMCHANGE 127.05
|
|
33,
|
|
#BPMCHANGE 125.96
|
|
3004,
|
|
#BPMCHANGE 126.37
|
|
30303002,
|
|
#BPMCHANGE 125.94
|
|
20022002,
|
|
22222000,//42
|
|
|
|
#GOGOEND
|
|
#BPMCHANGE 124.67
|
|
22200000,
|
|
#BPMCHANGE 126
|
|
22200000,
|
|
12,
|
|
1120,
|
|
1120,
|
|
1122,
|
|
300000000000400000000000600000000008000000000000,
|
|
10002200,
|
|
1021,
|
|
1221,
|
|
1220,
|
|
11,
|
|
500000000000000000000008000000000000000000000000,
|
|
2220,
|
|
2220,
|
|
10021100,
|
|
10021100,
|
|
11,
|
|
1110,
|
|
1112,
|
|
#BPMCHANGE 127.1
|
|
1112,
|
|
#BPMCHANGE 124.91
|
|
1112,
|
|
#BPMCHANGE 127.82
|
|
#MEASURE 2/4
|
|
11,
|
|
#BPMCHANGE 126
|
|
#MEASURE 4/4
|
|
3,
|
|
,
|
|
0222,
|
|
#BPMCHANGE 125
|
|
100000000000500000000000
|
|
#BPMCHANGE 111
|
|
000000000008000000000000,
|
|
#BARLINEOFF
|
|
3,
|
|
#END
|
|
|
|
COURSE:Easy
|
|
LEVEL:3
|
|
BALLOON:5,8
|
|
SCOREINIT:910
|
|
SCOREDIFF:515
|
|
|
|
#START
|
|
11,
|
|
#BPMCHANGE 124.42
|
|
1,
|
|
#BPMCHANGE 126.87
|
|
#MEASURE 2/4
|
|
11,
|
|
#BPMCHANGE 126.6
|
|
#MEASURE 4/4
|
|
11,
|
|
#BPMCHANGE 125.46
|
|
1,
|
|
#BPMCHANGE 127.41
|
|
#MEASURE 2/4
|
|
11,
|
|
#BPMCHANGE 125.45
|
|
#MEASURE 4/4
|
|
1,
|
|
#BPMCHANGE 125.99
|
|
,
|
|
#BPMCHANGE 126.16
|
|
1110,
|
|
#BPMCHANGE 126.52
|
|
,
|
|
#BPMCHANGE 126
|
|
2220,
|
|
,
|
|
2220,
|
|
500000000000000000000000000008000000000000000000,
|
|
1111,
|
|
14,
|
|
03,
|
|
03,
|
|
#BPMCHANGE 124.98
|
|
11,
|
|
#BPMCHANGE 125.98
|
|
1022,
|
|
#BPMCHANGE 126
|
|
11,
|
|
#BPMCHANGE 126.68
|
|
1022,
|
|
#BPMCHANGE 126
|
|
11,
|
|
1,
|
|
11,
|
|
1,
|
|
1110,
|
|
1110,
|
|
#BPMCHANGE 127.57
|
|
#MEASURE 2/4
|
|
1,
|
|
#BPMCHANGE 127.05
|
|
#MEASURE 4/4
|
|
3,
|
|
#BPMCHANGE 125.63
|
|
,
|
|
#BPMCHANGE 125.28
|
|
,
|
|
#BPMCHANGE 125.63
|
|
7008,
|
|
#BPMCHANGE 125.29
|
|
#MEASURE 2/4
|
|
,//34
|
|
|
|
#BPMCHANGE 125.1
|
|
#MEASURE 4/4
|
|
#GOGOSTART
|
|
11,
|
|
#BPMCHANGE 125.76
|
|
1,
|
|
#BPMCHANGE 125.29
|
|
1110,
|
|
#BPMCHANGE 127.05
|
|
33,
|
|
#BPMCHANGE 125.96
|
|
3,
|
|
#BPMCHANGE 126.37
|
|
3330,//40
|
|
|
|
#GOGOEND
|
|
#BPMCHANGE 125.94
|
|
,
|
|
,
|
|
#BPMCHANGE 124.67
|
|
2200,
|
|
#BPMCHANGE 126
|
|
2200,
|
|
12,
|
|
12,
|
|
21,
|
|
12,
|
|
1220,
|
|
,
|
|
0002,
|
|
2001,
|
|
1,
|
|
11,
|
|
1,
|
|
2220,
|
|
2220,
|
|
03,
|
|
03,
|
|
11,
|
|
1,
|
|
21,
|
|
#BPMCHANGE 127.1
|
|
2011,
|
|
#BPMCHANGE 124.91
|
|
0011,
|
|
#BPMCHANGE 127.82
|
|
#MEASURE 2/4
|
|
,
|
|
#BPMCHANGE 126
|
|
#MEASURE 4/4
|
|
3,
|
|
,
|
|
0222,
|
|
#BPMCHANGE 125
|
|
90
|
|
#BPMCHANGE 111
|
|
09,
|
|
#BARLINEOFF
|
|
8,
|
|
#END |