Files

283 lines
2.6 KiB
Plaintext

//TJADB Project
TITLE:Turkish March
TITLEJA:トルコ行進曲(ベートーベン)
SUBTITLE:--Hiromi Shibano
BPM:129
WAVE:Turkish March.ogg
OFFSET:-2.002
DEMOSTART:2.002
COURSE:Oni
LEVEL:7
SCOREINIT:590
SCOREDIFF:160
#START
12221222,
1122102030303000,
12221222,
1212101010000000,
1110202011202020,
1110112011101120,
12221222,
1122102030303000,
1021202010212020,
1212101010202020,
1111102011112020,
1110112011101120,
1021202010212020,
1122101010222020,
1021201020122000,
1012102010201020,
41324141,
1021201020122000,
1012102010201020,
32323434,
1021202010212020,
1122102030303000,
1021202010212020,
1212101010202020,
1111202011222020,
1110112011101120,
1021202010212020,
1122101010222020,
1021201020122000,
1012102010201020,
41324141,
1021201020122000,
1012102010201020,
32323434,
#GOGOSTART
3021202030212020,
40333330,
3021202030212020,
1212101010202020,
1211202011212020,
1210112012101120,
1021202030212020,
1122101010222020,
1211202011212020,
1210112012101120,
1021202010212020,
1122101010201020,
1022101010203030,
3022101010203030,
32221222,
32323000,
#GOGOEND
#END
COURSE:Hard
LEVEL:6
SCOREINIT:610
SCOREDIFF:175
#START
12221222,
10103330,
12221222,
10333000,
11221122,
1111,
12221222,
10103330,
12221222,
10333000,
11221122,
3344,
12221222,
10333000,
1011100020222000,
1011100010201020,
21122121,
1011100020222000,
1011100010201020,
12123434,
1022200010222000,
10103330,
1022200010222000,
10333000,
1011100020222000,
3344,
1022200010222000,
10333000,
1011100020222000,
1011100010201020,
21122121,
1011100020222000,
30301212,
12123434,
#GOGOSTART
1022200010222000,
10333330,
1022200010222000,
20333000,
1011100020222000,
1110111040004000,
1022200010222000,
10333000,
1011100020222000,
1110111022202220,
1022200010222000,
12111212,
12111233,
32111233,
32221222,
12123000,
#GOGOEND
,
#END
COURSE:Normal
LEVEL:5
BALLOON:7,7
SCOREINIT:700
SCOREDIFF:223
#START
11101110,
10103330,
11101110,
5008,
11102220,
1122,
11101110,
10103330,
11101110,
7008,
11102220,
3344,
11101110,
10333000,
11,
1011,
2122,
34,
3311,
1122,
11101110,
10103330,
11101110,
5008,
11102220,
3344,
11101110,
10333000,
11,
1011,
2122,
34,
3311,
1122,
#GOGOSTART
11101110,
30333330,
11101110,
7008,
11102220,
3344,
11101110,
10333000,
11102220,
3434,
11101110,
1111,
10111010,
10111011,
11,
3340,
#GOGOEND
,
#END
COURSE:Easy
LEVEL:3
BALLOON:6,6
SCOREINIT:780
SCOREDIFF:355
#START
11,
1110,
11,
50000800,
12,
34,
11,
1110,
11,
70000008,
12,
1122,
12,
1120,
11,
1011,
1022,
21,
1011,
1111,
11,
1110,
11,
50000800,
12,
34,
12,
1120,
11,
1011,
1022,
21,
1011,
1111,
#GOGOSTART
33,
1110,
33,
70000008,
12,
1122,
12,
1120,
12,
3333,
11,
1110,
1210,
1210,
11,
3330,
#GOGOEND
,
#END