Files
Thonker2 62bdf40ebe 1 Painful Chart Review + other Contributions from Discord
01 Pop
Shima Uta (Moved from "04 Children and Folk")

02 Anime
Anpanman Taisou (Fixed SUBTITLEJA, LEVEL)
Lum no Love Song (Fixed SUBTITLEJA, LEVEL)
Make debut! (Updated SUBTITLE)

03 Vocaloid
Vampire (Fixed SUBTITLEJA)

05 Variety
WE ARE THE CHAMP ~THE NAME OF THE GAME~ (Moved from "01 Pop")

06 Classical
Violin Concerto in E Minor (Added comment on the old SUBTITLEJA in PS2 Era)

09 Namco Original
Ka (Updated Track. Replaced Chart with datamine.)
Mekadesu. (Added Old Chart)
2026-03-06 00:43:44 +08:00

527 lines
21 KiB
Plaintext

//TJADB Project
TITLE:Violin Concerto in E Minor
TITLEJA:ヴァイオリン協奏曲ホ短調
SUBTITLE:--Junichi Nakatsuru
SUBTITLEJA:
BPM:105
WAVE:Violin Concerto in E Minor.ogg
OFFSET:-6.860
DEMOSTART:79.439
//Old SUBTITLEJA:メンデルスゾーン
COURSE:Oni
LEVEL:5
BALLOON:
SCOREINIT:950
SCOREDIFF:295
#START
1,
100000000000000000000000000000200000200000000000,
1,
100000000000000000000000000000200000200000000000,
100000000000000000000000000000000000000000000000,
100000000000000000000000000000200000200000000000,
100000000000200000000000100000200000200000000000,
100000000000200000100000000020200000200000000000,
100000000100200000000000100000200000200000000000,
100000000000200000000000200000200000100100000000,
100000000000200000000000100000200000200000000000,
100000000100200000000000000020200000200000000000,
100000000000200000100000200000200000200000000000,
100000000100200000000000100000100000200200000000,
100000000000200000000000200000100000200000000000,
100000000100200000200020200000200000100100000000,
100000100100000100000100100100000000200000000000,
300000000100200000100000000000000000200000000000,
000200000000200000200020000020200000200000000000,
100000000100200000100000000000000100100000000000,
100100100000100000100000100100000000100000000000,
000000000000200000000000200000200000200000000000,
200000000000200000000000200000000000200000000000,
100000000200200000000000200000200000200000000000,
100000000000200000000000200000000000200000000000,
100000000200200000000000200000200000200000000000,
200000000200200000000000200000000200200000000000,
200000000200200000000000100000200000100100000100,
000100000200200100000000200000000200200000000000,
200000000000000000000000100000200200100100000000,
300000000100000000100000100100000000100100100000,
000000000000000000000000200000200200200000000000,
#GOGOSTART
100000100000200000000000100000000000200000000000,
100000000100200000000000100100000000200000000000,
100000100000200000000000000000100000200000000000,
100000000000200000000000100100100000200000000000,
100000100000200000000000200000000000200000000000,
100000000100200000000000000100100000200000000000,
200000000000200000000000200000100100200000000000,
100000000000200000000000200000200000100100000000,
100000000000200000000000100000000000200000000000,
100000100000100100000000100100000000100100000000,
100000100000100100000000100100000000100100100000,
100000200000100000200000000000200000200200000000,
000000200000000000200000000000200000200200000000,
100000200000100000200000000000100000100000000000,
100000000100000000100100000100000000100100000000,
100000200000100000200000200000100000100000000000,
000000200000000000200000100100000000100100000000,
100000200000000000200000100100000000100000000000,
000200000000200000200200000010000010000010000000,
#GOGOEND
3,
#END
COURSE:Hard
LEVEL:6
BALLOON:
SCOREINIT:890
SCOREDIFF:275
#START
100000000000000000000000000000000000000000000000,
100000000000000000000000000000200000200000000000,
100000000000000000000000000000000000000000000000,
100000000000000000000000000000200000200000000000,
100000000000000000000000000000000000000000000000,
100000000000000000000000000000200000200000000000,
100000000000200000000000100000200000200000000000,
100000000000200000000000000020200000200000000000,
100000000000200000000000100000200000200000000000,
100000000000200000000000200000200000100100000000,
100000000000200000000000100000200000200000000000,
100000000000200000000000000020200000200000000000,
100000000000200000000000200000200000200000000000,
100000000000200000000000100000100000200200000000,
100000000000200000000000200000100000200000000000,
100000000100200000200020200000200000100100000000,
100000100100000100000100100100000000200000000000,
300000000000200000000000000000000000200000000000,
000200000000200000200020000020200000200000000000,
100000000100200000100000000000000100100000000000,
000000000000100000100000100100000000100000000000,
000000000000200000000000200000200000200000000000,
200000000000200000000000200000000000200000000000,
100000000000200000000000200000200000200000000000,
100000000000200000000000200000000000200000000000,
100000000200200000000000200000200000200000000000,
200000000200200000000000200000000200200000000000,
200000000200200000000000100000200000100100000100,
000100000100100100000000200000000200200000000000,
200000000000000000000000100000100100100100000000,
300000000100000000100000100100000000100100100000,
000000000000000000000000200000200200200000000000,
#GOGOSTART
100000100000200000000000100000000000200000000000,
100000000100200000000000100100000000200000000000,
100000100000200000000000000000100000200000000000,
100000000000200000000000100100100000200000000000,
100000100000200000000000200000000000200000000000,
100000000100200000000000000100100000200000000000,
200000000000200000000000200000000000200000000000,
100000000000200000000000200000200000100100000000,
100000000000200000000000100000000000200000000000,
100000100000100100000000100100000000100100000000,
100000100000100100000000100100000000100100100000,
100000200000100000200000000000200000200200000000,
000000200000000000200000000000200000200200000000,
100000200000100000200000000000100000100000000000,
100000000100000000100100000100000000100100000000,
100000200000100000200000200000100000100000000000,
000000200000000000200000100100000000100100000000,
100000200000000000200000100100000000100000000000,
000200000000200000200200000100000100000100000000,
#GOGOEND
3,
#END
COURSE:Normal
LEVEL:4
STYLE:Single
BALLOON:
SCOREINIT:880
SCOREDIFF:313
#START
100000000000000000000000000000000000000000000000,
100000000000000000000000000000200000200000000000,
100000000000000000000000000000000000000000000000,
100000000000000000000000000000200000200000000000,
100000000000000000000000000000000000000000000000,
100000000000000000000000000000200000200000000000,
100000000000100000000000000000100000100000000000,
100000000000100000000000000000100000100000000000,
100000000000100000000000000000200000200000000000,
100000000000100000000000000000200000200000000000,
100000000000200000000000000000100000100000000000,
100000000000200000000000000000100000100000000000,
100000000000000000000000200000000000200000000000,
100000000000100000000000100000000000000000000000,
100000000000000000000000200000200000200000000000,
100000000000100000100000100000000000000000000000,
100000100000100000000000500000000000000000800000,
000000000000000000000000000000100000100000000000,
000000000000000000000000000000100000100000000000,
200000000000000000000000000000100000100000000000,
000000000000200000200000000000100000100000000000,
000000000000200000000000200000200000200000000000,
000000000000200000000000200000200000200000000000,
100000000000200000000000200000200000200000000000,
100000000000200000000000200000200000200000000000,
100000000000100000000000200000200000200000000000,
100000000000100000000000200000200000200000000000,
100000000000100000000000100000000000100000000000,
100000100000100000100000100000000000000000000000,
100000000000100000000000100000100000100000000000,
500000000000000000000000000000800000000000000000,
200000000000000000000000000000000000200000000000,
#GOGOSTART
100000000000200000200000000000100000200000000000,
100000000000200000200000000000100000200000000000,
100000000000100000000000000000200000200000000000,
100000000000100000000000000000200000200000000000,
100000000000200000200000000000100000200000000000,
100000000000200000200000000000100000200000000000,
100000200000000000200000100000200000200000000000,
100000200000000000200000100000000000000000000000,
100000200000000000200000100000200000200000000000,
100000000000100000000000100000000000000000000000,
100000100000100000000000300000000000000000000000,
000000200000000000200000000000100000100000000000,
000000000000000000000000000000100000100000000000,
000000200000000000200000000000100000100000000000,
000000000000000000000000000000100000100000000000,
100000200000000000200000000000100000100000000000,
000000200000000000200000000000100000100000000000,
100000200000000000200000000000100000100000000000,
000000200000000000200000000000100000100000000000,
#GOGOEND
3,
#END
STYLE:Double
BALLOON:
SCOREINIT:790
SCOREDIFF:220
#START P1
100000000000000000000000000000000000000000000000,
100000000000000000000000000000200000200000000000,
100000000000000000000000000000000000000000000000,
100000000000000000000000000000200000200000000000,
100000000000000000000000000000000000000000000000,
100000000000000000000000000000200000200000000000,
100000000000100000000000000000100000100000000000,
100000000000100000000000000000100000100000000000,
100000000000100000000000000000200000200000000000,
100000000000100000000000000000200000200000000000,
100000000000200000000000000000100000100000000000,
100000000000200000000000000000100000100000000000,
100000000000000000000000200000000000200000000000,
100000000000100000000000100000000000000000000000,
100000000000000000000000200000200000200000000000,
100000000000100000100000100000000000000000000000,
100000100000100000000000500000000000000000800000,
000000000000000000000000000000100000100000000000,
000000000000000000000000000000100000100000000000,
200000000000000000000000000000100000100000000000,
000000000000200000200000000000100000100000000000,
000000000000200000000000200000200000200000000000,
000000000000200000000000200000200000200000000000,
100000000000200000000000200000200000200000000000,
100000000000200000000000200000200000200000000000,
1111,
2222,
1111,
11111000,
100000000000100000000000100000100000100000000000,
500000000000000000000000000000800000000000000000,
200000000000000000000000000000000000200000000000,
100000000000200000200000000000100000200000000000,
100000000000200000200000000000100000200000000000,
100000000000100000000000000000200000200000000000,
100000000000100000000000000000200000200000000000,
100000000000200000200000000000100000200000000000,
100000000000200000200000000000100000200000000000,
100000200000000000200000100000200000200000000000,
100000200000000000200000100000000000000000000000,
100000200000000000200000100000200000200000000000,
100000000000100000000000100000000000000000000000,
100000100000100000000000300000000000000000000000,
000000200000000000200000000000100000100000000000,
000000000000000000000000000000100000100000000000,
000000200000000000200000000000100000100000000000,
000000000000000000000000000000100000100000000000,
100000200000000000200000000000100000100000000000,
000000200000000000200000000000100000100000000000,
100000200000000000200000000000100000100000000000,
000000200000000000200000000000100000100000000000,
3,
#END
BALLOON:
SCOREINIT:790
SCOREDIFF:220
#START P2
100000000000000000000000000000000000000000000000,
100000000000000000000000000000200000200000000000,
100000000000000000000000000000000000000000000000,
100000000000000000000000000000200000200000000000,
100000000000000000000000000000000000000000000000,
100000000000000000000000000000200000200000000000,
100000000000100000000000000000100000100000000000,
100000000000100000000000000000100000100000000000,
100000000000100000000000000000200000200000000000,
100000000000100000000000000000200000200000000000,
100000000000200000000000000000100000100000000000,
100000000000200000000000000000100000100000000000,
100000000000000000000000200000000000200000000000,
100000000000100000000000100000000000000000000000,
100000000000000000000000200000200000200000000000,
100000000000100000100000100000000000000000000000,
100000100000100000000000500000000000000000800000,
000000000000000000000000000000100000100000000000,
000000000000000000000000000000100000100000000000,
200000000000000000000000000000100000100000000000,
000000000000200000200000000000100000100000000000,
000000000000200000000000200000200000200000000000,
000000000000200000000000200000200000200000000000,
100000000000200000000000200000200000200000000000,
100000000000200000000000200000200000200000000000,
02020202,
01010101,
1111,
11111000,
100000000000100000000000100000100000100000000000,
500000000000000000000000000000800000000000000000,
200000000000000000000000000000000000200000000000,
100000000000200000200000000000100000200000000000,
100000000000200000200000000000100000200000000000,
100000000000100000000000000000200000200000000000,
100000000000100000000000000000200000200000000000,
100000000000200000200000000000100000200000000000,
100000000000200000200000000000100000200000000000,
100000200000000000200000100000200000200000000000,
100000200000000000200000100000000000000000000000,
100000200000000000200000100000200000200000000000,
100000000000100000000000100000000000000000000000,
100000100000100000000000300000000000000000000000,
000000200000000000200000000000100000100000000000,
000000000000000000000000000000100000100000000000,
000000200000000000200000000000100000100000000000,
000000000000000000000000000000100000100000000000,
100000200000000000200000000000100000100000000000,
000000200000000000200000000000100000100000000000,
100000200000000000200000000000100000100000000000,
000000200000000000200000000000100000100000000000,
3,
#END
COURSE:Easy
LEVEL:3
STYLE:Single
SCOREINIT:880
SCOREDIFF:440
#START
000000000000000000000000100000000000000000000000,
000000000000000000000000100000000000100000000000,
000000000000000000000000100000000000000000000000,
000000000000000000000000100000000000100000000000,
000000000000000000000000000000000000000000000000,
000000000000000000000000100000000000000000000000,
000000000000000000000000000000000000000000000000,
100000000000100000000000100000000000000000000000,
100000000000100000000000100000000000000000000000,
100000000000000000000000100000000000000000000000,
100000000000000000000000100000000000000000000000,
100000000000100000000000100000000000000000000000,
100000000000200000000000100000000000000000000000,
100000000000000000000000100000000000000000000000,
100000000000100000000000100000000000000000000000,
100000000000000000000000100000000000000000000000,
100000000000100000000000100000000000000000000000,
100000000000100000000000500000000000000000800000,
000000000000000000000000000000000000000000000000,
100000000000000000000000200000000000000000000000,
100000000000000000000000200000000000000000000000,
100000000000100000000000100000000000000000000000,
000000000000200000000000000000000000200000000000,
000000000000200000000000000000000000200000000000,
100000000000200000000000000000000000200000000000,
100000000000200000000000000000000000200000000000,
100000000000000000000000200000000000200000000000,
100000000000000000000000200000000000200000000000,
100000000000100000000000100000000000000000000000,
100000000000100000000000100000000000000000000000,
100000000000100000000000100000000000100000000000,
500000000000000000000000000000800000000000000000,
000000000000000000000000000000000000000000000000,
#GOGOSTART
100000000000100000000000100000000000000000000000,
100000000000100000000000100000000000000000000000,
100000000000000000000000100000000000000000000000,
100000000000000000000000100000000000000000000000,
100000000000100000000000100000000000000000000000,
100000000000100000000000100000000000000000000000,
100000000000200000000000100000000000200000000000,
100000000000100000000000100000000000000000000000,
100000000000200000000000100000000000200000000000,
100000000000100000000000100000000000000000000000,
100000000000100000000000300000000000000000000000,
000000000000000000000000000000000000000000000000,
000000000000200000000000000000000000200000000000,
,
000000000000200000000000000000000000200000000000,
000000000000200000000000100000000000200000000000,
000000000000200000000000100000000000200000000000,
100000000000000000000000100000000000200000000000,
100000000000000000000000100000000000200000000000,
#GOGOEND
3,
#END
STYLE:Double
BALLOON:
SCOREINIT:930
SCOREDIFF:350
#START P1
000000000000000000000000100000000000000000000000,
000000000000000000000000100000000000100000000000,
000000000000000000000000100000000000000000000000,
000000000000000000000000100000000000100000000000,
000000000000000000000000000000000000000000000000,
000000000000000000000000100000000000000000000000,
000000000000000000000000000000000000000000000000,
100000000000100000000000100000000000000000000000,
100000000000100000000000100000000000000000000000,
100000000000000000000000100000000000000000000000,
100000000000000000000000100000000000000000000000,
100000000000100000000000100000000000000000000000,
100000000000200000000000100000000000000000000000,
100000000000000000000000100000000000000000000000,
100000000000100000000000100000000000000000000000,
100000000000000000000000100000000000000000000000,
100000000000100000000000100000000000000000000000,
100000000000100000000000500000000000000000800000,
000000000000000000000000000000000000000000000000,
100000000000000000000000200000000000000000000000,
100000000000000000000000200000000000000000000000,
100000000000100000000000100000000000000000000000,
000000000000200000000000000000000000200000000000,
000000000000200000000000000000000000200000000000,
100000000000200000000000000000000000200000000000,
100000000000200000000000000000000000200000000000,
11,
11,
1110,
1110,
100000000000100000000000100000000000100000000000,
500000000000000000000000000000800000000000000000,
000000000000000000000000000000000000000000000000,
100000000000100000000000100000000000000000000000,
100000000000100000000000100000000000000000000000,
100000000000000000000000100000000000000000000000,
100000000000000000000000100000000000000000000000,
100000000000100000000000100000000000000000000000,
100000000000100000000000100000000000000000000000,
100000000000200000000000100000000000200000000000,
100000000000100000000000100000000000000000000000,
100000000000200000000000100000000000200000000000,
100000000000100000000000100000000000000000000000,
100000000000100000000000300000000000000000000000,
000000000000000000000000000000000000000000000000,
000000000000200000000000000000000000200000000000,
000000000000000000000000000000000000000000000000,
000000000000200000000000000000000000200000000000,
000000000000200000000000100000000000200000000000,
000000000000200000000000100000000000200000000000,
100000000000000000000000100000000000200000000000,
100000000000000000000000100000000000200000000000,
3,
#END
BALLOON:
SCOREINIT:930
SCOREDIFF:350
#START P2
000000000000000000000000100000000000000000000000,
000000000000000000000000100000000000100000000000,
000000000000000000000000100000000000000000000000,
000000000000000000000000100000000000100000000000,
000000000000000000000000000000000000000000000000,
000000000000000000000000100000000000000000000000,
000000000000000000000000000000000000000000000000,
100000000000100000000000100000000000000000000000,
100000000000100000000000100000000000000000000000,
100000000000000000000000100000000000000000000000,
100000000000000000000000100000000000000000000000,
100000000000100000000000100000000000000000000000,
100000000000200000000000100000000000000000000000,
100000000000000000000000100000000000000000000000,
100000000000100000000000100000000000000000000000,
100000000000000000000000100000000000000000000000,
100000000000100000000000100000000000000000000000,
100000000000100000000000500000000000000000800000,
000000000000000000000000000000000000000000000000,
100000000000000000000000200000000000000000000000,
100000000000000000000000200000000000000000000000,
100000000000100000000000100000000000000000000000,
000000000000200000000000000000000000200000000000,
000000000000200000000000000000000000200000000000,
100000000000200000000000000000000000200000000000,
100000000000200000000000000000000000200000000000,
0202,
0202,
1110,
1110,
100000000000100000000000100000000000100000000000,
500000000000000000000000000000800000000000000000,
,
100000000000100000000000100000000000000000000000,
100000000000100000000000100000000000000000000000,
100000000000000000000000100000000000000000000000,
100000000000000000000000100000000000000000000000,
100000000000100000000000100000000000000000000000,
100000000000100000000000100000000000000000000000,
100000000000200000000000100000000000200000000000,
100000000000100000000000100000000000000000000000,
100000000000200000000000100000000000200000000000,
100000000000100000000000100000000000000000000000,
100000000000100000000000300000000000000000000000,
000000000000000000000000000000000000000000000000,
000000000000200000000000000000000000200000000000,
000000000000000000000000000000000000000000000000,
000000000000200000000000000000000000200000000000,
000000000000200000000000100000000000200000000000,
000000000000200000000000100000000000200000000000,
100000000000000000000000100000000000200000000000,
100000000000000000000000100000000000200000000000,
3,
#END