Files
ESE/06 Classical/Funiculi Funicula/Funiculi Funicula.tja
T
Thonker2 2c61fa4584 Kakashi Hime and more NS2 fixes
01 Pop
Mayonaka no Door~Stay with me (Fixed Oni (bar 8,27,38,40), Hard (bar 6,27,40,44), Normal (bar 5,6,10,14,18))
Phony (Fixed SUBTITLEJA, removed lyrics)

03 Vocaloid
Yoidore Shirazu (minor fixes)

06 Classical
Funiculi Funicula (Fixed BPM/HS)
La Campanella (Fixed BPM/HS)

07 Game Music
XEVIOUS Taisou (minor fixes)

09 Namco Original
Kakashi-Hime: Princess Scarecrow
Nijiiro Yumeiro Taikoiro (added Old Audio/Chart)
Yumeutsutsu Catharsis (Fixed Oni (bar 39,48), Hard (bar 39))
2025-08-23 22:14:02 +08:00

671 lines
8.2 KiB
Plaintext

//TJADB Project
TITLE:Funiculi Funicula
TITLEJA:フニクリ・フニクラ
SUBTITLE:--Yuri Misumi feat. Akira Yukawa
SUBTITLEJA:
BPM:157.87
WAVE:Funiculi Funicula.ogg
OFFSET:-4.537
DEMOSTART:61.473
COURSE:Edit
LEVEL:9
BALLOON:
SCOREINIT:520,1530
SCOREDIFF:133
#START
0,
#BPMCHANGE 158.62
0,
#BPMCHANGE 155.66
0, //3
#BPMCHANGE 168.44
0,
#BPMCHANGE 159.94
0,
#BPMCHANGE 159.63
000002002101,
#BPMCHANGE 160.66
200011100011200011100011, //7
#BPMCHANGE 159.98
2,
0,
#BPMCHANGE 159.15
0,
#BPMCHANGE 160.62
4400, //11
#BPMCHANGE 160
3000221120112010,
2210221120102210,
2210221120112010,
2210221120102210, //15
2210221120112011,
2210221120112211,
2210221122112211,
#BPMCHANGE 160.95
2200, //19
#BPMCHANGE 160
1111200021112000,
1211200011212000,
1112200022112000,
2121200021122000, //23
2212200022212000,
2222200011112000,
001201200000,
111111122122,
1022102110404000, //28
102102102112,
102112102102,
002101202002,
001202102102, //32
102102102112,
102112102102,
102101202002,
111222112112,
100010222200100010222200,
500000000000000000000000000000000000000008000000, //38
#GOGOSTART
200010100011200010200011,
200010100011200010200011,
200010100011200010200011,
200010100011200020100022, //42
100020100011200020100022,
100020100010500000000000,
000000000008000000001010200000002000100000001010,
200020100011200020100011,
#GOGOEND
2, //47
100200100200111100100200,
100200100200100222200000,
100200100200111100100200,
100200100200100222200000, //51
100000200000100000200200101010100000100000200200,
100000200200100100200200100000202020200000000000,
100000200000100000200200101010100000100000200200,
100000200200100100200200100000202020200000000000, //55
#GOGOSTART
111111222222,
111222111222,
112112112112,
102020102020102020100022, //59
100020100011200020100022,
100020100010500000000000,
000000000008000000001010200000002000100000001010,
200020100011200020100011, //63
202020101010202010100011,
202010100011202010200011,
202010100011202010200011,
202010100011202010200011, //67
201020102022101020102011,
201020102022101020100010,
500000000000000000000000000000000008000000001010,
201020102011201020102011, //71
212121222200,
#GOGOEND
0,
0, //74
#BPMCHANGE 162.79
200020101011200020102011,
#BPMCHANGE 157.3
#SCROLL 1.03
200020101011200020102011,
#BPMCHANGE 160
#SCROLL 1
200020000022200020000022,
200000000000400000000000600000000000000008000000, //78
0,
0,
0, //81
#END
COURSE:Oni
LEVEL:7
BALLOON:12
SCOREINIT:700,2240
SCOREDIFF:193
#START
0,
#BPMCHANGE 158.62
0,
#BPMCHANGE 155.66
0, //3
#BPMCHANGE 168.44
0,
#BARLINEOFF
#BPMCHANGE 159.94
0,
#BPMCHANGE 159.63
000002002101,
#BARLINEON
#BPMCHANGE 160.66
201101201101,
#BPMCHANGE 159.98
2,
0,
#BPMCHANGE 159.15
0,
#BPMCHANGE 160.62
4400, //11
#BPMCHANGE 160
30210120,
10210220,
10210120,
10210220,
30210120,
10210220,
10210120,
#BPMCHANGE 160.95
400000000000600000000000000008000000000000000000, //19
#BPMCHANGE 160
3011201000102000,
1011201000202000,
1011201000102000,
1011201000202000,
3011201000102000,
1011201000202000,
1011201000005000,
000000000000000000000000000000000008000000000000,
2022202200404000, //28
101101101211,
101211100300,
001101100000,
002202200300,
301101101211,
101211100300,
001102200000,
001102200111,
102200302200,
302200302200, //38
#GOGOSTART
3434,
101201201100,
3434,
101201201102,
201101201102,
201100500000,
000000000008000000000000200000002000100000001000,
201101201101,
#GOGOEND
2, //47
11102220,
100010100010200200200000,
11102220,
100010100000400400400000,
11121112,
100010100000400400400000,
1010112010101120,
100010100000400400400000, //55
#GOGOSTART
111200111200,
121101200300,
111200111200,
121101201102,
201101201102,
201100500000,
000000000008000000000000200000002000100000001000,
201101201101, //63
200000302200,
302200301201,
200400302200,
302200301201,
201102201101,
201102201101,
2333,
202101201101, //71
201100400000,
#GOGOEND
0,
0,
#BPMCHANGE 162.79
202101201101,
#BPMCHANGE 157.3
#SCROLL 1.03
200001100100,
#BPMCHANGE 160
#SCROLL 1
700000000000000000000000000000000000000000080000,
000000000000400000000000600000000000000008000000,
0,
0,
0, //81
#END
COURSE:Hard
LEVEL:6
BALLOON:
SCOREINIT:750,3100
SCOREDIFF:223
#START
0,
#BPMCHANGE 158.62
0,
#BPMCHANGE 155.66
0, //3
#BPMCHANGE 168.44
0,
#BARLINEOFF
#BPMCHANGE 159.94
0,
#BPMCHANGE 159.63
000002000000,
#BARLINEON
#BPMCHANGE 160.66
200002200002,
#BPMCHANGE 159.98
2,
0,
#BPMCHANGE 159.15
0,
#BPMCHANGE 160.62
0, //11
#BPMCHANGE 160
30110110,
10110110,
10110110,
0,
30110110,
10110110,
10110110,
#BPMCHANGE 160.95
2200, //19
#BPMCHANGE 160
1011101000101000,
1011101000101000,
1011101000101000,
0,
1011101000101000,
1011101000101000,
1011101000101000,
0,
2022202200202000, //28
101101101201,
101201100300,
001101100000,
002202200000,
301101101201,
101201100300,
001101100000,
002202202202,
1,
1, //38
#GOGOSTART
3434,
101101102200,
3434,
101101100002,
200002200002,
25,
000000000008000000000000200000002000100000001000,
202101202101,
#GOGOEND
200002202202, //47
1,
1,
1,
1,
1110,
1120,
1110,
1120, //55
#GOGOSTART
101100101100,
101101102200,
101100101100,
101101100002,
200002200002,
25,
000000000008000000000000200000002000100000001000,
202101202101, //63
2034,
300400101101,
102200300400,
300400101101,
101102201102,
201102201100,
500000000000000000000000000000000008000000000000,
202101202101, //71
202100300000,
#GOGOEND
0,
0,
#BPMCHANGE 162.79
202202202202,
#BPMCHANGE 157.3
#SCROLL 1.03
2022,
#BPMCHANGE 160
#SCROLL 1
2,
0220,
0,
0,
0, //81
#END
COURSE:Normal
LEVEL:6
BALLOON:
SCOREINIT:880,4490
SCOREDIFF:302
#START
0,
#BPMCHANGE 158.62
0,
#BPMCHANGE 155.66
0, //3
#BPMCHANGE 168.44
0,
#BARLINEOFF
#BPMCHANGE 159.94
0,
#BPMCHANGE 159.63
000002000000,
#BARLINEON
#BPMCHANGE 160.66
2022,
#BPMCHANGE 159.98
2,
0,
#BPMCHANGE 159.15
0,
#BPMCHANGE 160.62
0, //11
#BPMCHANGE 160
3,
1001,
1,
10010110,
3,
1001,
1,
#BPMCHANGE 160.95
2200, //19
#BPMCHANGE 160
10100100,
10100110,
10100100,
0,
10100100,
10100110,
10100100,
0,
20200220, //28
1111,
1111,
001101100000,
001101100000,
1111,
1111,
001101100000,
001101100000,
3,
1, //38
#GOGOSTART
3434,
1110,
3434,
100100100002,
200002200002,
25,
000000000008000000000000100000001000100000001000,
100000101101,
#GOGOEND
1, //47
1,
1,
11,
11,
12,
12,
1110,
1110, //55
#GOGOSTART
101100101100,
101101100000,
101100101100,
101101100002,
200002200002,
25,
000000000008000000000000100000001000100000001000,
100000101101, //63
1034,
300400101101,
1034,
300400101101,
100002200002,
200002200000,
500000000000000000000000000000000008000000000000,
101101100000, //71
101100300000,
#GOGOEND
0,
0,
#BPMCHANGE 162.79
22,
#BPMCHANGE 157.3
#SCROLL 1.03
2022,
#BPMCHANGE 160
#SCROLL 1
2,
0220,
0,
0,
0, //81
#END
COURSE:Easy
LEVEL:3
BALLOON:
SCOREINIT:700,6090
SCOREDIFF:303
#START
0,
#BPMCHANGE 158.62
0,
#BPMCHANGE 155.66
0, //3
#BPMCHANGE 168.44
0,
#BARLINEOFF
#BPMCHANGE 159.94
0,
#BPMCHANGE 159.63
000001000000,
#BARLINEON
#BPMCHANGE 160.66
1011,
#BPMCHANGE 159.98
1,
0,
#BPMCHANGE 159.15
0,
#BPMCHANGE 160.62
0, //11
#BPMCHANGE 160
5,
000000000008000000000000000000000000000000000000,
0,
0,
5,
000000000008000000000000000000000000000000000000,
0,
#BPMCHANGE 160.95
2200, //19
#BPMCHANGE 160
3,
11,
1110,
0,
3,
11,
1110,
0,
0, //28
1110,
1110,
11,
0220,
1110,
1110,
11,
0220,
1,
1, //38
#GOGOSTART
33,
1110,
33,
1110,
22,
25,
000000000008000000000000100000000000100000000000,
1111,
#GOGOEND
1, //47
1,
1,
12,
12,
1110,
1110,
1110,
1110, //55
#GOGOSTART
33,
1110,
33,
1110,
22,
25,
000000000008000000000000100000000000100000000000,
1111, //63
13,
3033,
33,
3033,
32,
22,
500000000000000000000000000000000008000000000000,
1111, //71
1130,
#GOGOEND
0,
0,
#BPMCHANGE 162.79
22,
#BPMCHANGE 157.3
#SCROLL 1.03
2022,
#BPMCHANGE 160
#SCROLL 1
2,
0220,
0,
0,
0, //81
#END