Files
ESE/06 Classical/March of the Toy Soldiers/March of the Toy Soldiers.tja
T
2023-06-15 19:15:39 -05:00

328 lines
3.5 KiB
Plaintext

//TJADB Project
TITLE:March of the Toy Soldiers
TITLEJA:おもちゃの兵隊の行進
SUBTITLE:--Pyotr Ilyich Tchaikovsky
SUBTITLEJA:レオン・イェッセル
BPM:152
WAVE:March of the Toy Soldiers.ogg
OFFSET:-1.910
DEMOSTART:60.201
COURSE:Oni
LEVEL:8
BALLOON:10,10,10
SCOREINIT:650
SCOREDIFF:178
#START
#SCROLL 1.07
000000000000000000000022,
200200100100200000000022,
200200100100100000000022,
21111111,
1111222211112222,
1011201120112022,
1011201120112022,
1110202011102022,
2020101010000022,
1011201120112022,
1011201120112022,
2000111020002220,
1000112220102010,
#GOGOSTART
1011210110221020,
1011210110221020,
1111222022221110,
2020101010000022,
1011210120112022,
1011210120222020,
43,
4340,
#GOGOEND
2011101020221010,
2011101020221010,
1000001110101022,
1000111010000000,
2011101020221010,
2011101020221010,
1000001110101000,
2000111010000000,
2010222020111010,
2010111020221011,
1000002220001000,
1000111010000022,
2221,
2211,
11221020,
400000300000400000000022,
200200100100200000000022,
200200100100100000000022,
21212121,
1111222211112222,
1011201110200022,
1011201110200022,
1111222022221110,
2020101010000022,
1011201120000022,
1011201120000002,
22022020,
1000112220102010,
#GOGOSTART
1022102010221022,
1120102211201022,
1110200022201022,
2020101010000022,
1011210120112022,
1011210120222020,
43,
4011222010002000,
#GOGOEND
#END
COURSE:Hard
LEVEL:4
SCOREINIT:790
SCOREDIFF:260
#START
,
0330,
0330,
11111111,
500000000000000000000000000000000008000000000000,
1000200020000011,
1000200020000011,
1221,
2020101010000011,
1000200020000011,
1000200020000022,
2222,
1,
#GOGOSTART
10201202,
10201202,
1221,
2020101010000011,
1000200020000011,
1222,
43,
4340,
#GOGOEND
11111010,
11111011,
1000001110101000,
2220,
11111010,
11111011,
1000001110101000,
2220,
22222010,
21012010,
2000002220001000,
2000100010000011,
1112,
2111,
11221020,
4000300040000022,
2000300030000022,
2330,
11111111,
500000000000000000000000000000000008000000000000,
1000200010200011,
1000200010200011,
1221,
2020101010000011,
1000200020000011,
1220,
11012020,
1,
#GOGOSTART
1000200010200011,
1020002010200011,
1221,
2020101010000011,
1000200020000011,
1222,
43,
4002,
#GOGOEND
#END
COURSE:Normal
LEVEL:2
SCOREINIT:770
SCOREDIFF:313
#START
,
0330,
0330,
1111,
500000000000000000000000000000000008000000000000,
1220,
1220,
1221,
1110,
1220,
1220,
2222,
1,
#GOGOSTART
1110,
1110,
1221,
1110,
1220,
1222,
43,
4340,
#GOGOEND
1110,
1110,
1011,
2220,
1110,
1110,
1011,
2220,
2220,
2220,
2022,
2110,
1111,
2222,
11,
4340,
0330,
0330,
1111,
500000000000000000000000000000000008000000000000,
1220,
1220,
1221,
1110,
1220,
1220,
2222,
1,
#GOGOSTART
1110,
1110,
1221,
1110,
1220,
1222,
43,
4002,
#GOGOEND
#END
COURSE:Easy
LEVEL:3
SCOREINIT:650
SCOREDIFF:275
#START
,
03,
03,
1111,
500000000000000000000000000008000000000000000000,
1110,
1110,
1111,
11,
1110,
1110,
1111,
1,
#GOGOSTART
1110,
1110,
1111,
11,
1110,
1111,
33,
3330,
#GOGOEND
1011,
1011,
1011,
12,
1011,
1011,
1011,
12,
2220,
2220,
2220,
22,
1110,
2220,
11,
3330,
03,
03,
1111,
500000000000000000000000000008000000000000000000,
2220,
2220,
2222,
21,
2220,
2220,
2222,
2,
#GOGOSTART
1110,
1110,
1111,
11,
1110,
1111,
33,
3002,
#GOGOEND
#END