Files

3623 lines
43 KiB
Plaintext
Raw Permalink Blame History

This file contains invisible Unicode characters
This file contains invisible Unicode characters that are indistinguishable to humans but may be processed differently by a computer. If you think that this is intentional, you can safely ignore this warning. Use the Escape button to reveal them.
TITLE:Amor de Chocolate
SUBTITLE:MC Naldo Benny
BPM:130
WAVE:Amor de Chocolate.ogg
PREIMAGE:Amor de Chocolate.png
OFFSET:0.772
DEMOSTART:41.6895
MAKER:Legustalo
COURSE:Oni
LEVEL:7
SCOREINIT:490
SCOREDIFF:125
#START
#SCROLL 1
0,
1001002001001000,
1001002001001000,
2001201001001000,
2001201021001000,
2001201001001000,
2001201021002000,
#LYRIC Vodka ou água de coco
11202212,
100020000
#LYRIC
000
#LYRIC Pra mim
10001000
#LYRIC Pra mim TANTO faz
2000
#LYRIC Pra mim tanto FAZ
1000
#LYRIC Pra mim TANTO faz
2000,
#LYRIC Pra mim tanto FAZ
10000
#LYRIC
000
#LYRIC Gos
1010
#LYRIC Gosto
1000
#LYRIC Gosto quan
2000
#LYRIC Gosto quando
2000
#LYRIC Gosto quando fi
1010
#LYRIC Gosto quando fica
1000,
#LYRIC Gosto quando fica lou
1000
#LYRIC Gosto quando fica louca
10
#LYRIC Gosto quando fica louca e
00
#LYRIC Gosto quando fica louca e ca
2000
#LYRIC Gosto quando fica louca e cada
1000
#LYRIC Gosto quando fica louca e cada vez
2000
#LYRIC Gosto quando fica louca e cada vez eu
0000
#LYRIC Gosto quando fica louca e cada vez eu quero
20000
#LYRIC
000,
#GOGOSTART
#SCROLL 1.1
#LYRIC MAAIS
100000
#LYRIC MAAAIS
1
#LYRIC MAAAAIS
0
#LYRIC MAAAAAIS
1000
#LYRIC MAAAAAAIS
10000000
#LYRIC MAAAAAAAIS
1000
#LYRIC MAAAAAAAAIS
10
#LYRIC MAAAAAAAAAIS
10
#LYRIC MAAAAAAAAAAIS
1000,
#LYRIC MAAAAAAAAAAAIS
1000
#LYRIC
0010
#LYRIC Ca
2000
#LYRIC Cada
1000
#LYRIC Cada vez
2020
#LYRIC Cada vez eu
1000
#LYRIC Cada vez eu quero
20000
#LYRIC
000,
#SCROLL 1.25
#LYRIC MAAAAIS
100000
#LYRIC MAAAAAIS
10
#LYRIC MAAAAAAIS
2000
#LYRIC MAAAAAAAIS
200000
#LYRIC MAAAAAAAAIS
10
#LYRIC MAAAAAAAAAIS
1
#LYRIC MAAAAAAAAAAIS
0
#LYRIC MAAAAAAAAAAAIS
10
#LYRIC MAAAAAAAAAAAAIS
20000000,
10012021122
#LYRIC
02000,
#GOGOEND
#SCROLL 1.045
#LYRIC Whisky ou água de coco
10201122,
0020
#LYRIC
00
#LYRIC Pra mim TANTO faz
11
#LYRIC Pra mim tanto FAZ
10
#LYRIC Pra mim TANTO faz
20
#LYRIC Pra mim tanto FAZ
20
#LYRIC Pra mim TANTO faz
20,
#LYRIC
10
#SCROLL 1.075
#LYRIC Eu já tô cheio de tesão
22102020201020,
20
#LYRIC
20
#LYRIC E
2000
#LYRIC E ca
2000
#LYRIC E cada
2000
#LYRIC E cada vez
1000
#LYRIC E cada vez eu
2000
#LYRIC E cada vez eu quero
100
#LYRIC
00000,
#GOGOSTART
#SCROLL 1.1
#LYRIC MAAAAAAAAAAAAAAAAAAAAAAAAAIS
1
#LYRIC MAAAAAAAAAAAAAAAAAAAAAAAIS
0
#LYRIC MAAAAAAAAAAAAAAAAAAAAAIS
0
#LYRIC MAAAAAAAAAAAAAAAAAAAIS
1
#LYRIC MAAAAAAAAAAAAAAAAAIS
1
#LYRIC MAAAAAAAAAAAAAAAAIS
0
#LYRIC MAAAAAAAAAAAAAAAIS
1
#LYRIC MAAAAAAAAAAAAAAIS
0
#LYRIC MAAAAAAAAAAAAAIS
0
#LYRIC MAAAAAAAAAAAAIS
0
#LYRIC MAAAAAAAAAAAIS
1
#LYRIC MAAAAAAAAAAIS
01
#LYRIC MAAAAAAAAAIS
110,
#LYRIC MAAAAAAAAIS
10000
#LYRIC
010
#LYRIC CAda vez eu quero
2000
#LYRIC CADA vez eu quero
1000
#LYRIC CADA VEz eu quero
20
#LYRIC CADA VEZ eu quero
20
#LYRIC CADA VEZ EU quero
1000
#LYRIC CADA VEZ EU QUEro
20
#LYRIC CADA VEZ EU QUERO
2000
#LYRIC
00,
#SCROLL 1.25
#LYRIC MAIS
1
#LYRIC MAAAIS
0
#LYRIC MAAAAAAAIS
0
#LYRIC MAAAAAAAAAIS
00010
#LYRIC MAAAAAAAAIS
200020001010
#LYRIC MAAAAAAAAAAIS
1
#LYRIC MAAAAAAAAAAAAIS
01
#LYRIC MAAAAAAAAAIS
0
#LYRIC MAAAAAIS
200
#LYRIC MAAAAAAIS
0
#LYRIC MAAAAAAAAIS
1000,
200000102000201010
#LYRIC MAAAAAAIS
2
#LYRIC MAAAAAAISS
0
#LYRIC MAAAAAISSS
2
#LYRIC MAAAAAISSSS
0
#LYRIC MAAAAISSSS
00
#LYRIC MAAAISSSSS
20
#LYRIC
000000,
#GOGOEND
#SCROLL 1.22
#LYRIC UM dois três quatro
1111
#LYRIC um dois três quatro
2010
#LYRIC um DOIS três quatro
22201
#LYRIC um dois três quatro
010,
#LYRIC um dois TRÊS quatro
111120
#LYRIC um dois três quatro
10
#LYRIC um dois três QUATRO
222010
#LYRIC
10,
#LYRIC Pra ficar maneiro eu jogo o clima
1110222010102010,
2000
#LYRIC Pra ficar maneiro eu jogo o climaㅤ
2
#LYRIC Pra ficar maneiro eu jogo o climaㅤㅤ
0
#LYRIC Pra ficar maneiro eu jogo o climaㅤㅤㅤ
0
#LYRIC Pra ficar maneiro eu jogo o climaㅤㅤㅤㅤ
0
#LYRIC ㅤㅤㅤㅤㅤㅤLá no alto
2
#LYRIC ㅤㅤㅤㅤㅤLá no alto
0
#LYRIC ㅤㅤㅤㅤLá no alto
1
#LYRIC ㅤㅤㅤLá no alto
0
#LYRIC ㅤㅤLá no alto
1
#LYRIC ㅤLá no alto
000
#SCROLL 1.3
#LYRIC Lá no ALTO
3
#SCROLL 1
0000000
#LYRIC
00000000,
000
#SCROLL 1.15
1,
#GOGOSTART
#LYRIC Alto em cima
2002102
#LYRIC
0
#LYRIC Alto em cima
2022102
#LYRIC
0,
#LYRIC Alto em cima
2002102
#LYRIC
0
#LYRIC Alto em cima
2022102
#LYRIC
0,
10
#LYRIC Em cima
221020
#LYRIC
00
#LYRIC Em cima
221020,
#LYRIC
00
#LYRIC Em cima
221020
#LYRIC
00
#LYRIC Em cima
221020,
#LYRIC Alto em cima
2002102
#LYRIC
0
#LYRIC Alto em cima
2022102
#LYRIC
0,
#LYRIC Alto em cima
2002102
#LYRIC
0
#LYRIC Alto em cima
2022102
#LYRIC
0,
00
#LYRIC Em cima
221020
#LYRIC
00
#LYRIC Em cima
221020,
#LYRIC
00
#LYRIC Em cima
221020
#LYRIC
00
#LYRIC (vem)
10
#LYRIC
20
#GOGOEND
#SCROLL 1
#LYRIC (Eu não tô de brincadeira)
11,
#LYRIC Eu não tô de brincadeira
100010002000200020202
#LYRIC Eu não tô
0
#LYRIC Eu
00
#LYRIC Eu meto tudo
10101000,
10
#LYRIC Eu pego firme pra valer
11101020102010,
2000
#LYRIC
00
#LYRIC XEGO cheio de maldade
21
#LYRIC Cheio de maldade
20202010,
10001
#LYRIC Eu quero ouvir você gemer
000202020002000101020001000,
2000
#LYRIC
00
#LYRIC Eu te ligo
21201
#LYRIC E chega a noite
02020,
1000000
#LYRIC E vou com tudo
01000100020202
#LYRIC E vai
0002000
#LYRIC
1000,
#LYRIC Vai
2000
#LYRIC
00
#LYRIC Tem sabor de chocolate o sexo que a gente faz
1110201010,
2010202010111010,
#LYRIC Tem sabor de chocolate o sexo que a gente FAZ
2000
#LYRIC
00
#LYRIC Corpo quente
21201
#LYRIC E tô suado
01020,
1020
#LYRIC Vem melar
112020
#LYRIC E vem lamber
102110,
#LYRIC E vem lambêr
1000
#LYRIC
00
#LYRIC Só o cheiro
10200
#LYRIC
0
#LYRIC Só um toque
2010,
2020
#LYRIC Só um toque já
20
#LYRIC Só um toque já me
10
#LYRIC Só um toque já me faz
20
#LYRIC En
11
#LYRIC Enlo
10
#LYRIC Enloque
10,
#GOGOSTART
#SCROLL 1.1
#LYRIC Enloquecer
100110
#LYRIC Enloqueceer
1
#LYRIC Enloqueceeer
0
#LYRIC Enloqueceeeer
0
#LYRIC Enloqueceeeeer
0
#LYRIC Enloqueceeeeeer
1
#LYRIC Enloqueceeeeeeer
0
#LYRIC Enloqueceeeeeeeer
1
#LYRIC Enloqueceeeeeeeeer
1
#LYRIC Enloqueceeeeeeeeeer
10,
100
#LYRIC
1
#LYRIC Já me faz enlouquecer
201022102220,
#SCROLL 1.25
#LYRIC Já me faz enlouqueCER
11
#LYRIC Já me faz enlouqueCEER
20
#LYRIC Já me faz enlouqueCEEER
20
#LYRIC Já me faz enlouqueCEEEER
1
#LYRIC Já me faz enlouqueCEEEEER
1
#LYRIC Já me faz enlouqueCEEEEEER
1
#LYRIC Já me faz enlouqueCEEEEEEER
1
#LYRIC Já me faz enlouqueCEEEEEEEER
1
#LYRIC Já me faz enlouqueCEEEEEEEEER
1
#LYRIC Já me faz enlouqueCEEEEEEEEEER
20
#LYRIC Já me faz enlouqueCEEEEEEEEEEER
1
#LYRIC Já me faz enlouqueCEEEEEEEEEEEER
1,
#LYRIC Já me faz enlouqueCEEEEEEEEEEEEER
2001202112
#LYRIC
212000,
#GOGOEND
#SCROLL 1.075
#LYRIC Vodka
2010200
#LYRIC Vodka ou água de coco
010102010,
00001000
#LYRIC
2000
#LYRIC Pra mim tanto faz
1
#LYRIC pRa mim tanto faz
0
#LYRIC prA mim tanto faz
0
#LYRIC pra Mim tanto faz
0
#LYRIC pra mIm tanto faz
1
#LYRIC pra miM tanto faz
0
#LYRIC pra mim Tanto faz
0
#LYRIC pra mim tAnto faz
0
#LYRIC pra mim taNto faz
2
#LYRIC pra mim tanTo faz
0
#LYRIC pra mim tantO faz
0
#LYRIC pra mim tanto Faz
0
#LYRIC pra mim tanto fAz
1
#LYRIC pra mim tanto faZ
0
#LYRIC PRa mim tanto faz
0
#LYRIC PRA Mim tanto faz
0
#LYRIC PRA MIM tanto faz
2
#LYRIC PRA MIM TAnto faz
0
#LYRIC PRA MIM TANTo faz
0
#LYRIC PRA MIM TANTO Faz
0,
#LYRIC PRA MIM TANTO FAZ
0
#LYRIC
0
#LYRIC Eu gosto quando fica louca
2020102010
#LYRIC Eu gosto quando FICA louca
201
#LYRIC Eu gosto quando fica louca
0,
#LYRIC Eu gosto quando fica LOUCA
201
#LYRIC E
0
#LYRIC E ca
10
#LYRIC E cada
00
#LYRIC E cada vez
20
#LYRIC E cada vez eu
10
#LYRIC E cada vez eu quero
2000,
#GOGOSTART
#SCROLL 1.1
#LYRIC MAIS
100
#LYRIC MAAIS
1
#LYRIC MAAAIS
10
#LYRIC MAAAAIS
1000
#LYRIC MAAAAAIS
10
#LYRIC MAAAAAAIS
1
#LYRIC MAAAAAAAIS
1
#LYRIC MAAAAAAAAIS
10,
#LYRIC MAAAAAAAAAIS
10
#LYRIC
01
#LYRIC CAda vez eu quero
20
#LYRIC caDA vez eu quero
10
#LYRIC cada VEZ eu quero
22
#LYRIC cada vez EU quero
10
#LYRIC cada vez eu QUEro
20
#LYRIC cada vez eu queRO
0
#LYRIC
0,
#SCROLL 1.25
#LYRIC MAAAAAAAAAIS
1000001020
#LYRIC MAAAAAAAAAAIS
00200010101
#LYRIC MAAAAAAAAAAAIS
0
#LYRIC MAAAAAAAAAAAAAAIS
102
#LYRIC MAAAAAAAAAAAIS
0
#LYRIC MAAAAAAAAIS
00
#LYRIC MAAAAAAAAAIS
1
#LYRIC MAAAAAAAAAAIS
010,
1010101020002010
#LYRIC MAAAAAAAAAIS
1
#LYRIC MAAAAAAAAIS
0
#LYRIC MAAAAAAAIS
2
#LYRIC MAAAAAIS
0
#LYRIC MAAAIS
2000
#LYRIC
20000
#LYRIC Whi
000,
#GOGOEND
#SCROLL 1.045
#LYRIC Whisky ou água de coco
10201122,
00002000
#LYRIC
0000
#LYRIC Pra mim tanto faz
1
#LYRIC zPra mim tanto fa
0
#LYRIC zaPra mim tanto f
1
#LYRIC zafPra mim tanto
0
#LYRIC zaf Pra mim tanto
1
#LYRIC zaf oPra mim tant
0
#LYRIC zaf otPra mim tan
0
#LYRIC zaf otnPra mim ta
0
#LYRIC zaf otnaPra mim t
2
#LYRIC zaf otnatPra mim
0
#LYRIC zaf otnat Pra mim
0
#LYRIC zaf otnat mPra mi
0
#LYRIC zaf otnat miPra m
2
#LYRIC zaf otnat mimPra
0
#LYRIC zaf otnat mim Pra
0
#LYRIC zaf otnat mim aPr
0
#LYRIC zaf otnat mim arP (Pra mim tanto faz)
2000,
1
#LYRIC
0
#LYRIC Eu
22
#LYRIC Já
10
#LYRIC Tô
20
#LYRIC Che
20
#LYRIC Cheio
20
#LYRIC De
10
#LYRIC Te
20,
#LYRIC Tesão
2020
#LYRIC E
2000
#LYRIC Ca
2000
#LYRIC Cada
2000
#LYRIC Ve
10
#LYRIC Vez
00
#LYRIC Eu
2000
#LYRIC Que
100
#LYRIC Quero
00000,
#GOGOSTART
#SCROLL 1.1
#LYRIC MAAAAAAAAAAAAAAAIS
100000
#LYRIC MAaaAAAaaAAAaaAAIS
10
#LYRIC MAAaaAAAaaAAAaaAIS
1000
#LYRIC MAAAaaAAAaaAAAaaIS
10000000
#LYRIC MaAAAaaAAAaaAAAaIS
1000
#LYRIC MaaAAAaaAAAaaAAAIS
10
#LYRIC MAAaaAAAaaAAAaaAIS
10
#LYRIC MaAAAaaAAAaaAAAaIS
100
#LYRIC MaAAAaAAAAaAAAAaIS
0,
#LYRIC MAAAAAAAAAAAAAAAIS
1000
#LYRIC
00
#LYRIC Cada vez eu quero
10200010002020100020000
#LYRIC
000,
#SCROLL 1.25
#LYRIC MAIS
1
#LYRIC MAAAIS
0
#LYRIC MAAAAAAAIS
0
#LYRIC MAAAAAAAAAIS
00010
#LYRIC MAAAAAAAAIS
200020001010
#LYRIC MAAAAAAAAAAIS
1
#LYRIC MAAAAAAAAAAAAIS
01
#LYRIC MAAAAAAAAAIS
0
#LYRIC MAAAAAIS
200
#LYRIC MAAAAAAIS
0
#LYRIC MAAAAAAAAIS
1000,
200000102000201010
#LYRIC MAAAAAAIS
2
#LYRIC MAAAAAAISS
0
#LYRIC MAAAAAISSS
2
#LYRIC MAAAAAISSSS
0
#LYRIC MAAAAISSSS
00
#LYRIC MAAAISSSSS
20
#LYRIC
000000,
#GOGOEND
#SCROLL 1.22
#LYRIC UM dois três quatro
1111
#LYRIC um dois três quatro
2010
#LYRIC um DOIS três quatro
22201
#LYRIC um dois três quatro
010,
#LYRIC um dois TRÊS quatro
111120
#LYRIC um dois três quatro
10
#LYRIC um dois três QUATRO
222010
#LYRIC
10,
#LYRIC Pra ficar maneiro eu jogo o clima
111022
#LYRIC Pra ficar ManeirO eu jogo o clima
20
#LYRIC Pra ficar MAneiRO eu jogo o clima
10
#LYRIC Pra ficar MANeIRO eu jogo o clima
1
#LYRIC Pra ficar MANEIRO eu jogo o clima
0
#LYRIC Eu jogo o clima
2210,
2020
#LYRIC Eu jogo o climaㅤ
2
#LYRIC Eu jogo o climaㅤㅤ
0
#LYRIC Eu jogo o climaㅤㅤㅤ
0
#LYRIC Eu jogo o climaㅤㅤㅤㅤ
0
#LYRIC ㅤㅤㅤㅤㅤㅤLá no alto
2
#LYRIC ㅤㅤㅤㅤㅤLá no alto
0
#LYRIC ㅤㅤㅤㅤLá no alto
0
#LYRIC ㅤㅤㅤLá no alto
0
#LYRIC ㅤㅤLá no alto
1
#LYRIC ㅤLá no alto
000
#SCROLL 1.3
#LYRIC Lá no ALTO
30000000
#BARLINEOFF
#LYRIC
00000000,
00000000
#BARLINEON
0000000000000000
#SCROLL 1.15
#LYRIC (hul)
100
#LYRIC
00000,
#GOGOSTART
#LYRIC Alto em cima
2002102
#LYRIC
0
#LYRIC Alto em cima
2022102
#LYRIC
0,
#LYRIC Alto em cima
2002102
#LYRIC
0
#LYRIC Alto em cima
2022102
#LYRIC
0,
10
#LYRIC Em cima
221020
#LYRIC
00
#LYRIC Em cima
221020,
#LYRIC
00
#LYRIC Em cima
221020
#LYRIC
00
#LYRIC Em cima
221020,
#LYRIC Alto em cima
2002102
#LYRIC
0
#LYRIC Alto em cima
2022102
#LYRIC
0,
#LYRIC Alto em cima
2002102
#LYRIC
0
#LYRIC Alto em cima
2022102
#LYRIC
0,
00
#LYRIC Em cima
221020
#LYRIC
00
#LYRIC Em cima
221020,
#LYRIC
3
#LYRIC Em cima
000
#GOGOEND
#LYRIC
0000,
#END
COURSE:Hard
LEVEL:6
BALLOON:1,2,3,4,5,1,2,3,4
SCOREINIT:460
SCOREDIFF:118
#START
#SCROLL 1
0,
1001002001001000,
1001002001001000,
2002001001001000,
2000201001001000,
2000201001001000,
2002200020002000,
#LYRIC Vodka ou água de coco
21202212,
100020000
#LYRIC
000
#LYRIC Pra mim
20001000
#LYRIC Pra mim TANTO faz
2000
#LYRIC Pra mim tanto FAZ
0000
#LYRIC Pra mim TANTO faz
2000,
#LYRIC Pra mim tanto FAZ
00000
#LYRIC
000
#LYRIC Gos
1000
#LYRIC Gosto
1000
#LYRIC Gosto quan
2000
#LYRIC Gosto quando
2000
#LYRIC Gosto quando fi
1000
#LYRIC Gosto quando fica
2000,
#LYRIC Gosto quando fica lou
1000
#LYRIC Gosto quando fica louca
00
#LYRIC Gosto quando fica louca e
00
#LYRIC Gosto quando fica louca e ca
2000
#LYRIC Gosto quando fica louca e cada
2000
#LYRIC Gosto quando fica louca e cada vez
2000
#LYRIC Gosto quando fica louca e cada vez eu
2000
#LYRIC Gosto quando fica louca e cada vez eu quero
10000
#LYRIC
000,
#GOGOSTART
#SCROLL 1.1
#LYRIC MAAIS
100000
#LYRIC MAAAIS
1
#LYRIC MAAAAIS
0
#LYRIC MAAAAAIS
1000
#LYRIC MAAAAAAIS
10000000
#LYRIC MAAAAAAAIS
1000
#LYRIC MAAAAAAAAIS
10
#LYRIC MAAAAAAAAAIS
10
#LYRIC MAAAAAAAAAAIS
1000,
#LYRIC MAAAAAAAAAAAIS
1000
#LYRIC
0000
#LYRIC Ca
2000
#LYRIC Cada
1000
#LYRIC Cada vez
2000
#LYRIC Cada vez eu
1000
#LYRIC Cada vez eu quero
20000
#LYRIC
000,
#SCROLL 1.25
#LYRIC MAAAAIS
100000
#LYRIC MAAAAAIS
10
#LYRIC MAAAAAAIS
1000
#LYRIC MAAAAAAAIS
100000
#LYRIC MAAAAAAAAIS
10
#LYRIC MAAAAAAAAAIS
1
#LYRIC MAAAAAAAAAAIS
0
#LYRIC MAAAAAAAAAAAIS
10
#LYRIC MAAAAAAAAAAAAIS
10000000,
10002020102
#LYRIC
02000,
#GOGOEND
#SCROLL 1.045
#LYRIC Whisky ou água de coco
10201122,
02
#LYRIC
0
#LYRIC Pra mim TANTO faz
1
#LYRIC Pra mim tanto FAZ
1
#LYRIC Pra mim TANTO faz
2
#LYRIC Pra mim tanto FAZ
0
#LYRIC Pra mim TANTO faz
2,
#LYRIC
0
#SCROLL 1.075
#LYRIC Eu já tô cheio de tesão
2211012,
20
#LYRIC
00
#LYRIC E
0000
#LYRIC E ca
2000
#LYRIC E cada
2000
#LYRIC E cada vez
1000
#LYRIC E cada vez eu
2000
#LYRIC E cada vez eu quero
100
#LYRIC
00000,
#GOGOSTART
#SCROLL 1.1
#LYRIC MAAAAAAAAAAAAAAAAAAAAAAAAAIS
1
#LYRIC MAAAAAAAAAAAAAAAAAAAAAAAIS
0
#LYRIC MAAAAAAAAAAAAAAAAAAAAAIS
0
#LYRIC MAAAAAAAAAAAAAAAAAAAIS
1
#LYRIC MAAAAAAAAAAAAAAAAAIS
1
#LYRIC MAAAAAAAAAAAAAAAAIS
0
#LYRIC MAAAAAAAAAAAAAAAIS
1
#LYRIC MAAAAAAAAAAAAAAIS
0
#LYRIC MAAAAAAAAAAAAAIS
0
#LYRIC MAAAAAAAAAAAAIS
0
#LYRIC MAAAAAAAAAAAIS
1
#LYRIC MAAAAAAAAAAIS
01
#LYRIC MAAAAAAAAAIS
110,
#LYRIC MAAAAAAAAIS
10000
#LYRIC
000
#LYRIC CAda vez eu quero
2000
#LYRIC CADA vez eu quero
1000
#LYRIC CADA VEz eu quero
20
#LYRIC CADA VEZ eu quero
00
#LYRIC CADA VEZ EU quero
1000
#LYRIC CADA VEZ EU QUEro
20
#LYRIC CADA VEZ EU QUERO
0000
#LYRIC
00,
#SCROLL 1.25
#LYRIC MAIS
1
#LYRIC MAAAIS
0
#LYRIC MAAAAAAAIS
0
#LYRIC MAAAAAAAAAIS
00010
#LYRIC MAAAAAAAAIS
100010000010
#LYRIC MAAAAAAAAAAIS
1
#LYRIC MAAAAAAAAAAAAIS
01
#LYRIC MAAAAAAAAAIS
0
#LYRIC MAAAAAIS
100
#LYRIC MAAAAAAIS
0
#LYRIC MAAAAAAAAIS
0000,
100000002000200010
#LYRIC MAAAAAAIS
0
#LYRIC MAAAAAAISS
0
#LYRIC MAAAAAISSS
2
#LYRIC MAAAAAISSSS
0
#LYRIC MAAAAISSSS
00
#LYRIC MAAAISSSSS
20
#LYRIC
000000,
#GOGOEND
#SCROLL 1.22
#LYRIC UM dois três quatro
7000
#LYRIC um dois três quatro
8010
#LYRIC um DOIS três quatro
70008
#LYRIC um dois três quatro
020,
#LYRIC um dois TRÊS quatro
708
#LYRIC um dois três quatro
1
#LYRIC um dois três QUATRO
708
#LYRIC
2,
#LYRIC Pra ficar maneiro eu jogo o clima
1000200011102010,
2000
#LYRIC Pra ficar maneiro eu jogo o climaㅤ
0
#LYRIC Pra ficar maneiro eu jogo o climaㅤㅤ
0
#LYRIC Pra ficar maneiro eu jogo o climaㅤㅤㅤ
0
#LYRIC Pra ficar maneiro eu jogo o climaㅤㅤㅤㅤ
0
#LYRIC ㅤㅤㅤㅤㅤㅤLá no alto
1
#LYRIC ㅤㅤㅤㅤㅤLá no alto
0
#LYRIC ㅤㅤㅤㅤLá no alto
1
#LYRIC ㅤㅤㅤLá no alto
0
#LYRIC ㅤㅤLá no alto
1
#LYRIC ㅤLá no alto
000
#SCROLL 1.3
#LYRIC Lá no ALTO
3
#SCROLL 1
0000000
#LYRIC
00000000,
000
#SCROLL 1.15
1,
#GOGOSTART
#LYRIC Alto em cima
2002200
#LYRIC
0
#LYRIC Alto em cima
1022200
#LYRIC
0,
#LYRIC Alto em cima
1002200
#LYRIC
0
#LYRIC Alto em cima
1022200
#LYRIC
0,
10
#LYRIC Em cima
222020
#LYRIC
00
#LYRIC Em cima
222020,
#LYRIC
00
#LYRIC Em cima
222020
#LYRIC
00
#LYRIC Em cima
222020,
#LYRIC Alto em cima
1002200
#LYRIC
0
#LYRIC Alto em cima
1022200
#LYRIC
0,
#LYRIC Alto em cima
1002200
#LYRIC
0
#LYRIC Alto em cima
1022202
#LYRIC
0,
00
#LYRIC Em cima
222020
#LYRIC
00
#LYRIC Em cima
222020,
#LYRIC
00
#LYRIC Em cima
222020
#LYRIC
00
#LYRIC (vem)
10
#LYRIC
00
#GOGOEND
#SCROLL 1
#LYRIC (Eu não tô de brincadeira)
00,
#LYRIC Eu não tô de brincadeira
100010002000200020202
#LYRIC Eu não tô
0
#LYRIC Eu
00
#LYRIC Eu meto tudo
10000000,
10
#LYRIC Eu pego firme pra valer
10102022202000,
2000
#LYRIC
00
#LYRIC XEGO cheio de maldade
21
#LYRIC Cheio de maldade
20002010,
10000
#LYRIC Eu quero ouvir você gemer
000202020002000202020001000,
1000
#LYRIC
00
#LYRIC Eu te ligo
21200
#LYRIC E chega a noite
02020,
1000000
#LYRIC E vou com tudo
01000100020202
#LYRIC E vai
0002000
#LYRIC
0000,
#LYRIC Vai
2000
#LYRIC
00
#LYRIC Tem sabor de chocolate o sexo que a gente faz
1110201010,
2000201020111010,
#LYRIC Tem sabor de chocolate o sexo que a gente FAZ
1000
#LYRIC
00
#LYRIC Corpo quente
21200
#LYRIC E tô suado
01020,
1020
#LYRIC Vem melar
102020
#LYRIC E vem lamber
101110,
#LYRIC E vem lambêr
1000
#LYRIC
00
#LYRIC Só o cheiro
10400
#LYRIC
0
#LYRIC Só um toque
4000,
4000
#LYRIC Só um toque já
40
#LYRIC Só um toque já me
10
#LYRIC Só um toque já me faz
10
#LYRIC En
11
#LYRIC Enlo
10
#LYRIC Enloque
10,
#GOGOSTART
#SCROLL 1.1
#LYRIC Enloquecer
100110
#LYRIC Enloqueceer
1
#LYRIC Enloqueceeer
0
#LYRIC Enloqueceeeer
0
#LYRIC Enloqueceeeeer
0
#LYRIC Enloqueceeeeeer
1
#LYRIC Enloqueceeeeeeer
0
#LYRIC Enloqueceeeeeeeer
1
#LYRIC Enloqueceeeeeeeeer
1
#LYRIC Enloqueceeeeeeeeeer
10,
100
#LYRIC
0
#LYRIC Já me faz enlouquecer
201020102020,
#SCROLL 1.25
#LYRIC Já me faz enlouqueCER
11
#LYRIC Já me faz enlouqueCEER
10
#LYRIC Já me faz enlouqueCEEER
10
#LYRIC Já me faz enlouqueCEEEER
1
#LYRIC Já me faz enlouqueCEEEEER
0
#LYRIC Já me faz enlouqueCEEEEEER
0
#LYRIC Já me faz enlouqueCEEEEEEER
1
#LYRIC Já me faz enlouqueCEEEEEEEER
1
#LYRIC Já me faz enlouqueCEEEEEEEEER
0
#LYRIC Já me faz enlouqueCEEEEEEEEEER
20
#LYRIC Já me faz enlouqueCEEEEEEEEEEER
1
#LYRIC Já me faz enlouqueCEEEEEEEEEEEER
0,
#LYRIC Já me faz enlouqueCEEEEEEEEEEEEER
20270
#LYRIC
080,
#GOGOEND
#SCROLL 1.075
#LYRIC Vodka
2020200
#LYRIC Vodka ou água de coco
010102010,
00001000
#LYRIC
0000
#LYRIC Pra mim tanto faz
1
#LYRIC pRa mim tanto faz
0
#LYRIC prA mim tanto faz
0
#LYRIC pra Mim tanto faz
0
#LYRIC pra mIm tanto faz
1
#LYRIC pra miM tanto faz
0
#LYRIC pra mim Tanto faz
0
#LYRIC pra mim tAnto faz
0
#LYRIC pra mim taNto faz
2
#LYRIC pra mim tanTo faz
0
#LYRIC pra mim tantO faz
0
#LYRIC pra mim tanto Faz
0
#LYRIC pra mim tanto fAz
1
#LYRIC pra mim tanto faZ
0
#LYRIC PRa mim tanto faz
0
#LYRIC PRA Mim tanto faz
0
#LYRIC PRA MIM tanto faz
2
#LYRIC PRA MIM TAnto faz
0
#LYRIC PRA MIM TANTo faz
0
#LYRIC PRA MIM TANTO Faz
0,
#LYRIC PRA MIM TANTO FAZ
0
#LYRIC
0
#LYRIC Eu gosto quando fica louca
2020002010
#LYRIC Eu gosto quando FICA louca
201
#LYRIC Eu gosto quando fica louca
0,
#LYRIC Eu gosto quando fica LOUCA
200
#LYRIC E
0
#LYRIC E ca
10
#LYRIC E cada
00
#LYRIC E cada vez
20
#LYRIC E cada vez eu
10
#LYRIC E cada vez eu quero
2000,
#GOGOSTART
#SCROLL 1.1
#LYRIC MAIS
100
#LYRIC MAAIS
1
#LYRIC MAAAIS
10
#LYRIC MAAAAIS
1000
#LYRIC MAAAAAIS
10
#LYRIC MAAAAAAIS
1
#LYRIC MAAAAAAAIS
1
#LYRIC MAAAAAAAAIS
10,
#LYRIC MAAAAAAAAAIS
10
#LYRIC
00
#LYRIC CAda vez eu quero
20
#LYRIC caDA vez eu quero
10
#LYRIC cada VEZ eu quero
20
#LYRIC cada vez EU quero
10
#LYRIC cada vez eu QUEro
20
#LYRIC cada vez eu queRO
0
#LYRIC
0,
#SCROLL 1.25
#LYRIC MAAAAAAAAAIS
1000001010
#LYRIC MAAAAAAAAAAIS
00100000101
#LYRIC MAAAAAAAAAAAIS
0
#LYRIC MAAAAAAAAAAAAAAIS
001
#LYRIC MAAAAAAAAAAAIS
0
#LYRIC MAAAAAAAAIS
00
#LYRIC MAAAAAAAAAIS
0
#LYRIC MAAAAAAAAAAIS
000,
1000000020002000
#LYRIC MAAAAAAAAAIS
1
#LYRIC MAAAAAAAAIS
0
#LYRIC MAAAAAAAIS
0
#LYRIC MAAAAAIS
0
#LYRIC MAAAIS
2000
#LYRIC
20000
#LYRIC Whi
000,
#GOGOEND
#SCROLL 1.045
#LYRIC Whisky ou água de coco
10201122,
00002000
#LYRIC
0000
#LYRIC Pra mim tanto faz
1
#LYRIC zPra mim tanto fa
0
#LYRIC zaPra mim tanto f
0
#LYRIC zafPra mim tanto
0
#LYRIC zaf Pra mim tanto
1
#LYRIC zaf oPra mim tant
0
#LYRIC zaf otPra mim tan
0
#LYRIC zaf otnPra mim ta
0
#LYRIC zaf otnaPra mim t
2
#LYRIC zaf otnatPra mim
0
#LYRIC zaf otnat Pra mim
0
#LYRIC zaf otnat mPra mi
0
#LYRIC zaf otnat miPra m
0
#LYRIC zaf otnat mimPra
0
#LYRIC zaf otnat mim Pra
0
#LYRIC zaf otnat mim aPr
0
#LYRIC zaf otnat mim arP (Pra mim tanto faz)
2000,
0
#LYRIC
0
#LYRIC Eu
20
#LYRIC Já
20
#LYRIC Tô
10
#LYRIC Che
10
#LYRIC Cheio
00
#LYRIC De
10
#LYRIC Te
20,
#LYRIC Tesão
2000
#LYRIC E
0000
#LYRIC Ca
2000
#LYRIC Cada
2000
#LYRIC Ve
10
#LYRIC Vez
00
#LYRIC Eu
2000
#LYRIC Que
100
#LYRIC Quero
00000,
#GOGOSTART
#SCROLL 1.1
#LYRIC MAAAAAAAAAAAAAAAIS
100000
#LYRIC MAaaAAAaaAAAaaAAIS
10
#LYRIC MAAaaAAAaaAAAaaAIS
1000
#LYRIC MAAAaaAAAaaAAAaaIS
10000000
#LYRIC MaAAAaaAAAaaAAAaIS
1000
#LYRIC MaaAAAaaAAAaaAAAIS
10
#LYRIC MAAaaAAAaaAAAaaAIS
10
#LYRIC MaAAAaaAAAaaAAAaIS
100
#LYRIC MaAAAaAAAAaAAAAaIS
0,
#LYRIC MAAAAAAAAAAAAAAAIS
1000
#LYRIC
00
#LYRIC Cada vez eu quero
00200010002000100020000
#LYRIC
000,
#SCROLL 1.25
#LYRIC MAIS
1
#LYRIC MAAAIS
0
#LYRIC MAAAAAAAIS
0
#LYRIC MAAAAAAAAAIS
00010
#LYRIC MAAAAAAAAIS
100010000010
#LYRIC MAAAAAAAAAAIS
1
#LYRIC MAAAAAAAAAAAAIS
01
#LYRIC MAAAAAAAAAIS
0
#LYRIC MAAAAAIS
100
#LYRIC MAAAAAAIS
0
#LYRIC MAAAAAAAAIS
0000,
100000002000200010
#LYRIC MAAAAAAIS
0
#LYRIC MAAAAAAISS
0
#LYRIC MAAAAAISSS
2
#LYRIC MAAAAAISSSS
0
#LYRIC MAAAAISSSS
00
#LYRIC MAAAISSSSS
20
#LYRIC
000000,
#GOGOEND
#SCROLL 1.22
#LYRIC UM dois três quatro
7000
#LYRIC um dois três quatro
8010
#LYRIC um DOIS três quatro
70008
#LYRIC um dois três quatro
020,
#LYRIC um dois TRÊS quatro
708
#LYRIC um dois três quatro
1
#LYRIC um dois três QUATRO
708
#LYRIC
2,
#LYRIC Pra ficar maneiro eu jogo o clima
100020
#LYRIC Pra ficar ManeirO eu jogo o clima
00
#LYRIC Pra ficar MAneiRO eu jogo o clima
11
#LYRIC Pra ficar MANeIRO eu jogo o clima
1
#LYRIC Pra ficar MANEIRO eu jogo o clima
0
#LYRIC Eu jogo o clima
2010,
2000
#LYRIC Eu jogo o climaㅤ
0
#LYRIC Eu jogo o climaㅤㅤ
0
#LYRIC Eu jogo o climaㅤㅤㅤ
0
#LYRIC Eu jogo o climaㅤㅤㅤㅤ
0
#LYRIC ㅤㅤㅤㅤㅤㅤLá no alto
1
#LYRIC ㅤㅤㅤㅤㅤLá no alto
0
#LYRIC ㅤㅤㅤㅤLá no alto
1
#LYRIC ㅤㅤㅤLá no alto
0
#LYRIC ㅤㅤLá no alto
1
#LYRIC ㅤLá no alto
000
#SCROLL 1.3
#LYRIC Lá no ALTO
3
#SCROLL 1
0000000
#LYRIC
00000000,
000000000000000000000000
#SCROLL 1.15
#LYRIC (hul)
100
#LYRIC
00000,
#GOGOSTART
#LYRIC Alto em cima
2002200
#LYRIC
0
#LYRIC Alto em cima
1022200
#LYRIC
0,
#LYRIC Alto em cima
1002200
#LYRIC
0
#LYRIC Alto em cima
1022200
#LYRIC
0,
10
#LYRIC Em cima
222020
#LYRIC
00
#LYRIC Em cima
222020,
#LYRIC
00
#LYRIC Em cima
222020
#LYRIC
00
#LYRIC Em cima
222020,
#LYRIC Alto em cima
1002200
#LYRIC
0
#LYRIC Alto em cima
1022200
#LYRIC
0,
#LYRIC Alto em cima
1002200
#LYRIC
0
#LYRIC Alto em cima
1022200
#LYRIC
0,
10
#LYRIC Em cima
222020
#LYRIC
00
#LYRIC Em cima
222020,
#LYRIC
3
#LYRIC Em cima
000
#GOGOEND
#LYRIC
0000,
#END
COURSE:Normal
LEVEL:3
BALLOON:1,2,3,4,4,1,2,3,4
SCOREINIT:450
SCOREDIFF:113
#START
#SCROLL 1
0,
1000002001001000,
1000002001001000,
20010010,
20010010,
20010010,
2000001001001000,
#LYRIC Vodka ou água de coco
20001102,
000020000
#LYRIC
000
#LYRIC Pra mim
00001000
#LYRIC Pra mim TANTO faz
0000
#LYRIC Pra mim tanto FAZ
1000
#LYRIC Pra mim TANTO faz
0000,
#LYRIC Pra mim tanto FAZ
10000
#LYRIC
000
#LYRIC Gos
2000
#LYRIC Gosto
0000
#LYRIC Gosto quan
0000
#LYRIC Gosto quando
0000
#LYRIC Gosto quando fi
1000
#LYRIC Gosto quando fica
0000,
#LYRIC Gosto quando fica lou
2000
#LYRIC Gosto quando fica louca
00
#LYRIC Gosto quando fica louca e
00
#LYRIC Gosto quando fica louca e ca
0000
#LYRIC Gosto quando fica louca e cada
0000
#LYRIC Gosto quando fica louca e cada vez
2000
#LYRIC Gosto quando fica louca e cada vez eu
0000
#LYRIC Gosto quando fica louca e cada vez eu quero
00000
#LYRIC
000,
#GOGOSTART
#SCROLL 1.1
#LYRIC MAAIS
100000
#LYRIC MAAAIS
0
#LYRIC MAAAAIS
0
#LYRIC MAAAAAIS
1000
#LYRIC MAAAAAAIS
10000000
#LYRIC MAAAAAAAIS
1000
#LYRIC MAAAAAAAAIS
10
#LYRIC MAAAAAAAAAIS
00
#LYRIC MAAAAAAAAAAIS
0000,
#LYRIC MAAAAAAAAAAAIS
1000
#LYRIC
0000
#LYRIC Ca
2000
#LYRIC Cada
0000
#LYRIC Cada vez
2000
#LYRIC Cada vez eu
0000
#LYRIC Cada vez eu quero
20000
#LYRIC
000,
#SCROLL 1.25
#LYRIC MAAAAIS
100000
#LYRIC MAAAAAIS
00
#LYRIC MAAAAAAIS
1000
#LYRIC MAAAAAAAIS
100000
#LYRIC MAAAAAAAAIS
00
#LYRIC MAAAAAAAAAIS
1
#LYRIC MAAAAAAAAAAIS
0
#LYRIC MAAAAAAAAAAAIS
00
#LYRIC MAAAAAAAAAAAAIS
10000000,
10001010001
#LYRIC
01000,
#GOGOEND
#SCROLL 1.045
#LYRIC Whisky ou água de coco
10200002,
02
#LYRIC
0
#LYRIC Pra mim TANTO faz
0
#LYRIC Pra mim tanto FAZ
0
#LYRIC Pra mim TANTO faz
2
#LYRIC Pra mim tanto FAZ
0
#LYRIC Pra mim TANTO faz
2,
#LYRIC
0
#SCROLL 1.075
#LYRIC Eu já tô cheio de tesão
1001010,
10
#LYRIC
00
#LYRIC E
0000
#LYRIC E ca
2000
#LYRIC E cada
0000
#LYRIC E cada vez
2000
#LYRIC E cada vez eu
0000
#LYRIC E cada vez eu quero
200
#LYRIC
00000,
#GOGOSTART
#SCROLL 1.1
#LYRIC MAAAAAAAAAAAAAAAAAAAAAAAAAIS
1
#LYRIC MAAAAAAAAAAAAAAAAAAAAAAAIS
0
#LYRIC MAAAAAAAAAAAAAAAAAAAAAIS
0
#LYRIC MAAAAAAAAAAAAAAAAAAAIS
0
#LYRIC MAAAAAAAAAAAAAAAAAIS
1
#LYRIC MAAAAAAAAAAAAAAAAIS
0
#LYRIC MAAAAAAAAAAAAAAAIS
1
#LYRIC MAAAAAAAAAAAAAAIS
0
#LYRIC MAAAAAAAAAAAAAIS
0
#LYRIC MAAAAAAAAAAAAIS
0
#LYRIC MAAAAAAAAAAAIS
1
#LYRIC MAAAAAAAAAAIS
01
#LYRIC MAAAAAAAAAIS
000,
#LYRIC MAAAAAAAAIS
10000
#LYRIC
000
#LYRIC CAda vez eu quero
2000
#LYRIC CADA vez eu quero
0000
#LYRIC CADA VEz eu quero
20
#LYRIC CADA VEZ eu quero
00
#LYRIC CADA VEZ EU quero
0000
#LYRIC CADA VEZ EU QUEro
20
#LYRIC CADA VEZ EU QUERO
0000
#LYRIC
00,
#SCROLL 1.25
#LYRIC MAIS
1
#LYRIC MAAAIS
0
#LYRIC MAAAAAAAIS
0
#LYRIC MAAAAAAAAAIS
00000
#LYRIC MAAAAAAAAIS
100010000000
#LYRIC MAAAAAAAAAAIS
1
#LYRIC MAAAAAAAAAAAAIS
00
#LYRIC MAAAAAAAAAIS
0
#LYRIC MAAAAAIS
100
#LYRIC MAAAAAAIS
0
#LYRIC MAAAAAAAAIS
0000,
100000001000100000
#LYRIC MAAAAAAIS
0
#LYRIC MAAAAAAISS
0
#LYRIC MAAAAAISSS
1
#LYRIC MAAAAAISSSS
0
#LYRIC MAAAAISSSS
00
#LYRIC MAAAISSSSS
10
#LYRIC
000000,
#GOGOEND
#SCROLL 1.22
#LYRIC UM dois três quatro
7000
#LYRIC um dois três quatro
8000
#LYRIC um DOIS três quatro
70008
#LYRIC um dois três quatro
000,
#LYRIC um dois TRÊS quatro
708
#LYRIC um dois três quatro
0
#LYRIC um dois três QUATRO
700
#LYRIC
8,
#LYRIC Pra ficar maneiro eu jogo o clima
0212,
2000
#LYRIC Pra ficar maneiro eu jogo o climaㅤ
0
#LYRIC Pra ficar maneiro eu jogo o climaㅤㅤ
0
#LYRIC Pra ficar maneiro eu jogo o climaㅤㅤㅤ
0
#LYRIC Pra ficar maneiro eu jogo o climaㅤㅤㅤㅤ
0
#LYRIC ㅤㅤㅤㅤㅤㅤLá no alto
1
#LYRIC ㅤㅤㅤㅤㅤLá no alto
0
#LYRIC ㅤㅤㅤㅤLá no alto
0
#LYRIC ㅤㅤㅤLá no alto
0
#LYRIC ㅤㅤLá no alto
0
#LYRIC ㅤLá no alto
000
#SCROLL 1.3
#LYRIC Lá no ALTO
3
#SCROLL 1
0000000
#LYRIC
00000000,
000
#SCROLL 1.15
1,
#GOGOSTART
#LYRIC Alto em cima
2000200
#LYRIC
0
#LYRIC Alto em cima
1000200
#LYRIC
0,
#LYRIC Alto em cima
1000200
#LYRIC
0
#LYRIC Alto em cima
1000200
#LYRIC
0,
0
#LYRIC Em cima
022
#LYRIC
0
#LYRIC Em cima
022,
#LYRIC
0
#LYRIC Em cima
022
#LYRIC
0
#LYRIC Em cima
020,
#LYRIC Alto em cima
1000200
#LYRIC
0
#LYRIC Alto em cima
1000200
#LYRIC
0,
#LYRIC Alto em cima
1000200
#LYRIC
0
#LYRIC Alto em cima
1000200
#LYRIC
0,
0
#LYRIC Em cima
022
#LYRIC
0
#LYRIC Em cima
022,
#LYRIC
0
#LYRIC Em cima
022
#LYRIC
0
#LYRIC (vem)
1
#LYRIC
0
#GOGOEND
#SCROLL 1
#LYRIC (Eu não tô de brincadeira)
0,
#LYRIC Eu não tô de brincadeira
100000000000000020000
#LYRIC Eu não tô
0
#LYRIC Eu
00
#LYRIC Eu meto tudo
20000000,
1
#LYRIC Eu pego firme pra valer
1102020,
20
#LYRIC
0
#LYRIC XEGO cheio de maldade
0
#LYRIC Cheio de maldade
1010,
10000
#LYRIC Eu quero ouvir você gemer
000200020002000000020000000,
1000
#LYRIC
00
#LYRIC Eu te ligo
00200
#LYRIC E chega a noite
02000,
2000000
#LYRIC E vou com tudo
01000000010000
#LYRIC E vai
0001000
#LYRIC
0000,
#LYRIC Vai
10
#LYRIC
0
#LYRIC Tem sabor de chocolate o sexo que a gente faz
11020,
10212000,
#LYRIC Tem sabor de chocolate o sexo que a gente FAZ
1000
#LYRIC
00
#LYRIC Corpo quente
20200
#LYRIC E tô suado
01000,
10
#LYRIC Vem melar
002
#LYRIC E vem lamber
011,
#LYRIC E vem lambêr
1000
#LYRIC
00
#LYRIC Só o cheiro
00400
#LYRIC
0
#LYRIC Só um toque
4000,
40
#LYRIC Só um toque já
4
#LYRIC Só um toque já me
0
#LYRIC Só um toque já me faz
3
#LYRIC En
0
#LYRIC Enlo
3
#LYRIC Enloque
0,
#GOGOSTART
#SCROLL 1.1
#LYRIC Enloquecer
600000
#LYRIC Enloqueceer
0
#LYRIC Enloqueceeer
0
#LYRIC Enloqueceeeer
0
#LYRIC Enloqueceeeeer
0
#LYRIC Enloqueceeeeeer
0
#LYRIC Enloqueceeeeeeer
0
#LYRIC Enloqueceeeeeeeer
0
#LYRIC Enloqueceeeeeeeeer
0
#LYRIC Enloqueceeeeeeeeeer
00,
800
#LYRIC
0
#LYRIC Já me faz enlouquecer
100010001000,
#SCROLL 1.25
#LYRIC Já me faz enlouqueCER
60
#LYRIC Já me faz enlouqueCEER
00
#LYRIC Já me faz enlouqueCEEER
00
#LYRIC Já me faz enlouqueCEEEER
0
#LYRIC Já me faz enlouqueCEEEEER
0
#LYRIC Já me faz enlouqueCEEEEEER
0
#LYRIC Já me faz enlouqueCEEEEEEER
0
#LYRIC Já me faz enlouqueCEEEEEEEER
8
#LYRIC Já me faz enlouqueCEEEEEEEEER
0
#LYRIC Já me faz enlouqueCEEEEEEEEEER
00
#LYRIC Já me faz enlouqueCEEEEEEEEEEER
0
#LYRIC Já me faz enlouqueCEEEEEEEEEEEER
0,
#LYRIC Já me faz enlouqueCEEEEEEEEEEEEER
20270
#LYRIC
080,
#GOGOEND
#SCROLL 1.075
#LYRIC Vodka
2000100
#LYRIC Vodka ou água de coco
010000020,
00002000
#LYRIC
0000
#LYRIC Pra mim tanto faz
1
#LYRIC pRa mim tanto faz
0
#LYRIC prA mim tanto faz
0
#LYRIC pra Mim tanto faz
0
#LYRIC pra mIm tanto faz
1
#LYRIC pra miM tanto faz
0
#LYRIC pra mim Tanto faz
0
#LYRIC pra mim tAnto faz
0
#LYRIC pra mim taNto faz
1
#LYRIC pra mim tanTo faz
0
#LYRIC pra mim tantO faz
0
#LYRIC pra mim tanto Faz
0
#LYRIC pra mim tanto fAz
0
#LYRIC pra mim tanto faZ
0
#LYRIC PRa mim tanto faz
0
#LYRIC PRA Mim tanto faz
0
#LYRIC PRA MIM tanto faz
1
#LYRIC PRA MIM TAnto faz
0
#LYRIC PRA MIM TANTo faz
0
#LYRIC PRA MIM TANTO Faz
0,
#LYRIC PRA MIM TANTO FAZ
0
#LYRIC
0
#LYRIC Eu gosto quando fica louca
2020002000
#LYRIC Eu gosto quando FICA louca
100
#LYRIC Eu gosto quando fica louca
0,
#LYRIC Eu gosto quando fica LOUCA
200
#LYRIC E
0
#LYRIC E ca
20
#LYRIC E cada
00
#LYRIC E cada vez
00
#LYRIC E cada vez eu
00
#LYRIC E cada vez eu quero
1000,
#GOGOSTART
#SCROLL 1.1
#LYRIC MAIS
100
#LYRIC MAAIS
0
#LYRIC MAAAIS
10
#LYRIC MAAAAIS
1000
#LYRIC MAAAAAIS
10
#LYRIC MAAAAAAIS
1
#LYRIC MAAAAAAAIS
0
#LYRIC MAAAAAAAAIS
00,
#LYRIC MAAAAAAAAAIS
10
#LYRIC
00
#LYRIC CAda vez eu quero
20
#LYRIC caDA vez eu quero
00
#LYRIC cada VEZ eu quero
20
#LYRIC cada vez EU quero
00
#LYRIC cada vez eu QUEro
20
#LYRIC cada vez eu queRO
0
#LYRIC
0,
#SCROLL 1.25
#LYRIC MAAAAAAAAAIS
1000000010
#LYRIC MAAAAAAAAAAIS
00100000001
#LYRIC MAAAAAAAAAAAIS
0
#LYRIC MAAAAAAAAAAAAAAIS
001
#LYRIC MAAAAAAAAAAAIS
0
#LYRIC MAAAAAAAAIS
00
#LYRIC MAAAAAAAAAIS
0
#LYRIC MAAAAAAAAAAIS
000,
1000000010001000
#LYRIC MAAAAAAAAAIS
0
#LYRIC MAAAAAAAAIS
0
#LYRIC MAAAAAAAIS
0
#LYRIC MAAAAAIS
0
#LYRIC MAAAIS
1000
#LYRIC
10000
#LYRIC Whi
000,
#GOGOEND
#SCROLL 1.045
#LYRIC Whisky ou água de coco
10201002,
00002000
#LYRIC
0000
#LYRIC Pra mim tanto faz
0
#LYRIC zPra mim tanto fa
0
#LYRIC zaPra mim tanto f
0
#LYRIC zafPra mim tanto
0
#LYRIC zaf Pra mim tanto
0
#LYRIC zaf oPra mim tant
0
#LYRIC zaf otPra mim tan
0
#LYRIC zaf otnPra mim ta
0
#LYRIC zaf otnaPra mim t
2
#LYRIC zaf otnatPra mim
0
#LYRIC zaf otnat Pra mim
0
#LYRIC zaf otnat mPra mi
0
#LYRIC zaf otnat miPra m
0
#LYRIC zaf otnat mimPra
0
#LYRIC zaf otnat mim Pra
0
#LYRIC zaf otnat mim aPr
0
#LYRIC zaf otnat mim arP (Pra mim tanto faz)
2000,
0
#LYRIC
0
#LYRIC Eu
10
#LYRIC Já
00
#LYRIC Tô
00
#LYRIC Che
10
#LYRIC Cheio
00
#LYRIC De
10
#LYRIC Te
00,
#LYRIC Tesão
1000
#LYRIC E
0000
#LYRIC Ca
2000
#LYRIC Cada
0000
#LYRIC Ve
20
#LYRIC Vez
00
#LYRIC Eu
0000
#LYRIC Que
200
#LYRIC Quero
00000,
#GOGOSTART
#SCROLL 1.1
#LYRIC MAAAAAAAAAAAAAAAIS
100000
#LYRIC MAaaAAAaaAAAaaAAIS
00
#LYRIC MAAaaAAAaaAAAaaAIS
1000
#LYRIC MAAAaaAAAaaAAAaaIS
10000000
#LYRIC MaAAAaaAAAaaAAAaIS
1000
#LYRIC MaaAAAaaAAAaaAAAIS
10
#LYRIC MAAaaAAAaaAAAaaAIS
00
#LYRIC MaAAAaaAAAaaAAAaIS
000
#LYRIC MaAAAaAAAAaAAAAaIS
0,
#LYRIC MAAAAAAAAAAAAAAAIS
1000
#LYRIC
00
#LYRIC Cada vez eu quero
00200000002000000020000
#LYRIC
000,
#SCROLL 1.25
#LYRIC MAIS
1
#LYRIC MAAAIS
0
#LYRIC MAAAAAAAIS
0
#LYRIC MAAAAAAAAAIS
00000
#LYRIC MAAAAAAAAIS
100010000000
#LYRIC MAAAAAAAAAAIS
1
#LYRIC MAAAAAAAAAAAAIS
00
#LYRIC MAAAAAAAAAIS
0
#LYRIC MAAAAAIS
100
#LYRIC MAAAAAAIS
0
#LYRIC MAAAAAAAAIS
0000,
100000001000100000
#LYRIC MAAAAAAIS
0
#LYRIC MAAAAAAISS
0
#LYRIC MAAAAAISSS
1
#LYRIC MAAAAAISSSS
0
#LYRIC MAAAAISSSS
00
#LYRIC MAAAISSSSS
10
#LYRIC
000000,
#GOGOEND
#SCROLL 1.22
#LYRIC UM dois três quatro
7000
#LYRIC um dois três quatro
8000
#LYRIC um DOIS três quatro
70008
#LYRIC um dois três quatro
000,
#LYRIC um dois TRÊS quatro
708
#LYRIC um dois três quatro
0
#LYRIC um dois três QUATRO
700
#LYRIC
8,
#LYRIC Pra ficar maneiro eu jogo o clima
000020
#LYRIC Pra ficar ManeirO eu jogo o clima
00
#LYRIC Pra ficar MAneiRO eu jogo o clima
10
#LYRIC Pra ficar MANeIRO eu jogo o clima
0
#LYRIC Pra ficar MANEIRO eu jogo o clima
0
#LYRIC Eu jogo o clima
2000,
2000
#LYRIC Eu jogo o climaㅤ
0
#LYRIC Eu jogo o climaㅤㅤ
0
#LYRIC Eu jogo o climaㅤㅤㅤ
0
#LYRIC Eu jogo o climaㅤㅤㅤㅤ
0
#LYRIC ㅤㅤㅤㅤㅤㅤLá no alto
1
#LYRIC ㅤㅤㅤㅤㅤLá no alto
0
#LYRIC ㅤㅤㅤㅤLá no alto
0
#LYRIC ㅤㅤㅤLá no alto
0
#LYRIC ㅤㅤLá no alto
0
#LYRIC ㅤLá no alto
000
#SCROLL 1.3
#LYRIC Lá no ALTO
3
#SCROLL 1
0000000
#LYRIC
00000000,
000000000000000000000000
#SCROLL 1.15
#LYRIC (hul)
100
#LYRIC
00000,
#GOGOSTART
#LYRIC Alto em cima
2000200
#LYRIC
0
#LYRIC Alto em cima
1000200
#LYRIC
0,
#LYRIC Alto em cima
1000200
#LYRIC
0
#LYRIC Alto em cima
1000200
#LYRIC
0,
0
#LYRIC Em cima
022
#LYRIC
0
#LYRIC Em cima
022,
#LYRIC
0
#LYRIC Em cima
022
#LYRIC
0
#LYRIC Em cima
020,
#LYRIC Alto em cima
1000200
#LYRIC
0
#LYRIC Alto em cima
1000200
#LYRIC
0,
#LYRIC Alto em cima
1000200
#LYRIC
0
#LYRIC Alto em cima
1000202
#LYRIC
0,
0
#LYRIC Em cima
022
#LYRIC
0
#LYRIC Em cima
202,
#LYRIC
3
#LYRIC Em cima
000
#GOGOEND
#LYRIC
0000,
#END
COURSE:Easy
LEVEL:2
BALLOON:8,8,1,1,1,1,8,8,1,1,1,1
SCOREINIT:790
SCOREDIFF:199
#START
#SCROLL 1
0,
10020000,
10020000,
20010000,
20010000,
20010000,
20010000,
#LYRIC Vodka ou água de coco
11,
000000000
#LYRIC
000
#LYRIC Pra mim
00001000
#LYRIC Pra mim TANTO faz
0000
#LYRIC Pra mim tanto FAZ
0000
#LYRIC Pra mim TANTO faz
0000,
#LYRIC Pra mim tanto FAZ
20000
#LYRIC
000
#LYRIC Gos
0000
#LYRIC Gosto
0000
#LYRIC Gosto quan
0000
#LYRIC Gosto quando
0000
#LYRIC Gosto quando fi
0000
#LYRIC Gosto quando fica
0000,
#LYRIC Gosto quando fica lou
2000
#LYRIC Gosto quando fica louca
00
#LYRIC Gosto quando fica louca e
00
#LYRIC Gosto quando fica louca e ca
0000
#LYRIC Gosto quando fica louca e cada
0000
#LYRIC Gosto quando fica louca e cada vez
0000
#LYRIC Gosto quando fica louca e cada vez eu
0000
#LYRIC Gosto quando fica louca e cada vez eu quero
00000
#LYRIC
000,
#GOGOSTART
#LYRIC MAAIS
500000
#LYRIC MAAAIS
0
#LYRIC MAAAAIS
0
#LYRIC MAAAAAIS
0000
#LYRIC MAAAAAAIS
00000000
#LYRIC MAAAAAAAIS
0000
#LYRIC MAAAAAAAAIS
00
#LYRIC MAAAAAAAAAIS
00
#LYRIC MAAAAAAAAAAIS
0000,
#LYRIC MAAAAAAAAAAAIS
8000
#LYRIC
0000
#LYRIC Ca
0000
#LYRIC Cada
0000
#LYRIC Cada vez
0000
#LYRIC Cada vez eu
0000
#LYRIC Cada vez eu quero
20000
#LYRIC
000,
#LYRIC MAAAAIS
900000
#LYRIC MAAAAAIS
00
#LYRIC MAAAAAAIS
0000
#LYRIC MAAAAAAAIS
000000
#LYRIC MAAAAAAAAIS
00
#LYRIC MAAAAAAAAAIS
0
#LYRIC MAAAAAAAAAAIS
0
#LYRIC MAAAAAAAAAAAIS
00
#LYRIC MAAAAAAAAAAAAIS
00000000,
80000000000
#LYRIC
00000,
#GOGOEND
#LYRIC Whisky ou água de coco
10000002,
02
#LYRIC
0
#LYRIC Pra mim TANTO faz
0
#LYRIC Pra mim tanto FAZ
0
#LYRIC Pra mim TANTO faz
0
#LYRIC Pra mim tanto FAZ
0
#LYRIC Pra mim TANTO faz
0,
#LYRIC
1
#LYRIC Eu já tô cheio de tesão
0001010,
10
#LYRIC
00
#LYRIC E
0000
#LYRIC E ca
0000
#LYRIC E cada
0000
#LYRIC E cada vez
0000
#LYRIC E cada vez eu
0000
#LYRIC E cada vez eu quero
200
#LYRIC
00000,
#GOGOSTART
#LYRIC MAAAAAAAAAAAAAAAAAAAAAAAAAIS
5
#LYRIC MAAAAAAAAAAAAAAAAAAAAAAAIS
0
#LYRIC MAAAAAAAAAAAAAAAAAAAAAIS
0
#LYRIC MAAAAAAAAAAAAAAAAAAAIS
0
#LYRIC MAAAAAAAAAAAAAAAAAIS
0
#LYRIC MAAAAAAAAAAAAAAAAIS
0
#LYRIC MAAAAAAAAAAAAAAAIS
0
#LYRIC MAAAAAAAAAAAAAAIS
0
#LYRIC MAAAAAAAAAAAAAIS
0
#LYRIC MAAAAAAAAAAAAIS
0
#LYRIC MAAAAAAAAAAAIS
0
#LYRIC MAAAAAAAAAAIS
00
#LYRIC MAAAAAAAAAIS
000,
#LYRIC MAAAAAAAAIS
80000
#LYRIC
000
#LYRIC CAda vez eu quero
0000
#LYRIC CADA vez eu quero
0000
#LYRIC CADA VEz eu quero
00
#LYRIC CADA VEZ eu quero
00
#LYRIC CADA VEZ EU quero
0000
#LYRIC CADA VEZ EU QUEro
20
#LYRIC CADA VEZ EU QUERO
0000
#LYRIC
00,
#LYRIC MAIS
7
#LYRIC MAAAIS
0
#LYRIC MAAAAAAAIS
0
#LYRIC MAAAAAAAAAIS
00000
#LYRIC MAAAAAAAAIS
000000000000
#LYRIC MAAAAAAAAAAIS
0
#LYRIC MAAAAAAAAAAAAIS
00
#LYRIC MAAAAAAAAAIS
0
#LYRIC MAAAAAIS
000
#LYRIC MAAAAAAIS
0
#LYRIC MAAAAAAAAIS
0000,
800000000000000000
#LYRIC MAAAAAAIS
0
#LYRIC MAAAAAAISS
0
#LYRIC MAAAAAISSS
0
#LYRIC MAAAAAISSSS
0
#LYRIC MAAAAISSSS
00
#LYRIC MAAAISSSSS
00
#LYRIC
000000,
#GOGOEND
#LYRIC UM dois três quatro
7000
#LYRIC um dois três quatro
8000
#LYRIC um DOIS três quatro
70008
#LYRIC um dois três quatro
000,
#LYRIC um dois TRÊS quatro
708
#LYRIC um dois três quatro
0
#LYRIC um dois três QUATRO
708
#LYRIC
0,
#LYRIC Pra ficar maneiro eu jogo o clima
02,
2000
#LYRIC Pra ficar maneiro eu jogo o climaㅤ
0
#LYRIC Pra ficar maneiro eu jogo o climaㅤㅤ
0
#LYRIC Pra ficar maneiro eu jogo o climaㅤㅤㅤ
0
#LYRIC Pra ficar maneiro eu jogo o climaㅤㅤㅤㅤ
0
#LYRIC ㅤㅤㅤㅤㅤㅤLá no alto
0
#LYRIC ㅤㅤㅤㅤㅤLá no alto
0
#LYRIC ㅤㅤㅤㅤLá no alto
0
#LYRIC ㅤㅤㅤLá no alto
0
#LYRIC ㅤㅤLá no alto
0
#LYRIC ㅤLá no alto
000
#LYRIC Lá no ALTO
30000000
#LYRIC
00000000,
,
#GOGOSTART
#LYRIC Alto em cima
4000000
#LYRIC
0
#LYRIC Alto em cima
4000000
#LYRIC
0,
#LYRIC Alto em cima
4000000
#LYRIC
0
#LYRIC Alto em cima
4000000
#LYRIC
0,
0
#LYRIC Em cima
030
#LYRIC
0
#LYRIC Em cima
030,
#LYRIC
0
#LYRIC Em cima
030
#LYRIC
0
#LYRIC Em cima
030,
#LYRIC Alto em cima
0000200
#LYRIC
0
#LYRIC Alto em cima
0000200
#LYRIC
0,
#LYRIC Alto em cima
0000200
#LYRIC
0
#LYRIC Alto em cima
0000200
#LYRIC
0,
0
#LYRIC Em cima
030
#LYRIC
0
#LYRIC Em cima
030,
#LYRIC
0
#LYRIC Em cima
030
#LYRIC
0
#LYRIC (vem)
0
#LYRIC
0
#GOGOEND
#LYRIC (Eu não tô de brincadeira)
0,
#LYRIC Eu não tô de brincadeira
100000000000000020000
#LYRIC Eu não tô
0
#LYRIC Eu
00
#LYRIC Eu meto tudo
00000000,
1
#LYRIC Eu pego firme pra valer
0000020,
20
#LYRIC
0
#LYRIC XEGO cheio de maldade
0
#LYRIC Cheio de maldade
0000,
10000
#LYRIC Eu quero ouvir você gemer
000200000000000000000000000,
1000
#LYRIC
00
#LYRIC Eu te ligo
00000
#LYRIC E chega a noite
00000,
2000000
#LYRIC E vou com tudo
01000000000000
#LYRIC E vai
0001000
#LYRIC
0000,
#LYRIC Vai
10
#LYRIC
0
#LYRIC Tem sabor de chocolate o sexo que a gente faz
01000,
2220,
#LYRIC Tem sabor de chocolate o sexo que a gente FAZ
1000
#LYRIC
00
#LYRIC Corpo quente
00200
#LYRIC E tô suado
00000,
10
#LYRIC Vem melar
101
#LYRIC E vem lamber
000,
#LYRIC E vem lambêr
1000
#LYRIC
00
#LYRIC Só o cheiro
00400
#LYRIC
0
#LYRIC Só um toque
0000,
40
#LYRIC Só um toque já
0
#LYRIC Só um toque já me
0
#LYRIC Só um toque já me faz
3
#LYRIC En
0
#LYRIC Enlo
3
#LYRIC Enloque
0,
#GOGOSTART
#LYRIC Enloquecer
600000
#LYRIC Enloqueceer
0
#LYRIC Enloqueceeer
0
#LYRIC Enloqueceeeer
0
#LYRIC Enloqueceeeeer
0
#LYRIC Enloqueceeeeeer
0
#LYRIC Enloqueceeeeeeer
0
#LYRIC Enloqueceeeeeeeer
0
#LYRIC Enloqueceeeeeeeeer
0
#LYRIC Enloqueceeeeeeeeeer
00,
800
#LYRIC
0
#LYRIC Já me faz enlouquecer
000000000000,
#LYRIC Já me faz enlouqueCER
60
#LYRIC Já me faz enlouqueCEER
00
#LYRIC Já me faz enlouqueCEEER
00
#LYRIC Já me faz enlouqueCEEEER
0
#LYRIC Já me faz enlouqueCEEEEER
0
#LYRIC Já me faz enlouqueCEEEEEER
0
#LYRIC Já me faz enlouqueCEEEEEEER
0
#LYRIC Já me faz enlouqueCEEEEEEEER
8
#LYRIC Já me faz enlouqueCEEEEEEEEER
0
#LYRIC Já me faz enlouqueCEEEEEEEEEER
00
#LYRIC Já me faz enlouqueCEEEEEEEEEEER
0
#LYRIC Já me faz enlouqueCEEEEEEEEEEEER
0,
#LYRIC Já me faz enlouqueCEEEEEEEEEEEEER
00000
#LYRIC
000,
#GOGOEND
#LYRIC Vodka
2000000
#LYRIC Vodka ou água de coco
010000020,
00002000
#LYRIC
0000
#LYRIC Pra mim tanto faz
0
#LYRIC pRa mim tanto faz
0
#LYRIC prA mim tanto faz
0
#LYRIC pra Mim tanto faz
0
#LYRIC pra mIm tanto faz
0
#LYRIC pra miM tanto faz
0
#LYRIC pra mim Tanto faz
0
#LYRIC pra mim tAnto faz
0
#LYRIC pra mim taNto faz
0
#LYRIC pra mim tanTo faz
0
#LYRIC pra mim tantO faz
0
#LYRIC pra mim tanto Faz
0
#LYRIC pra mim tanto fAz
0
#LYRIC pra mim tanto faZ
0
#LYRIC PRa mim tanto faz
0
#LYRIC PRA Mim tanto faz
0
#LYRIC PRA MIM tanto faz
0
#LYRIC PRA MIM TAnto faz
0
#LYRIC PRA MIM TANTo faz
0
#LYRIC PRA MIM TANTO Faz
0,
#LYRIC PRA MIM TANTO FAZ
1
#LYRIC
0
#LYRIC Eu gosto quando fica louca
0000002000
#LYRIC Eu gosto quando FICA louca
200
#LYRIC Eu gosto quando fica louca
0,
#LYRIC Eu gosto quando fica LOUCA
200
#LYRIC E
0
#LYRIC E ca
00
#LYRIC E cada
00
#LYRIC E cada vez
00
#LYRIC E cada vez eu
00
#LYRIC E cada vez eu quero
1000,
#GOGOSTART
#LYRIC MAIS
500
#LYRIC MAAIS
0
#LYRIC MAAAIS
00
#LYRIC MAAAAIS
0000
#LYRIC MAAAAAIS
00
#LYRIC MAAAAAAIS
0
#LYRIC MAAAAAAAIS
0
#LYRIC MAAAAAAAAIS
00,
#LYRIC MAAAAAAAAAIS
80
#LYRIC
00
#LYRIC CAda vez eu quero
00
#LYRIC caDA vez eu quero
00
#LYRIC cada VEZ eu quero
00
#LYRIC cada vez EU quero
00
#LYRIC cada vez eu QUEro
10
#LYRIC cada vez eu queRO
0
#LYRIC
0,
#LYRIC MAAAAAAAAAIS
9000000000
#LYRIC MAAAAAAAAAAIS
00000000000
#LYRIC MAAAAAAAAAAAIS
0
#LYRIC MAAAAAAAAAAAAAAIS
000
#LYRIC MAAAAAAAAAAAIS
0
#LYRIC MAAAAAAAAIS
00
#LYRIC MAAAAAAAAAIS
0
#LYRIC MAAAAAAAAAAIS
000,
8000000000000000
#LYRIC MAAAAAAAAAIS
0
#LYRIC MAAAAAAAAIS
0
#LYRIC MAAAAAAAIS
0
#LYRIC MAAAAAIS
0
#LYRIC MAAAIS
0000
#LYRIC
00000
#LYRIC Whi
000,
#GOGOEND
#LYRIC Whisky ou água de coco
10000002,
00002000
#LYRIC
0000
#LYRIC Pra mim tanto faz
0
#LYRIC zPra mim tanto fa
0
#LYRIC zaPra mim tanto f
0
#LYRIC zafPra mim tanto
0
#LYRIC zaf Pra mim tanto
0
#LYRIC zaf oPra mim tant
0
#LYRIC zaf otPra mim tan
0
#LYRIC zaf otnPra mim ta
0
#LYRIC zaf otnaPra mim t
0
#LYRIC zaf otnatPra mim
0
#LYRIC zaf otnat Pra mim
0
#LYRIC zaf otnat mPra mi
0
#LYRIC zaf otnat miPra m
0
#LYRIC zaf otnat mimPra
0
#LYRIC zaf otnat mim Pra
0
#LYRIC zaf otnat mim aPr
0
#LYRIC zaf otnat mim arP (Pra mim tanto faz)
0000,
1
#LYRIC
0
#LYRIC Eu
00
#LYRIC Já
00
#LYRIC Tô
00
#LYRIC Che
10
#LYRIC Cheio
00
#LYRIC De
10
#LYRIC Te
00,
#LYRIC Tesão
1000
#LYRIC E
0000
#LYRIC Ca
0000
#LYRIC Cada
0000
#LYRIC Ve
00
#LYRIC Vez
00
#LYRIC Eu
0000
#LYRIC Que
200
#LYRIC Quero
00000,
#GOGOSTART
#LYRIC MAAAAAAAAAAAAAAAIS
500000
#LYRIC MAaaAAAaaAAAaaAAIS
00
#LYRIC MAAaaAAAaaAAAaaAIS
0000
#LYRIC MAAAaaAAAaaAAAaaIS
00000000
#LYRIC MaAAAaaAAAaaAAAaIS
0000
#LYRIC MaaAAAaaAAAaaAAAIS
00
#LYRIC MAAaaAAAaaAAAaaAIS
00
#LYRIC MaAAAaaAAAaaAAAaIS
000
#LYRIC MaAAAaAAAAaAAAAaIS
0,
#LYRIC MAAAAAAAAAAAAAAAIS
8000
#LYRIC
00
#LYRIC Cada vez eu quero
00000000000000000020000
#LYRIC
000,
#LYRIC MAIS
7
#LYRIC MAAAIS
0
#LYRIC MAAAAAAAIS
0
#LYRIC MAAAAAAAAAIS
00000
#LYRIC MAAAAAAAAIS
000000000000
#LYRIC MAAAAAAAAAAIS
0
#LYRIC MAAAAAAAAAAAAIS
00
#LYRIC MAAAAAAAAAIS
0
#LYRIC MAAAAAIS
000
#LYRIC MAAAAAAIS
0
#LYRIC MAAAAAAAAIS
0000,
800000000000000000
#LYRIC MAAAAAAIS
0
#LYRIC MAAAAAAISS
0
#LYRIC MAAAAAISSS
0
#LYRIC MAAAAAISSSS
0
#LYRIC MAAAAISSSS
00
#LYRIC MAAAISSSSS
00
#LYRIC
000000,
#GOGOEND
#LYRIC UM dois três quatro
7000
#LYRIC um dois três quatro
8000
#LYRIC um DOIS três quatro
70008
#LYRIC um dois três quatro
000,
#LYRIC um dois TRÊS quatro
708
#LYRIC um dois três quatro
0
#LYRIC um dois três QUATRO
708
#LYRIC
0,
#LYRIC Pra ficar maneiro eu jogo o clima
000000
#LYRIC Pra ficar ManeirO eu jogo o clima
00
#LYRIC Pra ficar MAneiRO eu jogo o clima
10
#LYRIC Pra ficar MANeIRO eu jogo o clima
0
#LYRIC Pra ficar MANEIRO eu jogo o clima
0
#LYRIC Eu jogo o clima
0000,
2000
#LYRIC Eu jogo o climaㅤ
0
#LYRIC Eu jogo o climaㅤㅤ
0
#LYRIC Eu jogo o climaㅤㅤㅤ
0
#LYRIC Eu jogo o climaㅤㅤㅤㅤ
0
#LYRIC ㅤㅤㅤㅤㅤㅤLá no alto
0
#LYRIC ㅤㅤㅤㅤㅤLá no alto
0
#LYRIC ㅤㅤㅤㅤLá no alto
0
#LYRIC ㅤㅤㅤLá no alto
0
#LYRIC ㅤㅤLá no alto
0
#LYRIC ㅤLá no alto
000
#LYRIC Lá no ALTO
30000000
#LYRIC
00000000,
000000000000000000000000
#LYRIC (hul)
000
#LYRIC
00000,
#GOGOSTART
#LYRIC Alto em cima
4000000
#LYRIC
0
#LYRIC Alto em cima
4000000
#LYRIC
0,
#LYRIC Alto em cima
4000000
#LYRIC
0
#LYRIC Alto em cima
4000000
#LYRIC
0,
0
#LYRIC Em cima
030
#LYRIC
0
#LYRIC Em cima
030,
#LYRIC
0
#LYRIC Em cima
030
#LYRIC
0
#LYRIC Em cima
030,
#LYRIC Alto em cima
0000200
#LYRIC
0
#LYRIC Alto em cima
0000200
#LYRIC
0,
#LYRIC Alto em cima
0000200
#LYRIC
0
#LYRIC Alto em cima
0000200
#LYRIC
0,
0
#LYRIC Em cima
030
#LYRIC
0
#LYRIC Em cima
030,
#LYRIC
3
#LYRIC Em cima
000
#GOGOEND
#LYRIC
0000,
#END