Files
Custom-charts-de-Legustalo/Pop/La Copa De La Vida - Spanglish Version/La Copa de la Vida - Spanglish Version.tja
T
Legustalo 7af7418dbb la copa de la vida
not the same of Brayan one tho
2025-12-22 12:26:33 -03:00

3044 lines
29 KiB
Plaintext

TITLE:La Copa De La Vida - Spanglish Version
SUBTITLE:Ricky Martin
BPM:127
WAVE:La Copa de la Vida - Spanglish Version.ogg
PREIMAGE:La Copa de la Vida - Spanglish Version.png
OFFSET:0.873
DEMOSTART:80.3868
MAKER:Legustalo
COURSE:Oni
LEVEL:8
BALLOON:8,4
SCOREINIT:340
SCOREDIFF:85
#START
,
00000
#LYRIC Do you really want it?
000,
#GOGOSTART
22022022
#LYRIC (YEAH)
12
#LYRIC (YEAH) Do you really want it?
2022
#LYRIC Do you really want it?
00,
22022022
#LYRIC (YEAH)
10
#LYRIC (YEAH) Do you really want it?
2022
#LYRIC Do you really want it?
10,
12022121
#LYRIC (YEAH)
20211010,
#GOGOEND
#LYRIC
1002002000020020,
0002002000020020,
1101101122022022,
1101101122022020,
#LYRIC GO!
300
#LYRIC
0
#LYRIC GO!!
300
#LYRIC
0
#LYRIC GO!!!
30000
#LYRIC
000,
#LYRIC (GO!)
400
#LYRIC
0
#LYRIC (GO!!)
400
#LYRIC
0
#LYRIC (GO!!!)
4000
#LYRIC
00
#LYRIC ¡A
20,
#LYRIC ¡Ale
10
#LYRIC ¡Ale A
20
#LYRIC ¡Ale Ale
10
#LYRIC ¡Ale Ale A
20
#LYRIC ¡Ale Ale Ale!
10000
#LYRIC
0
#LYRIC (¡A
10,
#LYRIC (¡Ale
20
#LYRIC (¡Ale A
10
#LYRIC (¡Ale Ale
20
#LYRIC (¡Ale Ale A
10
#LYRIC (¡Ale Ale Ale!)
20000
#LYRIC
000,
#LYRIC GO!
3
#LYRIC
0
#LYRIC (GO!)
4
#LYRIC
0,
#LYRIC GO!!
3
#LYRIC
0
#LYRIC (GO!!)
4
#LYRIC
0,
#LYRIC GO!
3
#LYRIC (GO!)
4
#LYRIC GO!!
3
#LYRIC (GO!!)
4,
#LYRIC HERE
30000000
#LYRIC HERE WE
30000000
#LYRIC HERE WE GO
100
#LYRIC HERE WE GO!
100
#LYRIC HERE WE GO!!
100
#LYRIC HERE WE GO!! (YEAH!)
2000000,
#LYRIC
2001201020011011,
2010211020011011,
2001201020011022,
1021010201100000,
2001201020011022,
1010211020011011,
2001201020011011,
2021010201111010,
10
#LYRIC The Cup of Life
2210102002
#LYRIC
10
#LYRIC This is the one
20,
002110111021
#LYRIC
0120,
10
#LYRIC Now is the time
2020102012
#LYRIC
10
#LYRIC Don't ever stop
11,
10221020
#LYRIC
00120021,
20
#LYRIC Push it along
1210201002
#LYRIC
10
#LYRIC Gotta be strong
11,
10002011101
#LYRIC
12020,
10
#LYRIC Push it along
1120201001
#LYRIC
20
#LYRIC Right
22,
2
#LYRIC Right to
1
#LYRIC Right to the
2
#LYRIC Right to the top
1
#LYRIC
0
#LYRIC Como Caín y Abel
221,
201200211
#LYRIC
0
#LYRIC Es un partido cruel
201020,
10021021200
#LYRIC
11000,
#LYRIC Tienes que pelear,
12020211200
#LYRIC Tienes que pelear, por una estrella
11120,
22222010
#LYRIC
00
#LYRIC Consigue
222010,
#LYRIC Consigue con
300
#LYRIC Consigue con ho
220
#LYRIC Consigue con honor
3000
#LYRIC La copa
111010,
#LYRIC La copa del
300
#LYRIC La copa del a
300
#LYRIC La copa del amor
3000
#LYRIC
20200
#LYRIC Para sobrevivir y luchar por ella
1,
1102201222012011,
2222200
#LYRIC
000
#LYRIC ¡Luchar por ella!
112011,
#GOGOSTART
220220
#LYRIC
20
#LYRIC (YEAH!)
30
#LYRIC (YEAH!) Do you really want it?
11
#LYRIC Do you really want it?
2011,
7000
#GOGOEND
#LYRIC (YEAH!)
800
#LYRIC
0,
#GOGOSTART
#LYRIC Here
3000
#LYRIC Here we
3000
#LYRIC Here we go
3000
#LYRIC
00
#LYRIC ¡A
11,
#LYRIC ¡Ale
20
#LYRIC ¡Ale A
10
#LYRIC ¡Ale Ale
20
#LYRIC ¡Ale Ale A
21
#LYRIC ¡Ale Ale Ale!
2000
#LYRIC
0000,
#LYRIC GO!
300
#LYRIC
0
#LYRIC GO!!
300
#LYRIC
0
#LYRIC GO!!!
3000
#LYRIC
00
#LYRIC ¡A
11,
#LYRIC ¡Ale
20
#LYRIC ¡Ale A
10
#LYRIC ¡Ale Ale
20
#LYRIC ¡Ale Ale A
1
#LYRIC ¡Ale Ale Ale!
20000
#LYRIC
00
#LYRIC ¡A
10,
#LYRIC ¡Arri
4001
#LYRIC ¡Arriba
2010
#LYRIC ¡Arriba va!
4001
#LYRIC
20
#LYRIC El mundo está de pie
21,
101120102000
#LYRIC
0010,
#LYRIC GO!
3001
#LYRIC GO! GO!
2020
#LYRIC GO! GO! GO!
3001
#LYRIC
20
#LYRIC ¡A
21,
#LYRIC ¡Ale
10
#LYRIC ¡Ale A
20
#LYRIC ¡Ale Ale
10
#LYRIC ¡Ale Ale A
2
#LYRIC ¡Ale Ale Ale!
10020
#LYRIC
2000,
#GOGOEND
2001201020011022,
1010211020000022,
1001201020000022,
1012010211111000,
100
#LYRIC La vida es
12020100120
#LYRIC La vida es competición
21,
10201022200110
#LYRIC
20,
10
#LYRIC Hay que soñar
2210102101
#LYRIC
20
#LYRIC Ser campeón
11,
10212011100
#LYRIC
20020,
10
#LYRIC La copa es
112020100220
#LYRIC La copa es la bendición
21,
10101011101200
#LYRIC
20,
10
#LYRIC La ganarás
112020200
#LYRIC
200
#LYRIC Go
10,
0
#LYRIC
0
#LYRIC Go
100
#LYRIC
0
#LYRIC Go
1000
#LYRIC And when you feel the heat
212020,
2221001000
#LYRIC The world is at your feet
112010,
2002002000
#LYRIC
40400
#LYRIC No one can hold you down
1,
2110201120
#LYRIC If you really want it
212020,
12222020
#LYRIC
00
#LYRIC Just steal your
202020,
#LYRIC Just steal your des
300
#LYRIC Just steal your desti
300
#LYRIC Just steal your destiny
300
#LYRIC
0
#LYRIC Right from the
111010,
#LYRIC Right from the hands
300
#LYRIC Right from the hands of
300
#LYRIC Right from the hands of fate
3000
#LYRIC
40400
#LYRIC Reach for The Cup of Life
1,
1022101220
#LYRIC 'Cause your name is on it
112201,
22222020
#LYRIC
00
#LYRIC Do you really want it?
112201,
#GOGOSTART
22022020
#LYRIC (YEAH!)
30
#LYRIC (YEAH!) Do you really want it?
2210
#LYRIC Do you really want it?
10,
22122122
#GOGOEND
#LYRIC (YEAH!)
70008000,
#LYRIC
3001101122022030,
3001104040022030,
3012210121022020,
#GOGOSTART
#LYRIC Here
3000
#LYRIC Here we
3000
#LYRIC Here we go
3000
#LYRIC
00
#LYRIC ¡A
11,
#LYRIC ¡Ale
20
#LYRIC ¡Ale A
10
#LYRIC ¡Ale Ale
22
#LYRIC ¡Ale Ale A
20
#LYRIC ¡Ale Ale Ale!
2001
#LYRIC
2010,
#LYRIC GO!
300
#LYRIC
0
#LYRIC GO!!
300
#LYRIC
0
#LYRIC GO!!!
3000
#LYRIC
00
#LYRIC ¡A
11,
#LYRIC ¡Ale
20
#LYRIC ¡Ale A
10
#LYRIC ¡Ale Ale
20
#LYRIC ¡Ale Ale A
1
#LYRIC ¡Ale Ale Ale!
22220
#LYRIC
00
#LYRIC To
10,
#LYRIC Tonight's
4001
#LYRIC Tonight's the
2010
#LYRIC Tonight's the night
4001
#LYRIC
20
#LYRIC We're gonna celebrate
11,
202120102000
#LYRIC
00
#LYRIC The
22,
#LYRIC The Cup
1002
#LYRIC The Cup of
1020
#LYRIC The Cup of Life
1000
#LYRIC
00
#LYRIC ¡A
21,
#LYRIC ¡Ale
20
#LYRIC ¡Ale A
21
#LYRIC ¡Ale Ale
20
#LYRIC ¡Ale Ale A
1
#LYRIC ¡Ale Ale Ale!
22220
#LYRIC
2000,
#LYRIC ¡Uno,
3002
#LYRIC ¡Uno, dos,
1020
#LYRIC ¡Uno, dos, tres!
30021
#LYRIC
0
#LYRIC ¡O
11,
#LYRIC ¡Ole
20
#LYRIC ¡Ole O
11
#LYRIC ¡Ole Ole
20
#LYRIC ¡Ole Ole O
10
#LYRIC ¡Ole Ole Ole!
200100
#LYRIC
10,
#LYRIC Un,
4001
#LYRIC Un, deux,
2010
#LYRIC Un, deux, trois!
40012
#LYRIC
0
#LYRIC ¡A
21,
#LYRIC ¡Ale
20
#LYRIC ¡Ale A
10
#LYRIC ¡Ale Ale
20
#LYRIC ¡Ale Ale A
2
#LYRIC ¡Ale Ale Ale!
11120
#LYRIC
20
#LYRIC ¡A
10,
#LYRIC ¡Arri
3000
#LYRIC ¡Arriba
3000
#LYRIC ¡Arriba va!
3000
#LYRIC
00
#LYRIC El mundo está de pie
11,
202020102000
#LYRIC
0022,
#LYRIC GO!
1020
#LYRIC GO! GO!
1022
#LYRIC GO! GO! GO!
1000
#LYRIC
00
#LYRIC ¡A
10,
#LYRIC ¡Ale
20
#LYRIC ¡Ale A
11
#LYRIC ¡Ale Ale
21
#LYRIC ¡Ale Ale A
1
#LYRIC ¡Ale Ale Ale!
20020
#LYRIC
2000,
#GOGOEND
1101101122022022,
1101101122022022,
1101101122022022,
11011011202120
#LYRIC ¡A
21,
#LYRIC ¡Ale
2
#LYRIC ¡Ale A
2
#LYRIC ¡Ale Ale!
1
#LYRIC (¡A
2
#LYRIC (¡Ale
1
#LYRIC (¡Ale A
1
#LYRIC (¡Ale Ale!)
2
#LYRIC ¡A
1,
#LYRIC ¡Ale
2
#LYRIC ¡Ale A
1
#LYRIC ¡Ale Ale!
2
#LYRIC (¡A
1
#LYRIC (¡Ale
2
#LYRIC (¡Ale A
2
#LYRIC (¡Ale Ale!)
1
#LYRIC ¡A
1,
#LYRIC ¡Ale
2
#LYRIC ¡Ale A
1
#LYRIC ¡Ale Ale!
2
#LYRIC (¡A
1
#LYRIC (¡Ale
2
#LYRIC (¡Ale A
2
#LYRIC (¡Ale Ale!)
1
#LYRIC ¡A
1,
#LYRIC ¡Ale
20
#LYRIC ¡Ale A
10
#LYRIC ¡Ale Ale
20
#LYRIC ¡Ale Ale A
10
#LYRIC ¡Ale Ale Ale!
2222
#LYRIC
20
#LYRIC ¡A
10,
#LYRIC ¡Ale
20
#LYRIC ¡Ale A
12
#LYRIC ¡Ale Ale!
20
#LYRIC (¡A
10
#LYRIC (¡Ale
20
#LYRIC (¡Ale A
22
#LYRIC (¡Ale Ale!)
10
#LYRIC ¡A
10,
#LYRIC ¡Ale
2
#LYRIC ¡Ale A
1
#LYRIC ¡Ale Ale!
2
#LYRIC (¡A
1
#LYRIC (¡Ale
1
#LYRIC (¡Ale A
2
#LYRIC (¡Ale Ale!)
2
#LYRIC ¡A
1,
#LYRIC ¡Ale
20
#LYRIC ¡Ale A
12
#LYRIC ¡Ale Ale!
20
#LYRIC (¡A
10
#LYRIC (¡Ale
10
#LYRIC (¡Ale A
22
#LYRIC (¡Ale Ale!)
20
#LYRIC ¡A
20,
#LYRIC ¡Ale
10
#LYRIC ¡Ale A
10
#LYRIC ¡Ale Ale
20
#LYRIC ¡Ale Ale A
10
#LYRIC ¡Ale Ale Ale!
1
#LYRIC ¡¡Ale Ale Ale!!
1
#LYRIC ¡¡¡Ale Ale Ale!!!
1
#LYRIC ¡¡¡¡Ale Ale Ale!!!!
1
#LYRIC ¡¡¡¡¡Ale Ale Ale!!!!!
10
#LYRIC ¡¡¡¡¡¡Ale Ale Ale!!!!!!
10,
#GOGOSTART
#LYRIC (YEAH!)
30011011
#LYRIC
22022022,
10
#LYRIC Do you really want it?
11202022222011,
#GOGOEND
#LYRIC
0
#LYRIC (YEAH!)
0000000
#LYRIC (YEAH!) (yeah!)
00000000,
#LYRIC
0,
#END
COURSE:Hard
LEVEL:6
BALLOON:12,8,3,3
SCOREINIT:310
SCOREDIFF:80
#START
,
00000
#LYRIC Do you really want it?
000,
#GOGOSTART
22022022
#LYRIC (YEAH)
02
#LYRIC (YEAH) Do you really want it?
2022
#LYRIC Do you really want it?
00,
22022022
#LYRIC (YEAH)
02
#LYRIC (YEAH) Do you really want it?
2022
#LYRIC Do you really want it?
00,
7000
#LYRIC (YEAH)
0008,
#GOGOEND
#LYRIC
0002002000020020,
0002002000020020,
1101101022022020,
1101101022022020,
#LYRIC GO!
300
#LYRIC
0
#LYRIC GO!!
300
#LYRIC
0
#LYRIC GO!!!
30000
#LYRIC
000,
#LYRIC (GO!)
400
#LYRIC
0
#LYRIC (GO!!)
400
#LYRIC
0
#LYRIC (GO!!!)
4000
#LYRIC
00
#LYRIC ¡A
20,
#LYRIC ¡Ale
10
#LYRIC ¡Ale A
20
#LYRIC ¡Ale Ale
10
#LYRIC ¡Ale Ale A
20
#LYRIC ¡Ale Ale Ale!
10000
#LYRIC
0
#LYRIC (¡A
10,
#LYRIC (¡Ale
20
#LYRIC (¡Ale A
10
#LYRIC (¡Ale Ale
20
#LYRIC (¡Ale Ale A
10
#LYRIC (¡Ale Ale Ale!)
20000
#LYRIC
000,
#LYRIC GO!
3
#LYRIC
0
#LYRIC (GO!)
4
#LYRIC
0,
#LYRIC GO!!
3
#LYRIC
0
#LYRIC (GO!!)
4
#LYRIC
0,
#LYRIC GO!
3
#LYRIC (GO!)
4
#LYRIC GO!!
3
#LYRIC (GO!!)
4,
#LYRIC HERE
30000000
#LYRIC HERE WE
30000000
#LYRIC HERE WE GO
100
#LYRIC HERE WE GO!
100
#LYRIC HERE WE GO!!
100
#LYRIC HERE WE GO!! (YEAH!)
2000000,
#LYRIC
20202001,
2010201020000011,
2010201020000022,
1022010200000000,
20212002,
1010201020000011,
2010201020000011,
2022010200000000,
#LYRIC
10
#LYRIC The Cup of Life
2010102000
#LYRIC
00
#LYRIC This is the one
22,
221100
#LYRIC
00,
10
#LYRIC Now is the time
0020102010
#LYRIC
20
#LYRIC Don't ever stop
11,
1222
#LYRIC
0002,
20
#LYRIC Push it along
0210202002
#LYRIC
10
#LYRIC Gotta be strong
11,
10002011111
#LYRIC
00000,
10
#LYRIC Push it along
1020201001
#LYRIC
20
#LYRIC Right
22,
2
#LYRIC Right to
1
#LYRIC Right to the
1
#LYRIC Right to the top
1
#LYRIC
0
#LYRIC Como Caín y Abel
221,
200200111
#LYRIC
0
#LYRIC Es un partido cruel
201020,
10020020000
#LYRIC
00000,
#LYRIC Tienes que pelear,
11020100200
#LYRIC Tienes que pelear, por una estrella
11020,
22222000
#LYRIC
00
#LYRIC Consigue
101010,
#LYRIC Consigue con
300
#LYRIC Consigue con ho
300
#LYRIC Consigue con honor
3000
#LYRIC La copa
101010,
#LYRIC La copa del
300
#LYRIC La copa del a
300
#LYRIC La copa del amor
3000
#LYRIC
20200
#LYRIC Para sobrevivir y luchar por ella
1,
1102202220011000,
2222200
#LYRIC
000
#LYRIC ¡Luchar por ella!
102010,
#GOGOSTART
220220
#LYRIC
20
#LYRIC (YEAH!)
30
#LYRIC (YEAH!) Do you really want it?
11
#LYRIC Do you really want it?
1010,
7000
#GOGOEND
#LYRIC (YEAH!)
800
#LYRIC
0,
#GOGOSTART
#LYRIC Here
30
#LYRIC Here we
30
#LYRIC Here we go
30
#LYRIC
0
#LYRIC ¡A
1,
#LYRIC ¡Ale
2
#LYRIC ¡Ale A
1
#LYRIC ¡Ale Ale
2
#LYRIC ¡Ale Ale A
1
#LYRIC ¡Ale Ale Ale!
20
#LYRIC
00,
#LYRIC GO!
300
#LYRIC
0
#LYRIC GO!!
300
#LYRIC
0
#LYRIC GO!!!
3000
#LYRIC
00
#LYRIC ¡A
10,
#LYRIC ¡Ale
20
#LYRIC ¡Ale A
10
#LYRIC ¡Ale Ale
20
#LYRIC ¡Ale Ale A
1
#LYRIC ¡Ale Ale Ale!
20000
#LYRIC
00
#LYRIC ¡A
10,
#LYRIC ¡Arri
40
#LYRIC ¡Arriba
40
#LYRIC ¡Arriba va!
40
#LYRIC
0
#LYRIC El mundo está de pie
2,
102220102000
#LYRIC
0000,
#LYRIC GO!
30
#LYRIC GO! GO!
30
#LYRIC GO! GO! GO!
30
#LYRIC
0
#LYRIC ¡A
2,
#LYRIC ¡Ale
10
#LYRIC ¡Ale A
20
#LYRIC ¡Ale Ale
10
#LYRIC ¡Ale Ale A
2
#LYRIC ¡Ale Ale Ale!
10020
#LYRIC
2000,
#GOGOEND
2000201020000011,
2010201020000011,
2000201020000011,
2022020111111000,
100
#LYRIC La vida es
22020100000
#LYRIC La vida es competición
11,
10201022222000
#LYRIC
00,
1
#LYRIC Hay que soñar
22120
#LYRIC
0
#LYRIC Ser campeón
1,
00202011111
#LYRIC
00000,
10
#LYRIC La copa es
111020100220
#LYRIC La copa es la bendición
10,
00102011111000
#LYRIC
00,
00
#LYRIC La ganarás
202020200
#LYRIC
200
#LYRIC Go
10,
0
#LYRIC
0
#LYRIC Go
100
#LYRIC
0
#LYRIC Go
1000
#LYRIC And when you feel the heat
202010,
2001001000
#LYRIC The world is at your feet
111010,
2002002000
#LYRIC
40400
#LYRIC No one can hold you down
1,
2022010200
#LYRIC If you really want it
222020,
11111000
#LYRIC
00
#LYRIC Just steal your
202020,
#LYRIC Just steal your des
300
#LYRIC Just steal your desti
300
#LYRIC Just steal your destiny
300
#LYRIC
0
#LYRIC Right from the
111010,
#LYRIC Right from the hands
300
#LYRIC Right from the hands of
300
#LYRIC Right from the hands of fate
3000
#LYRIC
40400
#LYRIC Reach for The Cup of Life
1,
1020101100
#LYRIC 'Cause your name is on it
111010,
22222000
#LYRIC
00
#LYRIC Do you really want it?
222010,
#GOGOSTART
22022020
#LYRIC (YEAH!)
30
#LYRIC (YEAH!) Do you really want it?
1110
#LYRIC Do you really want it?
10,
22022020
#GOGOEND
#LYRIC (YEAH!)
70008000,
#LYRIC
3001101022022030,
3001104040020030,
3002220222022020,
#GOGOSTART
#LYRIC Here
30
#LYRIC Here we
30
#LYRIC Here we go
30
#LYRIC
0
#LYRIC ¡A
1,
#LYRIC ¡Ale
2
#LYRIC ¡Ale A
1
#LYRIC ¡Ale Ale
2
#LYRIC ¡Ale Ale A
1
#LYRIC ¡Ale Ale Ale!
20
#LYRIC
00,
#LYRIC GO!
300
#LYRIC
0
#LYRIC GO!!
300
#LYRIC
0
#LYRIC GO!!!
3000
#LYRIC
00
#LYRIC ¡A
10,
#LYRIC ¡Ale
20
#LYRIC ¡Ale A
10
#LYRIC ¡Ale Ale
20
#LYRIC ¡Ale Ale A
1
#LYRIC ¡Ale Ale Ale!
20000
#LYRIC
00
#LYRIC To
10,
#LYRIC Tonight's
40
#LYRIC Tonight's the
40
#LYRIC Tonight's the night
40
#LYRIC
0
#LYRIC We're gonna celebrate
1,
221120
#LYRIC
0
#LYRIC The
1,
#LYRIC The Cup
30
#LYRIC The Cup of
30
#LYRIC The Cup of Life
30
#LYRIC
0
#LYRIC ¡A
1,
#LYRIC ¡Ale
20
#LYRIC ¡Ale A
10
#LYRIC ¡Ale Ale
20
#LYRIC ¡Ale Ale A
2
#LYRIC ¡Ale Ale Ale!
22000
#LYRIC
0000,
#LYRIC ¡Uno,
3000
#LYRIC ¡Uno, dos,
3000
#LYRIC ¡Uno, dos, tres!
30000
#LYRIC
0
#LYRIC ¡O
22,
#LYRIC ¡Ole
2
#LYRIC ¡Ole O
1
#LYRIC ¡Ole Ole
2
#LYRIC ¡Ole Ole O
1
#LYRIC ¡Ole Ole Ole!
200
#LYRIC
1,
#LYRIC Un,
4000
#LYRIC Un, deux,
4000
#LYRIC Un, deux, trois!
40000
#LYRIC
0
#LYRIC ¡A
22,
#LYRIC ¡Ale
20
#LYRIC ¡Ale A
10
#LYRIC ¡Ale Ale
20
#LYRIC ¡Ale Ale A
1
#LYRIC ¡Ale Ale Ale!
20020
#LYRIC
20
#LYRIC ¡A
10,
#LYRIC ¡Arri
3000
#LYRIC ¡Arriba
3000
#LYRIC ¡Arriba va!
3000
#LYRIC
00
#LYRIC El mundo está de pie
11,
122220
#LYRIC
00,
#LYRIC GO!
30
#LYRIC GO! GO!
30
#LYRIC GO! GO! GO!
30
#LYRIC
0
#LYRIC ¡A
1,
#LYRIC ¡Ale
20
#LYRIC ¡Ale A
22
#LYRIC ¡Ale Ale
02
#LYRIC ¡Ale Ale A
2
#LYRIC ¡Ale Ale Ale!
00020
#LYRIC
2000,
#GOGOEND
1101101022022020,
1101101022022020,
1101101022022020,
11011010202020
#LYRIC ¡A
22,
#LYRIC ¡Ale
2
#LYRIC ¡Ale A
1
#LYRIC ¡Ale Ale!
1
#LYRIC (¡A
2
#LYRIC (¡Ale
2
#LYRIC (¡Ale A
2
#LYRIC (¡Ale Ale!)
2
#LYRIC ¡A
1,
#LYRIC ¡Ale
2
#LYRIC ¡Ale A
1
#LYRIC ¡Ale Ale!
2
#LYRIC (¡A
1
#LYRIC (¡Ale
2
#LYRIC (¡Ale A
2
#LYRIC (¡Ale Ale!)
2
#LYRIC ¡A
2,
#LYRIC ¡Ale
1
#LYRIC ¡Ale A
1
#LYRIC ¡Ale Ale!
2
#LYRIC (¡A
1
#LYRIC (¡Ale
2
#LYRIC (¡Ale A
1
#LYRIC (¡Ale Ale!)
2
#LYRIC ¡A
1,
#LYRIC ¡Ale
1
#LYRIC ¡Ale A
1
#LYRIC ¡Ale Ale
2
#LYRIC ¡Ale Ale A
1
#LYRIC ¡Ale Ale Ale!
70
#LYRIC
8
#LYRIC ¡A
0,
#LYRIC ¡Ale
20
#LYRIC ¡Ale A
12
#LYRIC ¡Ale Ale!
00
#LYRIC (¡A
10
#LYRIC (¡Ale
10
#LYRIC (¡Ale A
12
#LYRIC (¡Ale Ale!)
00
#LYRIC ¡A
10,
#LYRIC ¡Ale
1
#LYRIC ¡Ale A
1
#LYRIC ¡Ale Ale!
2
#LYRIC (¡A
1
#LYRIC (¡Ale
2
#LYRIC (¡Ale A
1
#LYRIC (¡Ale Ale!)
2
#LYRIC ¡A
2,
#LYRIC ¡Ale
10
#LYRIC ¡Ale A
12
#LYRIC ¡Ale Ale!
00
#LYRIC (¡A
20
#LYRIC (¡Ale
10
#LYRIC (¡Ale A
12
#LYRIC (¡Ale Ale!)
00
#LYRIC ¡A
20,
#LYRIC ¡Ale
10
#LYRIC ¡Ale A
10
#LYRIC ¡Ale Ale
10
#LYRIC ¡Ale Ale A
10
#LYRIC ¡Ale Ale Ale!
1
#LYRIC ¡¡Ale Ale Ale!!
1
#LYRIC ¡¡¡Ale Ale Ale!!!
1
#LYRIC ¡¡¡¡Ale Ale Ale!!!!
1
#LYRIC ¡¡¡¡¡Ale Ale Ale!!!!!
10
#LYRIC ¡¡¡¡¡¡Ale Ale Ale!!!!!!
00,
#GOGOSTART
#LYRIC (YEAH!)
30011010
#LYRIC
22022020,
10
#LYRIC Do you really want it?
11102022200010,
#GOGOEND
#LYRIC
0
#LYRIC (YEAH!)
0000000
#LYRIC (YEAH!) (yeah!)
00000000,
#LYRIC
0,
#END
COURSE:Normal
LEVEL:3
BALLOON:9,6,3,3,3
SCOREINIT:320
SCOREDIFF:82
#START
,
00000
#LYRIC Do you really want it?
000,
#GOGOSTART
20020020
#LYRIC (YEAH)
02
#LYRIC (YEAH) Do you really want it?
0020
#LYRIC Do you really want it?
00,
20020020
#LYRIC (YEAH)
02
#LYRIC (YEAH) Do you really want it?
0020
#LYRIC Do you really want it?
00,
7000
#LYRIC (YEAH)
0008,
#GOGOEND
#LYRIC
0002002000020020,
0002002000020020,
10112022,
10112022,
#LYRIC GO!
300
#LYRIC
0
#LYRIC GO!!
300
#LYRIC
0
#LYRIC GO!!!
30000
#LYRIC
000,
#LYRIC (GO!)
400
#LYRIC
0
#LYRIC (GO!!)
400
#LYRIC
0
#LYRIC (GO!!!)
4000
#LYRIC
00
#LYRIC ¡A
00,
#LYRIC ¡Ale
10
#LYRIC ¡Ale A
00
#LYRIC ¡Ale Ale
10
#LYRIC ¡Ale Ale A
00
#LYRIC ¡Ale Ale Ale!
10000
#LYRIC
0
#LYRIC (¡A
00,
#LYRIC (¡Ale
20
#LYRIC (¡Ale A
00
#LYRIC (¡Ale Ale
20
#LYRIC (¡Ale Ale A
00
#LYRIC (¡Ale Ale Ale!)
20000
#LYRIC
000,
#LYRIC GO!
3
#LYRIC
0
#LYRIC (GO!)
4
#LYRIC
0,
#LYRIC GO!!
3
#LYRIC
0
#LYRIC (GO!!)
4
#LYRIC
0,
#LYRIC GO!
3
#LYRIC (GO!)
4
#LYRIC GO!!
3
#LYRIC (GO!!)
4,
#LYRIC HERE
30000000
#LYRIC HERE WE
30000000
#LYRIC HERE WE GO
300
#LYRIC HERE WE GO!
000
#LYRIC HERE WE GO!!
000
#LYRIC HERE WE GO!! (YEAH!)
0000000,
#LYRIC
20202001,
2220,
20202001,
1020000200000000,
20202001,
2220,
20202001,
2020000200000000,
#LYRIC
0
#LYRIC The Cup of Life
11120
#LYRIC
0
#LYRIC This is the one
1,
010100
#LYRIC
00,
0
#LYRIC Now is the time
20120
#LYRIC
0
#LYRIC Don't ever stop
1,
0202
#LYRIC
0000,
00
#LYRIC Push it along
0200001002
#LYRIC
00
#LYRIC Gotta be strong
10,
00002020000
#LYRIC
00000,
00
#LYRIC Push it along
1020001002
#LYRIC
00
#LYRIC Right
20,
0
#LYRIC Right to
1
#LYRIC Right to the
0
#LYRIC Right to the top
1
#LYRIC
0
#LYRIC Como Caín y Abel
220,
200200100
#LYRIC
0
#LYRIC Es un partido cruel
101010,
10010020000
#LYRIC
0
#LYRIC
0000,
#LYRIC Tienes que pelear,
10010000200
#LYRIC Tienes que pelear, por una estrella
01000,
2000
#LYRIC
0
#LYRIC Consigue
110,
#LYRIC Consigue con
300
#LYRIC Consigue con ho
300
#LYRIC Consigue con honor
3000
#LYRIC La copa
101000,
#LYRIC La copa del
300
#LYRIC La copa del a
300
#LYRIC La copa del amor
3000
#LYRIC
00000
#LYRIC Para sobrevivir y luchar por ella
0,
10222010,
5000800
#LYRIC
000
#LYRIC ¡Luchar por ella!
101000,
#GOGOSTART
508
#LYRIC
0
#LYRIC (YEAH!)
2
#LYRIC (YEAH!) Do you really want it?
0
#LYRIC Do you really want it?
10,
7000
#GOGOEND
#LYRIC (YEAH!)
800
#LYRIC
0,
#GOGOSTART
#LYRIC Here
30
#LYRIC Here we
30
#LYRIC Here we go
30
#LYRIC
0
#LYRIC ¡A
0,
#LYRIC ¡Ale
2
#LYRIC ¡Ale A
0
#LYRIC ¡Ale Ale
2
#LYRIC ¡Ale Ale A
0
#LYRIC ¡Ale Ale Ale!
20
#LYRIC
00,
#LYRIC GO!
300
#LYRIC
0
#LYRIC GO!!
300
#LYRIC
0
#LYRIC GO!!!
3000
#LYRIC
00
#LYRIC ¡A
00,
#LYRIC ¡Ale
10
#LYRIC ¡Ale A
00
#LYRIC ¡Ale Ale
10
#LYRIC ¡Ale Ale A
0
#LYRIC ¡Ale Ale Ale!
10000
#LYRIC
00
#LYRIC ¡A
00,
#LYRIC ¡Arri
40
#LYRIC ¡Arriba
40
#LYRIC ¡Arriba va!
40
#LYRIC
0
#LYRIC El mundo está de pie
1,
122
#LYRIC
0,
#LYRIC GO!
30
#LYRIC GO! GO!
30
#LYRIC GO! GO! GO!
30
#LYRIC
0
#LYRIC ¡A
0,
#LYRIC ¡Ale
10
#LYRIC ¡Ale A
00
#LYRIC ¡Ale Ale
10
#LYRIC ¡Ale Ale A
0
#LYRIC ¡Ale Ale Ale!
10000
#LYRIC
0000,
#GOGOEND
20202001,
2220,
20202001,
2000020700008000,
100
#LYRIC La vida es
02000100000
#LYRIC La vida es competición
10,
0112000
#LYRIC
0,
0
#LYRIC Hay que soñar
10210
#LYRIC
0
#LYRIC Ser campeón
1,
00101020000
#LYRIC
00000,
00
#LYRIC La copa es
020020000200
#LYRIC La copa es la bendición
20,
0112000
#LYRIC
0,
00
#LYRIC La ganarás
202020200
#LYRIC
200
#LYRIC Go
10,
0
#LYRIC
0
#LYRIC Go
100
#LYRIC
0
#LYRIC Go
1000
#LYRIC And when you feel the heat
002000,
1001001000
#LYRIC The world is at your feet
001000,
2002002000
#LYRIC
40400
#LYRIC No one can hold you down
0,
2000100100
#LYRIC If you really want it
000200,
5080
#LYRIC
0
#LYRIC Just steal your
020,
#LYRIC Just steal your des
300
#LYRIC Just steal your desti
300
#LYRIC Just steal your destiny
300
#LYRIC
0
#LYRIC Right from the
101000,
#LYRIC Right from the hands
300
#LYRIC Right from the hands of
300
#LYRIC Right from the hands of fate
3000
#LYRIC
40400
#LYRIC Reach for The Cup of Life
0,
1000100100
#LYRIC 'Cause your name is on it
002000,
5080
#LYRIC
0
#LYRIC Do you really want it?
120,
#GOGOSTART
20020020
#LYRIC (YEAH!)
00
#LYRIC (YEAH!) Do you really want it?
1020
#LYRIC Do you really want it?
00,
20020020
#GOGOEND
#LYRIC (YEAH!)
70008000,
#LYRIC
3000101020020030,
3001004040000030,
3000200202002020,
#GOGOSTART
#LYRIC Here
30
#LYRIC Here we
30
#LYRIC Here we go
30
#LYRIC
0
#LYRIC ¡A
0,
#LYRIC ¡Ale
2
#LYRIC ¡Ale A
0
#LYRIC ¡Ale Ale
2
#LYRIC ¡Ale Ale A
0
#LYRIC ¡Ale Ale Ale!
20
#LYRIC
00,
#LYRIC GO!
300
#LYRIC
0
#LYRIC GO!!
300
#LYRIC
0
#LYRIC GO!!!
3000
#LYRIC
00
#LYRIC ¡A
00,
#LYRIC ¡Ale
20
#LYRIC ¡Ale A
00
#LYRIC ¡Ale Ale
20
#LYRIC ¡Ale Ale A
0
#LYRIC ¡Ale Ale Ale!
20000
#LYRIC
00
#LYRIC To
10,
#LYRIC Tonight's
40
#LYRIC Tonight's the
40
#LYRIC Tonight's the night
40
#LYRIC
0
#LYRIC We're gonna celebrate
1,
221020
#LYRIC
0
#LYRIC The
0,
#LYRIC The Cup
30
#LYRIC The Cup of
30
#LYRIC The Cup of Life
30
#LYRIC
0
#LYRIC ¡A
0,
#LYRIC ¡Ale
20
#LYRIC ¡Ale A
00
#LYRIC ¡Ale Ale
20
#LYRIC ¡Ale Ale A
0
#LYRIC ¡Ale Ale Ale!
20000
#LYRIC
0000,
#LYRIC ¡Uno,
3000
#LYRIC ¡Uno, dos,
3000
#LYRIC ¡Uno, dos, tres!
30000
#LYRIC
0
#LYRIC ¡O
00,
#LYRIC ¡Ole
2
#LYRIC ¡Ole O
0
#LYRIC ¡Ole Ole
2
#LYRIC ¡Ole Ole O
0
#LYRIC ¡Ole Ole Ole!
200
#LYRIC
0,
#LYRIC Un,
3000
#LYRIC Un, deux,
3000
#LYRIC Un, deux, trois!
30000
#LYRIC
0
#LYRIC ¡A
00,
#LYRIC ¡Ale
20
#LYRIC ¡Ale A
00
#LYRIC ¡Ale Ale
20
#LYRIC ¡Ale Ale A
0
#LYRIC ¡Ale Ale Ale!
20000
#LYRIC
00
#LYRIC ¡A
10,
#LYRIC ¡Arri
30
#LYRIC ¡Arriba
30
#LYRIC ¡Arriba va!
30
#LYRIC
0
#LYRIC El mundo está de pie
1,
111120
#LYRIC
00,
#LYRIC GO!
30
#LYRIC GO! GO!
30
#LYRIC GO! GO! GO!
30
#LYRIC
0
#LYRIC ¡A
0,
#LYRIC ¡Ale
20
#LYRIC ¡Ale A
00
#LYRIC ¡Ale Ale
20
#LYRIC ¡Ale Ale A
0
#LYRIC ¡Ale Ale Ale!
20000
#LYRIC
0000,
#GOGOEND
10112022,
10112022,
10112022,
1011222
#LYRIC ¡A
0,
#LYRIC ¡Ale
2
#LYRIC ¡Ale A
0
#LYRIC ¡Ale Ale!
2
#LYRIC (¡A
1
#LYRIC (¡Ale
2
#LYRIC (¡Ale A
0
#LYRIC (¡Ale Ale!)
2
#LYRIC ¡A
1,
#LYRIC ¡Ale
2
#LYRIC ¡Ale A
0
#LYRIC ¡Ale Ale!
2
#LYRIC (¡A
1
#LYRIC (¡Ale
2
#LYRIC (¡Ale A
0
#LYRIC (¡Ale Ale!)
2
#LYRIC ¡A
0,
#LYRIC ¡Ale
1
#LYRIC ¡Ale A
0
#LYRIC ¡Ale Ale!
2
#LYRIC (¡A
1
#LYRIC (¡Ale
2
#LYRIC (¡Ale A
1
#LYRIC (¡Ale Ale!)
2
#LYRIC ¡A
0,
#LYRIC ¡Ale
1
#LYRIC ¡Ale A
0
#LYRIC ¡Ale Ale
2
#LYRIC ¡Ale Ale A
0
#LYRIC ¡Ale Ale Ale!
70
#LYRIC
8
#LYRIC ¡A
0,
#LYRIC ¡Ale
20
#LYRIC ¡Ale A
02
#LYRIC ¡Ale Ale!
00
#LYRIC (¡A
00
#LYRIC (¡Ale
10
#LYRIC (¡Ale A
02
#LYRIC (¡Ale Ale!)
00
#LYRIC ¡A
20,
#LYRIC ¡Ale
1
#LYRIC ¡Ale A
0
#LYRIC ¡Ale Ale!
2
#LYRIC (¡A
0
#LYRIC (¡Ale
1
#LYRIC (¡Ale A
0
#LYRIC (¡Ale Ale!)
2
#LYRIC ¡A
0,
#LYRIC ¡Ale
10
#LYRIC ¡Ale A
02
#LYRIC ¡Ale Ale!
00
#LYRIC (¡A
20
#LYRIC (¡Ale
10
#LYRIC (¡Ale A
02
#LYRIC (¡Ale Ale!)
00
#LYRIC ¡A
20,
#LYRIC ¡Ale
10
#LYRIC ¡Ale A
00
#LYRIC ¡Ale Ale
10
#LYRIC ¡Ale Ale A
10
#LYRIC ¡Ale Ale Ale!
1
#LYRIC ¡¡Ale Ale Ale!!
0
#LYRIC ¡¡¡Ale Ale Ale!!!
1
#LYRIC ¡¡¡¡Ale Ale Ale!!!!
0
#LYRIC ¡¡¡¡¡Ale Ale Ale!!!!!
10
#LYRIC ¡¡¡¡¡¡Ale Ale Ale!!!!!!
00,
#GOGOSTART
#LYRIC (YEAH!)
3011
#LYRIC
2022,
10
#LYRIC Do you really want it?
00200202000010,
#GOGOEND
#LYRIC
0
#LYRIC (YEAH!)
0000000
#LYRIC (YEAH!) (yeah!)
00000000,
#LYRIC
0,
#END
COURSE:Easy
LEVEL:2
BALLOON:7,4,3,1
SCOREINIT:390
SCOREDIFF:98
#START
,
00000
#LYRIC Do you really want it?
000,
#GOGOSTART
4000
#LYRIC (YEAH)
3
#LYRIC (YEAH) Do you really want it?
00
#LYRIC Do you really want it?
0,
4000
#LYRIC (YEAH)
3
#LYRIC (YEAH) Do you really want it?
00
#LYRIC Do you really want it?
0,
9
#LYRIC (YEAH)
0,
#GOGOEND
#LYRIC
8,
,
12,
12,
#LYRIC GO!
300
#LYRIC
0
#LYRIC GO!!
000
#LYRIC
0
#LYRIC GO!!!
30000
#LYRIC
000,
#LYRIC (GO!)
400
#LYRIC
0
#LYRIC (GO!!)
000
#LYRIC
0
#LYRIC (GO!!!)
4000
#LYRIC
00
#LYRIC ¡A
00,
#LYRIC ¡Ale
10
#LYRIC ¡Ale A
00
#LYRIC ¡Ale Ale
00
#LYRIC ¡Ale Ale A
00
#LYRIC ¡Ale Ale Ale!
10000
#LYRIC
0
#LYRIC (¡A
00,
#LYRIC (¡Ale
20
#LYRIC (¡Ale A
00
#LYRIC (¡Ale Ale
00
#LYRIC (¡Ale Ale A
00
#LYRIC (¡Ale Ale Ale!)
20000
#LYRIC
000,
#LYRIC GO!
3
#LYRIC
0
#LYRIC (GO!)
4
#LYRIC
0,
#LYRIC GO!!
3
#LYRIC
0
#LYRIC (GO!!)
4
#LYRIC
0,
#LYRIC GO!
3
#LYRIC (GO!)
0
#LYRIC GO!!
3
#LYRIC (GO!!)
0,
#LYRIC HERE
00000000
#LYRIC HERE WE
00000000
#LYRIC HERE WE GO
300
#LYRIC HERE WE GO!
000
#LYRIC HERE WE GO!!
000
#LYRIC HERE WE GO!! (YEAH!)
0000000,
#LYRIC
22,
2220,
22,
0000000200000000,
22,
2220,
22,
0000000200000000,
#LYRIC
1
#LYRIC The Cup of Life
00020
#LYRIC
0
#LYRIC This is the one
1,
000100
#LYRIC
00,
0
#LYRIC Now is the time
10010
#LYRIC
0
#LYRIC Don't ever stop
0,
0202
#LYRIC
0000,
1
#LYRIC Push it along
00010
#LYRIC
0
#LYRIC Gotta be strong
1,
00000020000
#LYRIC
00000,
1
#LYRIC Push it along
00010
#LYRIC
0
#LYRIC Right
2,
0
#LYRIC Right to
0
#LYRIC Right to the
0
#LYRIC Right to the top
1
#LYRIC
0
#LYRIC Como Caín y Abel
000,
100000100
#LYRIC
0
#LYRIC Es un partido cruel
000000,
10000020000
#LYRIC
0
#LYRIC
0000,
#LYRIC Tienes que pelear,
00000000100
#LYRIC Tienes que pelear, por una estrella
00000,
2000
#LYRIC
0
#LYRIC Consigue
000,
#LYRIC Consigue con
300
#LYRIC Consigue con ho
000
#LYRIC Consigue con honor
3000
#LYRIC La copa
000000,
#LYRIC La copa del
300
#LYRIC La copa del a
000
#LYRIC La copa del amor
3000
#LYRIC
00000
#LYRIC Para sobrevivir y luchar por ella
0,
12,
5000800
#LYRIC
000
#LYRIC ¡Luchar por ella!
001000,
#GOGOSTART
508
#LYRIC
0
#LYRIC (YEAH!)
0
#LYRIC (YEAH!) Do you really want it?
0
#LYRIC Do you really want it?
00,
7000
#GOGOEND
#LYRIC (YEAH!)
800
#LYRIC
0,
#GOGOSTART
#LYRIC Here
30
#LYRIC Here we
00
#LYRIC Here we go
30
#LYRIC
0
#LYRIC ¡A
0,
#LYRIC ¡Ale
4
#LYRIC ¡Ale A
0
#LYRIC ¡Ale Ale
0
#LYRIC ¡Ale Ale A
0
#LYRIC ¡Ale Ale Ale!
40
#LYRIC
00,
#LYRIC GO!
300
#LYRIC
0
#LYRIC GO!!
000
#LYRIC
0
#LYRIC GO!!!
3000
#LYRIC
00
#LYRIC ¡A
00,
#LYRIC ¡Ale
10
#LYRIC ¡Ale A
00
#LYRIC ¡Ale Ale
00
#LYRIC ¡Ale Ale A
0
#LYRIC ¡Ale Ale Ale!
00000
#LYRIC
00
#LYRIC ¡A
00,
#LYRIC ¡Arri
40
#LYRIC ¡Arriba
00
#LYRIC ¡Arriba va!
40
#LYRIC
0
#LYRIC El mundo está de pie
0,
102
#LYRIC
0,
#LYRIC GO!
30
#LYRIC GO! GO!
00
#LYRIC GO! GO! GO!
30
#LYRIC
0
#LYRIC ¡A
0,
#LYRIC ¡Ale
10
#LYRIC ¡Ale A
00
#LYRIC ¡Ale Ale
00
#LYRIC ¡Ale Ale A
0
#LYRIC ¡Ale Ale Ale!
10000
#LYRIC
0000,
#GOGOEND
22,
2220,
22,
0000000700008000,
000
#LYRIC La vida es
02000000000
#LYRIC La vida es competición
10,
0002000
#LYRIC
0,
0
#LYRIC Hay que soñar
10010
#LYRIC
0
#LYRIC Ser campeón
2,
00000010000
#LYRIC
00000,
1
#LYRIC La copa es
000100
#LYRIC La copa es la bendición
2,
0002000
#LYRIC
0,
00
#LYRIC La ganarás
100000100
#LYRIC
000
#LYRIC Go
10,
0
#LYRIC
0
#LYRIC Go
000
#LYRIC
0
#LYRIC Go
1000
#LYRIC And when you feel the heat
002000,
10010
#LYRIC The world is at your feet
010,
2000002000
#LYRIC
00000
#LYRIC No one can hold you down
0,
0000000100
#LYRIC If you really want it
001000,
5080
#LYRIC
0
#LYRIC Just steal your
000,
#LYRIC Just steal your des
300
#LYRIC Just steal your desti
000
#LYRIC Just steal your destiny
300
#LYRIC
0
#LYRIC Right from the
000000,
#LYRIC Right from the hands
300
#LYRIC Right from the hands of
000
#LYRIC Right from the hands of fate
3000
#LYRIC
00000
#LYRIC Reach for The Cup of Life
0,
1000000100
#LYRIC 'Cause your name is on it
000000,
5080
#LYRIC
0
#LYRIC Do you really want it?
000,
#GOGOSTART
4000
#LYRIC (YEAH!)
3
#LYRIC (YEAH!) Do you really want it?
00
#LYRIC Do you really want it?
0,
40
#GOGOEND
#LYRIC (YEAH!)
78,
#LYRIC
3,
34,
3,
#GOGOSTART
#LYRIC Here
30
#LYRIC Here we
00
#LYRIC Here we go
30
#LYRIC
0
#LYRIC ¡A
0,
#LYRIC ¡Ale
2
#LYRIC ¡Ale A
0
#LYRIC ¡Ale Ale
0
#LYRIC ¡Ale Ale A
0
#LYRIC ¡Ale Ale Ale!
20
#LYRIC
00,
#LYRIC GO!
300
#LYRIC
0
#LYRIC GO!!
000
#LYRIC
0
#LYRIC GO!!!
3000
#LYRIC
00
#LYRIC ¡A
00,
#LYRIC ¡Ale
20
#LYRIC ¡Ale A
00
#LYRIC ¡Ale Ale
00
#LYRIC ¡Ale Ale A
0
#LYRIC ¡Ale Ale Ale!
20000
#LYRIC
00
#LYRIC To
00,
#LYRIC Tonight's
40
#LYRIC Tonight's the
00
#LYRIC Tonight's the night
40
#LYRIC
0
#LYRIC We're gonna celebrate
0,
200020
#LYRIC
0
#LYRIC The
0,
#LYRIC The Cup
30
#LYRIC The Cup of
30
#LYRIC The Cup of Life
30
#LYRIC
0
#LYRIC ¡A
0,
#LYRIC ¡Ale
20
#LYRIC ¡Ale A
00
#LYRIC ¡Ale Ale
00
#LYRIC ¡Ale Ale A
0
#LYRIC ¡Ale Ale Ale!
20000
#LYRIC
0000,
#LYRIC ¡Uno,
3000
#LYRIC ¡Uno, dos,
0000
#LYRIC ¡Uno, dos, tres!
30000
#LYRIC
0
#LYRIC ¡O
00,
#LYRIC ¡Ole
2
#LYRIC ¡Ole O
0
#LYRIC ¡Ole Ole
0
#LYRIC ¡Ole Ole O
0
#LYRIC ¡Ole Ole Ole!
200
#LYRIC
0,
#LYRIC Un,
3000
#LYRIC Un, deux,
0000
#LYRIC Un, deux, trois!
30000
#LYRIC
0
#LYRIC ¡A
00,
#LYRIC ¡Ale
20
#LYRIC ¡Ale A
00
#LYRIC ¡Ale Ale
00
#LYRIC ¡Ale Ale A
0
#LYRIC ¡Ale Ale Ale!
20000
#LYRIC
00
#LYRIC ¡A
00,
#LYRIC ¡Arri
30
#LYRIC ¡Arriba
00
#LYRIC ¡Arriba va!
30
#LYRIC
0
#LYRIC El mundo está de pie
0,
102
#LYRIC
0,
#LYRIC GO!
30
#LYRIC GO! GO!
00
#LYRIC GO! GO! GO!
30
#LYRIC
0
#LYRIC ¡A
0,
#LYRIC ¡Ale
20
#LYRIC ¡Ale A
00
#LYRIC ¡Ale Ale
00
#LYRIC ¡Ale Ale A
0
#LYRIC ¡Ale Ale Ale!
20000
#LYRIC
0000,
#GOGOEND
12,
12,
12,
1000200
#LYRIC ¡A
0,
#LYRIC ¡Ale
1
#LYRIC ¡Ale A
0
#LYRIC ¡Ale Ale!
1
#LYRIC (¡A
0
#LYRIC (¡Ale
2
#LYRIC (¡Ale A
0
#LYRIC (¡Ale Ale!)
2
#LYRIC ¡A
0,
#LYRIC ¡Ale
1
#LYRIC ¡Ale A
0
#LYRIC ¡Ale Ale!
1
#LYRIC (¡A
0
#LYRIC (¡Ale
2
#LYRIC (¡Ale A
0
#LYRIC (¡Ale Ale!)
2
#LYRIC ¡A
0,
#LYRIC ¡Ale
1
#LYRIC ¡Ale A
0
#LYRIC ¡Ale Ale!
1
#LYRIC (¡A
0
#LYRIC (¡Ale
2
#LYRIC (¡Ale A
0
#LYRIC (¡Ale Ale!)
2
#LYRIC ¡A
0,
#LYRIC ¡Ale
1
#LYRIC ¡Ale A
0
#LYRIC ¡Ale Ale
1
#LYRIC ¡Ale Ale A
0
#LYRIC ¡Ale Ale Ale!
00
#LYRIC
0
#LYRIC ¡A
0,
#LYRIC ¡Ale
1
#LYRIC ¡Ale A
0
#LYRIC ¡Ale Ale!
1
#LYRIC (¡A
0
#LYRIC (¡Ale
2
#LYRIC (¡Ale A
0
#LYRIC (¡Ale Ale!)
2
#LYRIC ¡A
0,
#LYRIC ¡Ale
1
#LYRIC ¡Ale A
0
#LYRIC ¡Ale Ale!
1
#LYRIC (¡A
0
#LYRIC (¡Ale
2
#LYRIC (¡Ale A
0
#LYRIC (¡Ale Ale!)
2
#LYRIC ¡A
0,
#LYRIC ¡Ale
1
#LYRIC ¡Ale A
0
#LYRIC ¡Ale Ale!
1
#LYRIC (¡A
0
#LYRIC (¡Ale
2
#LYRIC (¡Ale A
0
#LYRIC (¡Ale Ale!)
2
#LYRIC ¡A
0,
#LYRIC ¡Ale
10
#LYRIC ¡Ale A
00
#LYRIC ¡Ale Ale
10
#LYRIC ¡Ale Ale A
00
#LYRIC ¡Ale Ale Ale!
0
#LYRIC ¡¡Ale Ale Ale!!
0
#LYRIC ¡¡¡Ale Ale Ale!!!
0
#LYRIC ¡¡¡¡Ale Ale Ale!!!!
0
#LYRIC ¡¡¡¡¡Ale Ale Ale!!!!!
30
#LYRIC ¡¡¡¡¡¡Ale Ale Ale!!!!!!
00,
#GOGOSTART
#LYRIC (YEAH!)
3
#LYRIC
2,
0
#LYRIC Do you really want it?
1002000,
#GOGOEND
#LYRIC
0
#LYRIC (YEAH!)
0000000
#LYRIC (YEAH!) (yeah!)
00000000,
#LYRIC
0,
#END