248 lines
3.2 KiB
Plaintext
248 lines
3.2 KiB
Plaintext
TITLEJA:外伝?ラブandベリーセレクション
|
||
TITLEEN:Gaiden ? Love and Berry Selection
|
||
BPM:124
|
||
WAVE:prev.ogg
|
||
PREIMAGE:Gaiden! Love and Berry Selection!.png
|
||
DEMOSTART:0
|
||
SCOREMODE:2
|
||
COURSE:Dan
|
||
LEVEL:1
|
||
BPM:124
|
||
BALLOON:
|
||
EXAM1:g,95,100,m
|
||
EXAM2:a,90,100,m
|
||
|
||
DANTICK:5
|
||
DANTICKCOLOR:#107b5c
|
||
|
||
#START
|
||
#NEXTSONG ABC de 大丈夫!,オシャレ魔女 ラブ and ベリー 2005秋コレクション,,ABCD Everything's Okay! (Japanese).ogg,350,80,1,4
|
||
#BPMCHANGE 124
|
||
#MEASURE 4/4
|
||
#SCROLL 100
|
||
#BARLINEOFF
|
||
#DELAY 0.535
|
||
|
||
0,
|
||
,
|
||
#LYRIC ABCD イイかんじじゃない!
|
||
1000100010001001,
|
||
0010100100101010,
|
||
#LYRIC 123で ジャンプしよう
|
||
1111,
|
||
1010101100
|
||
#LYRIC
|
||
000000,
|
||
#LYRIC ABCD エブリバディ イッツ オールライト
|
||
1000100010001001,
|
||
00101001001010
|
||
#LYRIC
|
||
00,
|
||
#LYRIC 123で レッツゴー!
|
||
1111,
|
||
011000
|
||
#LYRIC
|
||
00,
|
||
0
|
||
#LYRIC こえも でないくらい
|
||
101,
|
||
1001,
|
||
10100011,
|
||
01000
|
||
#LYRIC
|
||
000,
|
||
0
|
||
#LYRIC むねに ささった おもい
|
||
101,
|
||
1001,
|
||
10010011,
|
||
00100
|
||
#LYRIC
|
||
00
|
||
#LYRIC わすれかけた あのひのこと
|
||
1,
|
||
10010010,
|
||
10010001,
|
||
10110110,
|
||
00000
|
||
#LYRIC
|
||
000,
|
||
#LYRIC ABCD イイかんじじゃない!
|
||
1000100010001001,
|
||
0010100100101010,
|
||
#LYRIC 123で ふみだそう
|
||
1111,
|
||
1010101100
|
||
#LYRIC
|
||
000000,
|
||
#LYRIC ABCD イケるさだいじょうぶ
|
||
1000100010001001,
|
||
0010101100101010,
|
||
#LYRIC 123で OK!
|
||
1111,
|
||
01100000,
|
||
#LYRIC
|
||
0,
|
||
,
|
||
,
|
||
,
|
||
,
|
||
,
|
||
#NEXTSONG まちでうわさの...,オシャレ魔女 ラブ and ベリー 2005秋コレクション,,Talk Of The Town... (Japanese).ogg,350,80,1,4
|
||
#BPMCHANGE 128
|
||
#MEASURE 4/4
|
||
#SCROLL 100
|
||
#BARLINEOFF
|
||
#DELAY 0.53
|
||
|
||
0,
|
||
,
|
||
0
|
||
#LYRIC まちでうわさの ラブとベリー
|
||
000000010000000,
|
||
#LYRIC ダンスとオシャレが だいすき
|
||
1010,
|
||
#LYRIC
|
||
1
|
||
#LYRIC いつもふたりは プリティー
|
||
0001000,
|
||
#LYRIC きょうもキメてる チビT
|
||
10000000100000
|
||
#LYRIC でも だいじなことは
|
||
11,
|
||
1000100110101010,
|
||
0
|
||
#LYRIC
|
||
0000000,
|
||
#LYRIC ミタメじゃなくて ナカミ
|
||
1000100110101010,
|
||
10100010000
|
||
#LYRIC
|
||
00000,
|
||
#LYRIC やさしくなくちゃ
|
||
1000100110101010,
|
||
0
|
||
#LYRIC
|
||
0000000,
|
||
#LYRIC オシャレしたって ダメ!ダメ!
|
||
1000100110101010,
|
||
1111
|
||
#LYRIC
|
||
0000,
|
||
0001,
|
||
0001,
|
||
0001,
|
||
0001,
|
||
#LYRIC ココロにひびく
|
||
1111,
|
||
101100
|
||
#LYRIC
|
||
00,
|
||
#LYRIC リズムがだいじ
|
||
1111,
|
||
101100
|
||
#LYRIC
|
||
00,
|
||
#LYRIC ココロにひびく
|
||
1111,
|
||
101100
|
||
#LYRIC
|
||
00,
|
||
#LYRIC コトバがだいじ
|
||
1111,
|
||
101100
|
||
#LYRIC
|
||
00,
|
||
0001,
|
||
0001,
|
||
0
|
||
#LYRIC まちでうわさの ラブとベリー
|
||
000000010000000,
|
||
#LYRIC きょうもふたりは ベリハッピー
|
||
1010,
|
||
#LYRIC あしたはふたりで おかいもの
|
||
100000001000000
|
||
#LYRIC しぶやのワンコが まっている
|
||
0,
|
||
1111101110111000,
|
||
#LYRIC
|
||
0,
|
||
,
|
||
,
|
||
,
|
||
#NEXTSONG こいのまほう,オシャレ魔女 ラブ and ベリー 2005秋コレクション,,Love Potion (Japanese).ogg,350,80,1,4
|
||
#BPMCHANGE 120
|
||
#MEASURE 4/4
|
||
#SCROLL 100
|
||
#BARLINEOFF
|
||
#DELAY 0.563
|
||
|
||
0,
|
||
,
|
||
#LYRIC こいのまほうが つかえたら
|
||
1000100110101010,
|
||
100010011010
|
||
#LYRIC
|
||
0000,
|
||
#LYRIC いいのにな
|
||
101010110000
|
||
#LYRIC
|
||
0000,
|
||
,
|
||
#LYRIC こいのまほう あなたに
|
||
10010010,
|
||
10010010,
|
||
11011
|
||
#LYRIC
|
||
000,
|
||
#LYRIC かけたいの
|
||
10010010100010
|
||
#LYRIC
|
||
00,
|
||
#LYRIC あなたにかけたまほう
|
||
1000100110101010,
|
||
110100
|
||
#LYRIC
|
||
0000000000,
|
||
#LYRIC ほんとにかかっているの
|
||
1000100110100010,
|
||
100100000000
|
||
#LYRIC
|
||
0000,
|
||
#LYRIC こんなにちかくで ふたり
|
||
1000100110101010,
|
||
110100
|
||
#LYRIC
|
||
0000000000,
|
||
#LYRIC てをつないでる
|
||
1000100110100010,
|
||
1
|
||
#LYRIC
|
||
0000000,
|
||
,
|
||
,
|
||
,
|
||
,
|
||
#LYRIC こいのまほうは いらないかも
|
||
1000100110101010,
|
||
100110011010
|
||
#LYRIC
|
||
0000,
|
||
#LYRIC じつりょくで しょうぶしよ!
|
||
1010101100000000,
|
||
1010101100
|
||
#LYRIC
|
||
000000,
|
||
#LYRIC ココロのライン いま
|
||
10110010,
|
||
10010010,
|
||
1001
|
||
#LYRIC
|
||
000000000000,
|
||
#LYRIC つながった!
|
||
10010010100010
|
||
#LYRIC
|
||
00,
|
||
,
|
||
,
|
||
#END |