677 lines
5.1 KiB
Plaintext
677 lines
5.1 KiB
Plaintext
// PeepoDrumKit 2025/05/13
|
|
TITLE:Ruby
|
|
SUBTITLE:--BilliumMoto
|
|
BPM:241
|
|
WAVE:Ruby.ogg
|
|
PREIMAGE:Ruby.png
|
|
OFFSET:-0.469
|
|
DEMOSTART:33.3321
|
|
MAKER:Ryuto Setsujin
|
|
|
|
COURSE:Oni
|
|
LEVEL:9.5
|
|
BALLOON:3,3,3,3
|
|
SCOREINIT:
|
|
SCOREDIFF:
|
|
|
|
#START
|
|
#BARLINEOFF
|
|
#SCROLL 0.5
|
|
0000000000001111,
|
|
#BARLINEON
|
|
2200,
|
|
20201200,
|
|
5810,
|
|
5810,
|
|
2200,
|
|
20201200,
|
|
10200012,
|
|
10112020,
|
|
1122,
|
|
10201200,
|
|
12,
|
|
12,
|
|
1122,
|
|
10201200,
|
|
10200021,
|
|
20121010,
|
|
11221020,
|
|
0212,
|
|
11221002,
|
|
100200100200100000101010,
|
|
11221020,
|
|
0212,
|
|
11221002,
|
|
100200100100102020100200,
|
|
11221010,
|
|
0222,
|
|
1010202020000022,
|
|
22201222,
|
|
21212011,
|
|
2020100020002220,
|
|
1022102210102020,
|
|
12221212,
|
|
#GOGOSTART
|
|
1120,
|
|
10102100,
|
|
1022,
|
|
1000202210201000,
|
|
1120,
|
|
10102100,
|
|
10200012,
|
|
10112020,
|
|
1120,
|
|
10102100,
|
|
100000222222,
|
|
100000202020100200100000,
|
|
1120,
|
|
10102100,
|
|
10200012,
|
|
10112020,
|
|
11120202,
|
|
12102022,
|
|
10120202,
|
|
12102012,
|
|
101010100200000200000200,
|
|
100200100000202020200200,
|
|
10120202,
|
|
1010222020102010,
|
|
10120202,
|
|
12102122,
|
|
10120202,
|
|
11202212,
|
|
102020200100000200000200,
|
|
100100200000101010200100,
|
|
10120202,
|
|
11221122,
|
|
#GOGOEND
|
|
10102012,
|
|
10102100,
|
|
70082000,
|
|
70082000,
|
|
10102210,
|
|
1000102210200000,
|
|
10200021,
|
|
20112020,
|
|
10102012,
|
|
10102100,
|
|
70082000,
|
|
70082000,
|
|
10102210,
|
|
1000102210200000,
|
|
10202122,
|
|
3000000030001111,
|
|
#GOGOSTART
|
|
10120122,
|
|
1120102220100020,
|
|
2020202220202220,
|
|
2022202012102020,
|
|
2000102000001120,
|
|
0022102010202020,
|
|
11221202,
|
|
1022102210202020,
|
|
1000102000221020,
|
|
0012101020200020,
|
|
0012111120101020,
|
|
1020202011202020,
|
|
2000102000102222,
|
|
2022101120002011,
|
|
22
|
|
#GOGOEND
|
|
100022,
|
|
10121010,
|
|
11221020,
|
|
0212,
|
|
11221002,
|
|
100200100200100000101010,
|
|
11221020,
|
|
0212,
|
|
11221002,
|
|
100200100100102020100200,
|
|
11221010,
|
|
0222,
|
|
1010202020000022,
|
|
22201222,
|
|
21212011,
|
|
2020100020002220,
|
|
1022102210102020,
|
|
12221212,
|
|
#GOGOSTART
|
|
1120,
|
|
10102100,
|
|
10201022,
|
|
10202210,
|
|
1120,
|
|
1000102210200000,
|
|
1000200000001122,
|
|
10112020,
|
|
10102012,
|
|
10102100,
|
|
10200022,
|
|
10200021,
|
|
1120,
|
|
10102100,
|
|
1000200000001122,
|
|
10112020,
|
|
11120202,
|
|
12102022,
|
|
10120202,
|
|
12102012,
|
|
101010100200000200000200,
|
|
100200100000202020200200,
|
|
10120202,
|
|
1010222020102010,
|
|
10120202,
|
|
1020100020112020,
|
|
10120202,
|
|
11202212,
|
|
102020200100000200000200,
|
|
100100200000101010200100,
|
|
10120202,
|
|
#GOGOEND
|
|
21112211,
|
|
2
|
|
#BARLINEOFF
|
|
000000000000000,
|
|
#END
|
|
|
|
COURSE:Hard
|
|
LEVEL:7
|
|
SCOREINIT:
|
|
SCOREDIFF:
|
|
|
|
#START
|
|
#BARLINEOFF
|
|
#SCROLL 0.5
|
|
0,
|
|
#BARLINEON
|
|
1100,
|
|
10100100,
|
|
58,
|
|
58,
|
|
1100,
|
|
10100100,
|
|
1202,
|
|
10121010,
|
|
1122,
|
|
10101100,
|
|
58,
|
|
58,
|
|
1122,
|
|
10101100,
|
|
1202,
|
|
10121010,
|
|
10111010,
|
|
0110,
|
|
10111010,
|
|
00101012,
|
|
10111010,
|
|
0110,
|
|
10111010,
|
|
00101012,
|
|
10111010,
|
|
0110,
|
|
10111010,
|
|
00101012,
|
|
10111010,
|
|
0111,
|
|
10101110,
|
|
1,
|
|
#GOGOSTART
|
|
1120,
|
|
1120,
|
|
1022,
|
|
20202220,
|
|
1120,
|
|
10102200,
|
|
10200022,
|
|
20222020,
|
|
1120,
|
|
1120,
|
|
1022,
|
|
20202220,
|
|
1120,
|
|
10102200,
|
|
10200022,
|
|
20222020,
|
|
10220202,
|
|
2220,
|
|
10220202,
|
|
22,
|
|
10220202,
|
|
2220,
|
|
10220202,
|
|
22,
|
|
10220202,
|
|
2220,
|
|
10220202,
|
|
22,
|
|
10220202,
|
|
2220,
|
|
10220202,
|
|
22,
|
|
#GOGOEND
|
|
1120,
|
|
10102200,
|
|
58,
|
|
58,
|
|
1120,
|
|
10102200,
|
|
1202,
|
|
12,
|
|
1120,
|
|
10102200,
|
|
58,
|
|
58,
|
|
1120,
|
|
10102200,
|
|
1202,
|
|
12,
|
|
#GOGOSTART
|
|
10020020,
|
|
20202202,
|
|
20202202,
|
|
20202220,
|
|
10020020,
|
|
00202220,
|
|
22202202,
|
|
22202220,
|
|
10020002,
|
|
02222002,
|
|
02222020,
|
|
22202220,
|
|
10020020,
|
|
22202000,
|
|
22
|
|
#GOGOEND
|
|
200022,
|
|
20222020,
|
|
10111010,
|
|
0110,
|
|
10111010,
|
|
00101012,
|
|
10111010,
|
|
0110,
|
|
10111010,
|
|
00101012,
|
|
10111010,
|
|
0110,
|
|
10111010,
|
|
00101012,
|
|
10111010,
|
|
0111,
|
|
10101110,
|
|
1,
|
|
#GOGOSTART
|
|
1120,
|
|
1120,
|
|
10200022,
|
|
2202,
|
|
1120,
|
|
10102200,
|
|
10200022,
|
|
20222020,
|
|
1120,
|
|
1120,
|
|
10200022,
|
|
20202220,
|
|
1120,
|
|
10102200,
|
|
10200022,
|
|
20222020,
|
|
10220202,
|
|
2220,
|
|
10220202,
|
|
22,
|
|
10220202,
|
|
2220,
|
|
10220202,
|
|
22,
|
|
10220202,
|
|
2220,
|
|
10220202,
|
|
22,
|
|
10220202,
|
|
2220,
|
|
10220202,
|
|
#GOGOEND
|
|
22,
|
|
4
|
|
#BARLINEOFF
|
|
000000000000000,
|
|
#END
|
|
|
|
COURSE:Normal
|
|
LEVEL:5
|
|
BALLOON:4,4
|
|
SCOREINIT:
|
|
SCOREDIFF:
|
|
|
|
#START
|
|
#BARLINEOFF
|
|
#SCROLL 0.5
|
|
0,
|
|
#BARLINEON
|
|
1100,
|
|
10100100,
|
|
58,
|
|
58,
|
|
1100,
|
|
10100100,
|
|
1001,
|
|
11,
|
|
1100,
|
|
10100100,
|
|
58,
|
|
58,
|
|
1100,
|
|
10100100,
|
|
1001,
|
|
11,
|
|
1011,
|
|
0110,
|
|
1011,
|
|
12,
|
|
1011,
|
|
0110,
|
|
1011,
|
|
12,
|
|
1011,
|
|
0110,
|
|
1011,
|
|
12,
|
|
1011,
|
|
11,
|
|
1,
|
|
78,
|
|
#GOGOSTART
|
|
1100,
|
|
10100100,
|
|
1,
|
|
1,
|
|
1100,
|
|
10100100,
|
|
1,
|
|
22,
|
|
1100,
|
|
10100100,
|
|
1,
|
|
1,
|
|
1100,
|
|
10100100,
|
|
1,
|
|
22,
|
|
10010100,
|
|
1,
|
|
10010100,
|
|
22,
|
|
10010100,
|
|
1,
|
|
10010100,
|
|
22,
|
|
10010100,
|
|
1,
|
|
10010100,
|
|
22,
|
|
10010100,
|
|
1,
|
|
10010000,
|
|
58,
|
|
#GOGOEND
|
|
1100,
|
|
10100100,
|
|
58,
|
|
58,
|
|
1100,
|
|
10100100,
|
|
1001,
|
|
11,
|
|
1100,
|
|
10100100,
|
|
58,
|
|
58,
|
|
1100,
|
|
10100100,
|
|
1001,
|
|
11,
|
|
#GOGOSTART
|
|
10020000,
|
|
1110,
|
|
12,
|
|
1110,
|
|
10020000,
|
|
1110,
|
|
12,
|
|
1110,
|
|
10020000,
|
|
1110,
|
|
12,
|
|
1110,
|
|
10020000,
|
|
1110,
|
|
1
|
|
#GOGOEND
|
|
001,
|
|
11,
|
|
1011,
|
|
0110,
|
|
1011,
|
|
12,
|
|
1011,
|
|
0110,
|
|
1011,
|
|
12,
|
|
1011,
|
|
0110,
|
|
1011,
|
|
12,
|
|
1011,
|
|
11,
|
|
1,
|
|
78,
|
|
#GOGOSTART
|
|
1100,
|
|
10100100,
|
|
1,
|
|
1,
|
|
1100,
|
|
10100100,
|
|
1,
|
|
22,
|
|
1100,
|
|
10100100,
|
|
1,
|
|
1,
|
|
1100,
|
|
10100100,
|
|
1,
|
|
22,
|
|
10010100,
|
|
1,
|
|
10010100,
|
|
22,
|
|
10010100,
|
|
1,
|
|
10010100,
|
|
22,
|
|
10010100,
|
|
1,
|
|
10010100,
|
|
22,
|
|
10010100,
|
|
1,
|
|
10010000,
|
|
#GOGOEND
|
|
58,
|
|
3
|
|
#BARLINEOFF
|
|
000000000000000,
|
|
#END
|
|
|
|
COURSE:Easy
|
|
LEVEL:1
|
|
BALLOON:2,2
|
|
SCOREINIT:
|
|
SCOREDIFF:
|
|
|
|
#START
|
|
#BARLINEOFF
|
|
#SCROLL 0.5
|
|
0,
|
|
#BARLINEON
|
|
1,
|
|
1,
|
|
5,
|
|
8,
|
|
1,
|
|
1,
|
|
5,
|
|
8,
|
|
1,
|
|
1,
|
|
5,
|
|
8,
|
|
1,
|
|
1,
|
|
5,
|
|
8,
|
|
1001,
|
|
01,
|
|
1,
|
|
2,
|
|
1001,
|
|
01,
|
|
1,
|
|
2,
|
|
1001,
|
|
01,
|
|
1,
|
|
2,
|
|
1001,
|
|
01,
|
|
1,
|
|
78,
|
|
#GOGOSTART
|
|
1,
|
|
1,
|
|
1,
|
|
,
|
|
1,
|
|
1,
|
|
1,
|
|
2,
|
|
1,
|
|
1,
|
|
1,
|
|
,
|
|
1,
|
|
1,
|
|
1,
|
|
2,
|
|
1,
|
|
01,
|
|
1,
|
|
1,
|
|
1,
|
|
01,
|
|
1,
|
|
1,
|
|
1,
|
|
01,
|
|
1,
|
|
1,
|
|
1,
|
|
01,
|
|
1,
|
|
1,
|
|
#GOGOEND
|
|
1,
|
|
1,
|
|
5,
|
|
8,
|
|
1,
|
|
1,
|
|
5,
|
|
8,
|
|
1,
|
|
1,
|
|
5,
|
|
8,
|
|
1,
|
|
1,
|
|
5,
|
|
8,
|
|
#GOGOSTART
|
|
1,
|
|
11,
|
|
1,
|
|
11,
|
|
1,
|
|
1,
|
|
11,
|
|
1,
|
|
1,
|
|
11,
|
|
1,
|
|
11,
|
|
1,
|
|
1,
|
|
1
|
|
#GOGOEND
|
|
000,
|
|
,
|
|
1001,
|
|
01,
|
|
1,
|
|
2,
|
|
1001,
|
|
01,
|
|
1,
|
|
2,
|
|
1001,
|
|
01,
|
|
1,
|
|
2,
|
|
1001,
|
|
01,
|
|
1,
|
|
78,
|
|
#GOGOSTART
|
|
1,
|
|
1,
|
|
1,
|
|
,
|
|
1,
|
|
1,
|
|
1,
|
|
2,
|
|
1,
|
|
1,
|
|
1,
|
|
,
|
|
1,
|
|
1,
|
|
1,
|
|
2,
|
|
1,
|
|
01,
|
|
1,
|
|
1,
|
|
1,
|
|
01,
|
|
1,
|
|
1,
|
|
1,
|
|
01,
|
|
1,
|
|
1,
|
|
1,
|
|
01,
|
|
1,
|
|
#GOGOEND
|
|
1,
|
|
0
|
|
#BARLINEOFF
|
|
000000000000000,
|
|
#END
|