Files
ryutos_custom_charts/01 Pop/hands/hands.tja
T

770 lines
8.5 KiB
Plaintext

// PeepoDrumKit 2023/10/28
TITLE:hands
TITLEJA:hands
SUBTITLE:--Koda Kumi
SUBTITLEJA:倖田來未
BPM:114.899
WAVE:hands.ogg
PREIMAGE:hands.png
OFFSET:-0.375
DEMOSTART:66.433
CATEGORY:1
SKIN:0
MAKER:Ryuto Setsujin
COURSE:Oni
LEVEL:6
BALLOON:10
SCOREINIT:
SCOREDIFF:
NOTESDESIGNER3:Ryuto Setsujin
#START
,
00000
#LYRIC 冷たく凍えそうなmy hands
111,
10110111,
010202
#LYRIC
0
#LYRIC こんなに想ってるのに...
1,
10110111,
1122
#LYRIC
0
#LYRIC 「本当は引き止めてほしい」
112,
10210112,
020101
#LYRIC
0
#LYRIC そう言いたかった...
1,
12210105,
00000
#LYRIC
000,
8000000020110110,
10112111,
01112010,
10112111,
01112111,
10112111,
01112010,
10112111,
01112121,
0020,
100
#LYRIC 君が残した全ては今も胸に
12111,
1001001020101010,
1010101020010010,
1001
#LYRIC
001021111111,
100000
#LYRIC 泣きたいくらい 君の笑顔つらいよ
1020111111,
1001001020101010,
1010101020111010,
10
#LYRIC
112
#LYRIC 雪の季節は終わったはずなのに
111,
1011010120101010,
101101102000
#LYRIC
00
#LYRIC かじかむ手が震える...
10,
11112111,
0110
#LYRIC
2
#LYRIC 繋いだ手を 何度だって繋ぎ直して
111,
#GOGOSTART
10112111,
01102101,
10112111,
1
#LYRIC 二人歩いていたはずだったね
1112112,
10112111,
010121
#LYRIC
0
#LYRIC 届かぬ想い
1,
11121101,
000
#LYRIC
00
#LYRIC 冷たく凍えそうなmy hands
111,
10112111,
011021
#LYRIC
0
#LYRIC こんなに想ってるのに...
1,
10112111,
1011
#LYRIC
2
#LYRIC 「ほんとは引き止めてほしい」
111,
10112101,
011021
#LYRIC
0
#LYRIC そう言いたかった...
0,
11121221,
000
#LYRIC
0,
0000
#GOGOEND
2
#LYRIC ギリギリの世界で僕ら生きてる
000,
10110111,
010101
#LYRIC
0
#LYRIC 誰もがそんな強くはない
1,
58110111,
1111
#LYRIC
0
#LYRIC けれど君に あたためてほしい
111,
10110111,
01058581,
41140119,
0000
#LYRIC
8
#LYRIC 冷たく凍えそうなmy hands
111,
#GOGOSTART
10112111,
011021
#LYRIC
0
#LYRIC こんなに想ってるのに
1,
11112111,
0110
#LYRIC
2
#LYRIC 「本当は引き止めてほしいの」
100,
10112111,
011021
#LYRIC
0
#LYRIC そう言いたかった...
0,
11120112,
0000
#GOGOEND
#LYRIC
100
#LYRIC 届かない my hands
1,
11120112,
000000000000000000000000000000000000000000000000000000000000000000000000000000000000010000
#LYRIC
000000000000000000000000000000000000100000000000000000000000000001000000000000000000000000,
1020,
#GOGOSTART
11210112,
01102000,
11210112,
01202000,
11210121,
01102000,
11210122,
01202122,
#GOGOEND
000101010101,
000000010000000000000000020000000000000000000000,
#BARLINEOFF
0,
,
,
#END
COURSE:Hard
LEVEL:4
BALLOON:10
SCOREINIT:
SCOREDIFF:
NOTESDESIGNER2:Ryuto Setsujin
#START
,
00000
#LYRIC 冷たく凍えそうなmy hands
111,
10110111,
010101
#LYRIC
0
#LYRIC こんなに想ってるのに...
1,
10110111,
1111
#LYRIC
0
#LYRIC 「本当は引き止めてほしい」
111,
10110111,
010101
#LYRIC
0
#LYRIC そう言いたかった...
1,
11110101,
00000
#LYRIC
000,
0020,
10110111,
00111010,
10110011,
10010110,
10110111,
00111010,
10010101,
02222222,
0020,
100
#LYRIC 君が残した全ては今も胸に
12000,
1001001020000000,
10012000,
1001
#LYRIC
001020000000,
100
#LYRIC 泣きたいくらい 君の笑顔つらいよ
12000,
1001001020000000,
10012000,
1001
#LYRIC
001020
#LYRIC 雪の季節は終わったはずなのに
000000,
10012000,
100100102000
#LYRIC
00
#LYRIC かじかむ手が震える...
00,
10012000,
10010010
#LYRIC
20
#LYRIC 繋いだ手を 何度だって繋ぎ直して
000000,
#GOGOSTART
10110111,
01010201,
10110111,
1
#LYRIC 二人歩いていたはずだったね
1220111,
10110111,
010102
#LYRIC
0
#LYRIC 届かぬ想い
1,
11110101,
000
#LYRIC
00
#LYRIC 冷たく凍えそうなmy hands
111,
10110111,
010102
#LYRIC
0
#LYRIC こんなに想ってるのに...
1,
10110111,
1111
#LYRIC
0
#LYRIC 「ほんとは引き止めてほしい」
111,
10110111,
010202
#LYRIC
0
#LYRIC そう言いたかった...
1,
11110202,
000
#LYRIC
0,
0000
#GOGOEND
2
#LYRIC ギリギリの世界で僕ら生きてる
000,
10110111,
010101
#LYRIC
0
#LYRIC 誰もがそんな強くはない
1,
10110111,
1111
#LYRIC
0
#LYRIC けれど君に あたためてほしい
111,
10110111,
01010101,
11110119,
0000
#LYRIC
8
#LYRIC 冷たく凍えそうなmy hands
111,
#GOGOSTART
10110111,
001102
#LYRIC
0
#LYRIC こんなに想ってるのに
1,
10110111,
1111
#LYRIC
0
#LYRIC 「本当は引き止めてほしいの」
111,
11110111,
010202
#LYRIC
0
#LYRIC そう言いたかった...
1,
11110202,
0000
#GOGOEND
#LYRIC
000
#LYRIC 届かない my hands
1,
10010101,
00
#LYRIC
00,
0020,
#GOGOSTART
10012001,
01102000,
1020,
10012000,
10012001,
01102000,
10002011,
00012000,
#GOGOEND
3,
,
#BARLINEOFF
0,
,
,
#END
COURSE:Normal
LEVEL:2
BALLOON:5
SCOREINIT:
SCOREDIFF:
NOTESDESIGNER1:Ryuto Setsujin
#START
,
00000
#LYRIC 冷たく凍えそうなmy hands
000,
10010001,
000000
#LYRIC
0
#LYRIC こんなに想ってるのに...
0,
10010000,
1001
#LYRIC
0
#LYRIC 「本当は引き止めてほしい」
000,
10010001,
000100
#LYRIC
0
#LYRIC そう言いたかった...
0,
10010001,
00000
#LYRIC
000,
0020,
10002001,
01102000,
10002001,
01102000,
10002001,
01102000,
10002011,
,
0020,
100
#LYRIC 君が残した全ては今も胸に
02000,
1120,
1020,
1
#LYRIC
120,
100
#LYRIC 泣きたいくらい 君の笑顔つらいよ
02000,
1120,
1020,
10
#LYRIC
102
#LYRIC 雪の季節は終わったはずなのに
000,
1020,
101020
#LYRIC
0
#LYRIC かじかむ手が震える...
0,
1020,
1010
#LYRIC
2
#LYRIC 繋いだ手を 何度だって繋ぎ直して
000,
#GOGOSTART
10110101,
00010100,
10110000,
1
#LYRIC 二人歩いていたはずだったね
0110000,
10110101,
010101
#LYRIC
0
#LYRIC 届かぬ想い
0,
10110101,
000
#LYRIC
00
#LYRIC 冷たく凍えそうなmy hands
101,
10110101,
010101
#LYRIC
0
#LYRIC こんなに想ってるのに...
0,
10110100,
1011
#LYRIC
0
#LYRIC 「ほんとは引き止めてほしい」
100,
10110101,
010101
#LYRIC
0
#LYRIC そう言いたかった...
0,
10110101,
000
#LYRIC
0,
0000
#GOGOEND
2
#LYRIC ギリギリの世界で僕ら生きてる
000,
10110111,
010101
#LYRIC
0
#LYRIC 誰もがそんな強くはない
0,
10110110,
1011
#LYRIC
0
#LYRIC けれど君に あたためてほしい
101,
10110111,
01010101,
10110109,
0000
#LYRIC
8
#LYRIC 冷たく凍えそうなmy hands
000,
#GOGOSTART
10110111,
010101
#LYRIC
0
#LYRIC こんなに想ってるのに
0,
10110110,
1011
#LYRIC
0
#LYRIC 「本当は引き止めてほしいの」
010,
10110111,
010101
#LYRIC
0
#LYRIC そう言いたかった...
0,
10110101,
0000
#GOGOEND
#LYRIC
000
#LYRIC 届かない my hands
0,
10110101,
00
#LYRIC
00,
0020,
#GOGOSTART
10002001,
01102000,
10002001,
01102000,
10002001,
01102000,
10002001,
01102000,
#GOGOEND
1,
,
#BARLINEOFF
0,
,
,
#END
COURSE:Easy
LEVEL:1
BALLOON:5
SCOREINIT:
SCOREDIFF:
NOTESDESIGNER0:Ryuto Setsujin
#START
,
00000
#LYRIC 冷たく凍えそうなmy hands
010,
1,
100000
#LYRIC
0
#LYRIC こんなに想ってるのに...
0,
1,
1000
#LYRIC
0
#LYRIC 「本当は引き止めてほしい」
010,
1,
100000
#LYRIC
0
#LYRIC そう言いたかった...
0,
1,
10000
#LYRIC
000,
0020,
10010001,
0010,
10010000,
1010,
10010001,
0010,
10010001,
,
0020,
100
#LYRIC 君が残した全ては今も胸に
01000,
1,
1010,
1
#LYRIC
000,
100
#LYRIC 泣きたいくらい 君の笑顔つらいよ
01000,
1,
1010,
10
#LYRIC
000
#LYRIC 雪の季節は終わったはずなのに
000,
1010,
100010
#LYRIC
0
#LYRIC かじかむ手が震える...
0,
1010,
1000
#LYRIC
2
#LYRIC 繋いだ手を 何度だって繋ぎ直して
000,
#GOGOSTART
10010001,
0010,
10010000,
1
#LYRIC 二人歩いていたはずだったね
0010000,
10010001,
000010
#LYRIC
0
#LYRIC 届かぬ想い
0,
10010001,
000
#LYRIC
00
#LYRIC 冷たく凍えそうなmy hands
000,
10010001,
000010
#LYRIC
0
#LYRIC こんなに想ってるのに...
0,
10010000,
1001
#LYRIC
0
#LYRIC 「ほんとは引き止めてほしい」
000,
10010001,
000010
#LYRIC
0
#LYRIC そう言いたかった...
0,
10010001,
000
#LYRIC
0,
0000
#GOGOEND
0
#LYRIC ギリギリの世界で僕ら生きてる
000,
1,
100000
#LYRIC
0
#LYRIC 誰もがそんな強くはない
0,
1,
1000
#LYRIC
0
#LYRIC けれど君に あたためてほしい
000,
1,
1,
10010009,
0000
#LYRIC
8
#LYRIC 冷たく凍えそうなmy hands
000,
#GOGOSTART
10010001,
000020
#LYRIC
0
#LYRIC こんなに想ってるのに
0,
10010000,
1001
#LYRIC
0
#LYRIC 「本当は引き止めてほしいの」
000,
10010001,
000020
#LYRIC
0
#LYRIC そう言いたかった...
0,
10010001,
0000
#GOGOEND
#LYRIC
000
#LYRIC 届かない my hands
0,
10010001,
00
#LYRIC
00,
0020,
#GOGOSTART
10010001,
0010,
10010000,
10010000,
10010001,
0010,
10010001,
,
#GOGOEND
1,
,
#BARLINEOFF
0,
,
,
#END