Files
2025-07-22 19:40:02 +01:00

1194 lines
12 KiB
Plaintext

// Tang Custom
TITLE:Jatetsu -Full Version-
TITLEJA:蛇鉄 -Full Version-
SUBTITLE:--Daisuke Kurosawa / BLACK ALBUM 5
SUBTITLEJA:黒沢ダイスケ / BLACK ALBUM 5
BPM:316
WAVE:Jatetsu -Full Version-.ogg
OFFSET:-0.344
DEMOSTART:59.964
PREIMAGE:image.png
COURSE:Oni
LEVEL:10
BALLOON:20,2,5,15,50,46,15,20,2,5,15
SCOREINIT:700
SCOREDIFF:0
#START
#MEASURE 8/4
#SCROLL 0.75
70000008,
70087008,
1111000000000000,
000000000000000000000000
000000000000200200000000
100000000000200000000000
200020002000100000000000,
1111000000000000,
200122100200100200222100,
1111200020111110,
2222201120201210, // 8
30230130,
23013010,
40403142,
300000400000300000400000
100100100100202020200200, // 12
3121112111211121,
1221122112211221,
1222122212221222,
1022202010101010
2020102010000000,
3121112111211121,
1221122112211221,
1222122212221222,
1121221121221122,
101010100100200200200200
500000000000000000800000, // 21
#NEWLINE
300000000000200000000200
101010100000200000300000,
#MEASURE 6/4
000000200000100000101010
200000200200,
#MEASURE 8/4
100000000000200000000200
101010100000200000400000,
#MEASURE 6/4
000000202020100000200200
100200100000,
#MEASURE 8/4
300000000000200000000200
101010100000200000300000,
#MEASURE 6/4
000000200000100000101010
200000200200,
#MEASURE 8/4
100000000000200000000200
101010100000200000400000,
#MEASURE 6/4
000000202020100000200200
100100100000, // 29
#MEASURE 8/4
300000000000200000100100
202020100000200000300000,
#MEASURE 6/4
000000200000100000102020
100000100100,
#MEASURE 8/4
100000000000200000100100
202020100000200000400000,
#MEASURE 6/4
000000202020100000200200
100200000000,
#MEASURE 8/4
300000000000200000100100
202020100000200000300000,
#MEASURE 6/4
000000200000100000102020
100000100100,
#MEASURE 8/4
100000000000200000100100
202020100000200000400000, // 36
#NEWLINE
30230130,
23013010,
40403142,
3040304011112222,
7008, // 41
#GOGOSTART
#NEWLINE
1110102020201010
2000101020201000,
2220201010102020
1000202010102000,
1110101020202020
1110101020202020,
1021021050000080,
100222100200212100100200,
1021022050801120,
101010100100200100200200
101010100100200100200200,
3000003000003000
4000222020201000, // 49
5000000080002020
2220101020201010,
2111221121112210,
2111201222102212,
2012005000000080,
2211221122122121,
2222111122112211,
2112112122122121,
2220102220102010
4000004000004000, // 57
#GOGOEND
7,
#SCROLL 0.5
,
08,
,
10010111,
20020022,
10101122,
02221012, // 65
30101122,
0000200020002222,
1000100020202220,
1020002000201012,
10101122,
00202122,
1000100020202220,
0022202010001020, // 73
30101122,
0022202010201020,
10102211,
0020102011101110,
30101122,
0022202000112020,
10102211,
0020102011101110, // 81
3000100011102020,
0012121010201020,
1000100022201010,
0021212010201110,
3000100011102020,
0012121010201020,
1000100022201010,
0021212011201120, // 89
50000008,
2222112211112211,
1011202210112022,
1111221110001010,
3000100011102020,
0012121010202210,
1111221122221122,
1111211121212010, // 97
#MEASURE 6/4
7,
#SCROLL 0.75
,
,
8, // 101
101101011010,
110101101111,
101101011010,
110101101222,
101102011020,
110201102112,
101102011020,
110201102112, // 109
102101021010,
210102101121,
102101021010,
210102101121,
#MEASURE 8/4
4001104001112211,
400000100100100000400000
101010100100100100100100, // 115
2,
#SCROLL 0.5
,
2,
,
22,
2002002020000000,
22,
2002002020000000, // 123
2002002000200020,
2002002020000000,
1001001000101010,
1001001000000000,
1000001120020020,
1001001010001010,
1000001120020020,
02220222, // 131
50000008,
2222112211112211,
1111221122111111,
7008, // 135
#SCROLL 0.75
2,
,
,
00000058,
3000000000000000
2200001000001000,
30220110,
3232,
300000000100000000100000
400100100100202020200200, // 143
#GOGOSTART
1121221121221122,
1122121122121122,
1121221121221122,
1122121122121122,
1111221122122121,
2222112211211212,
1112221122211122, // 150
#NEWLINE
1021112210211222,
1021112010211220,
1000201010102220
1000201010202000,
300111200300222100400000, // 154
#GOGOEND
70000008,
70087008,
1111222220111110,
#MEASURE 6/4
222220121210,
#MEASURE 14/4
202020200200100100100100200200100100100100
202020200200100100100100200200100100100100,
#MEASURE 8/4
50000008,
7008, // 161
#BPMCHANGE 158
#MEASURE 4/4
#SCROLL 0.5
3
#SCROLL 0.55
1
#SCROLL 0.62
2
#SCROLL 0.69
2,
#SCROLL 0.67
1
#SCROLL 0.64
1
#SCROLL 0.62
1
#SCROLL 0.63
2
#SCROLL 0.66
2
#SCROLL 0.72
2,
#SCROLL 0.7
#NEWLINE
1
#SCROLL 0.76
1
#SCROLL 0.83
1
#SCROLL 0.92
1
#SCROLL 0.87
2
#SCROLL 0.82
2
#SCROLL 0.79
22,
#BPMCHANGE 197.5
#MEASURE 5/4
#SCROLL 0.66
1
#SCROLL 0.71
1
#SCROLL 0.78
1
#SCROLL 0.86
1
#SCROLL 0.81
1
#SCROLL 0.76
2
#SCROLL 0.73
22
#SCROLL 0.76
2
#SCROLL 0.81
2,
#BPMCHANGE 158
#MEASURE 4/4
#SCROLL 0.98
#NEWLINE
1
#SCROLL 1.05
1
#SCROLL 1.14
1
#SCROLL 1.23
1
#SCROLL 1.18
1
#SCROLL 1.11
1
#SCROLL 1.06
2
#SCROLL 1.14
2
#SCROLL 1.24
2
#SCROLL 1.37
2
#SCROLL 1.28
2
#SCROLL 1.21
2,
#SCROLL 1.15
1
#SCROLL 1.24
1
#SCROLL 1.34
1
#SCROLL 1.47
1
#SCROLL 1.37
1
#SCROLL 1.29
1
#SCROLL 1.23
1
#SCROLL 1.32
1
#SCROLL 1.43
2
#SCROLL 1.57
2
#SCROLL 1.46
2
#SCROLL 1.37
2
#SCROLL 1.31
2
#SCROLL 1.4
2
#SCROLL 1.52
2
#SCROLL 1.63
2,
#BPMCHANGE 316
#MEASURE 8/4
#SCROLL 0.75
#NEWLINE
50000830, // 168
#GOGOSTART
#MEASURE 12/4
101010100010101010001010
101000101010100011101040,
#MEASURE 8/4
#BARLINEOFF
,
#GOGOEND
#BARLINEON
, // 171
#END
COURSE:Hard
LEVEL:8
BALLOON:11,11,7,15,37,34,11,11,11,11,27
SCOREINIT:1170
SCOREDIFF:0
#START
#MEASURE 8/4
#SCROLL 0.75
60000008,
7008,
1111000000000000,
00021122,
1111000000000000,
2011102010102020,
1111000010111010,
2022202010102020, // 8
30130130,
13013030,
40403344,
7008, // 12
1010111010201020,
1010111010201020,
1010111010201020,
1010111022202000,
1010111010201020,
1010111010201020,
1010111010201020,
1010111020202220,
5008, // 21
#NEWLINE
3000100011101030,
#MEASURE 6/4
000020222020,
#MEASURE 8/4
3000100011101060,
#MEASURE 6/4
008,
#MEASURE 8/4
3000100011101030,
#MEASURE 6/4
000020222020,
#MEASURE 8/4
3000100011101070,
#MEASURE 6/4
08, // 29
#MEASURE 8/4
3000100022202030,
#MEASURE 6/4
000010222020,
#MEASURE 8/4
3000100022202060,
#MEASURE 6/4
008,
#MEASURE 8/4
3000100022202030,
#MEASURE 6/4
000010222020,
#MEASURE 8/4
3000100022202000, // 36
#NEWLINE
30130130,
13013030,
40404444,
7,
8, // 41
#GOGOSTART
#NEWLINE
1011102010102000,
1011102010102000,
1110101022202020,
5008,
1011101020202020,
1011101020002020,
1010111010101110,
3003003040222020, // 49
4000001011101010,
2010111020101000,
1110102220201110,
5008,
1010111010201020,
1010111010201020,
1010111020202220,
1011111030030030, // 57
#GOGOEND
7,
#SCROLL 0.5
,
08,
,
10010111,
20020020,
10101122,
0222, // 65
30101122,
00202022,
10102222,
02020212,
10101122,
00202022,
10102222,
02202010, // 73
30101122,
02202220,
10102211,
02102121,
30101122,
02202220,
10102211,
02102211, // 81
30101122,
02202220,
10102211,
02101212,
30101122,
02202220,
10102211,
02102121, // 89
5008,
2220200011101000,
11102220,
11221000,
30101122,
02202220,
1110100011101000,
2220202020002020, // 97
#MEASURE 6/4
7,
#SCROLL 0.75
,
,
8, // 101
101101011010,
101,
101101011010,
102,
101101011010,
100000201110,
101101011010,
100000102220, // 109
101101011010,
100000201110,
101101011010,
100000102220,
#MEASURE 8/4
5008,
6008, // 115
4,
#SCROLL 0.5
,
2,
,
22,
2002002020000000,
22,
2002002020000000, // 123
2002002000200000,
2002002020000000,
1001001000100000,
1001001000000000,
1000001020020020,
1001001010000000,
1000001020020020,
0222, // 131
5008,
2220200022202000,
1110100011101010,
7008, // 135
#SCROLL 0.75
4,
,
,
,
3,
3,
33,
3003003030004000, // 143
#GOGOSTART
1010111020101110,
1010111020101110,
1010111020101110,
1010111020101000,
1010111010201020,
1010111010201020,
1010111020202220, // 150
#NEWLINE
1000201110002011,
11221212,
1000201110102020,
30330440, // 154
#GOGOEND
6008,
7008,
1111000010111010,
#MEASURE 6/4
202220102220,
#MEASURE 14/4
70000087000008,
#MEASURE 8/4
5,
8, // 161
#BPMCHANGE 158
#MEASURE 4/4
#SCROLL 0.5
1111,
#SCROLL 0.67
222200,
#SCROLL 0.7
#NEWLINE
11111110,
#BPMCHANGE 197.5
#MEASURE 5/4
#SCROLL 0.66
2222022220,
#BPMCHANGE 158
#MEASURE 4/4
#SCROLL 0.98
#NEWLINE
111100111100,
#SCROLL 1.15
2220222022202220,
#BPMCHANGE 316
#MEASURE 8/4
#SCROLL 0.75
#NEWLINE
5008, // 168
#GOGOSTART
#MEASURE 12/4
9,
#MEASURE 8/4
#BARLINEOFF
00090000,
#GOGOEND
#BARLINEON
8, // 171
#END
COURSE:Normal
LEVEL:7
BALLOON:6,6,4,9,22,20,6,6,6,6,20
SCOREINIT:1840
SCOREDIFF:0
#START
#MEASURE 8/4
#SCROLL 0.75
60000008,
7008,
11000000,
00022220,
11000000,
22221020,
11000000,
22022220, // 8
30030030,
03003030,
40404444,
7008, // 12
11111110,
22222220,
11111110,
22222020,
11111110,
22222220,
11111110,
20222022,
5008, // 21
#NEWLINE
30101013,
#MEASURE 6/4
012,
#MEASURE 8/4
30101016,
#MEASURE 6/4
008,
#MEASURE 8/4
30101013,
#MEASURE 6/4
011,
#MEASURE 8/4
30101017,
#MEASURE 6/4
08, // 29
#MEASURE 8/4
30102013,
#MEASURE 6/4
012,
#MEASURE 8/4
30102016,
#MEASURE 6/4
008,
#MEASURE 8/4
30102013,
#MEASURE 6/4
012,
#MEASURE 8/4
3121, // 36
#NEWLINE
30030030,
03003030,
40404444,
7,
8, // 41
#GOGOSTART
#NEWLINE
1001001010102000,
1001001010000000,
11102220,
5008,
11102020,
1001001010000000,
11221120,
3003003030003000, // 49
40001111,
20111110,
11102220,
5008,
11111120,
11111120,
11102220,
1010101030030030, // 57
#GOGOEND
7,
#SCROLL 0.5
,
08,
,
1011,
22,
1011,
0111, // 65
1111,
0220,
1122,
0222,
1111,
0220,
1122,
0111, // 73
1111,
0220,
1122,
0222,
1111,
0220,
1122,
0111, // 81
1111,
0220,
1122,
00111010,
1111,
0220,
1122,
00222020, // 89
5008,
22202020,
1122,
11101000,
1122,
0220,
11101010,
22202020, // 97
#MEASURE 6/4
7,
#SCROLL 0.75
,
,
8, // 101
101,
102,
101,
102,
112,
100110,
112,
100220, // 109
112,
100110,
112,
100220,
#MEASURE 8/4
5008,
6008, // 115
4,
#SCROLL 0.5
,
2,
,
22,
2002002020000000,
22,
2002002020000000, // 123
2002002000200000,
2002002020000000,
1001001000100000,
1001001000000000,
1022,
1001001010000000,
1022,
0222, // 131
5008,
22202020,
11101010,
7008, // 135
#SCROLL 0.75
4,
,
,
,
3,
3,
33,
3003003030000000, // 143
#GOGOSTART
11221120,
11221120,
11221120,
11221120,
10111120,
10111120,
11201120, // 150
#NEWLINE
10111011,
10220220,
10111020,
30030400, // 154
#GOGOEND
6008,
7008,
11000000,
#MEASURE 6/4
220220,
#MEASURE 14/4
70000087000008,
#MEASURE 8/4
5,
8, // 161
#BPMCHANGE 158
#MEASURE 4/4
#SCROLL 0.5
1111,
#SCROLL 0.67
22,
#SCROLL 0.7
#NEWLINE
1111,
#BPMCHANGE 197.5
#MEASURE 5/4
#SCROLL 0.66
22,
#BPMCHANGE 158
#MEASURE 4/4
#SCROLL 0.98
#NEWLINE
1111,
#SCROLL 1.15
22202220,
#BPMCHANGE 316
#MEASURE 8/4
#SCROLL 0.75
#NEWLINE
5008, // 168
#GOGOSTART
#MEASURE 12/4
9,
#MEASURE 8/4
#BARLINEOFF
00090000,
#GOGOEND
#BARLINEON
8, // 171
#END
COURSE:Easy
LEVEL:5
BALLOON:5,5,4,7,20,17,5,5,5,5,16
SCOREINIT:2480
SCOREDIFF:0
#START
#MEASURE 8/4
#SCROLL 0.75
60000008,
7008,
11000000,
0022,
11000000,
2222,
11000000,
1022, // 8
30030030,
03003030,
4444,
7008, // 12
11101010,
11101010,
11101010,
2220,
11101010,
11101010,
11101010,
2222,
5008, // 21
#NEWLINE
30101003,
#MEASURE 6/4
011,
#MEASURE 8/4
30101006,
#MEASURE 6/4
008,
#MEASURE 8/4
30101003,
#MEASURE 6/4
011,
#MEASURE 8/4
30101007,
#MEASURE 6/4
08, // 29
#MEASURE 8/4
30102003,
#MEASURE 6/4
012,
#MEASURE 8/4
30102006,
#MEASURE 6/4
008,
#MEASURE 8/4
30102003,
#MEASURE 6/4
012,
#MEASURE 8/4
3120, // 36
#NEWLINE
30030030,
03003030,
4444,
7,
8, // 41
#GOGOSTART
#NEWLINE
10111010,
10111000,
11101110,
5008,
1122,
10111000,
11101110,
3003003030000000, // 49
40001110,
10101110,
1122,
5008,
10111010,
10111010,
11101110,
1010100030030000, // 57
#GOGOEND
7,
#SCROLL 0.5
,
08,
,
11,
1,
11,
1011, // 65
11,
1011,
11,
2022,
11,
1011,
11,
2011, // 73
11,
1011,
11,
2022,
11,
1011,
11,
2011, // 81
11,
1011,
11,
2022,
11,
1011,
11,
2022, // 89
5008,
2220,
12,
1110,
11,
2022,
1110,
2220, // 97
#MEASURE 6/4
7,
#SCROLL 0.75
,
,
8, // 101
101,
1,
101,
1,
111,
101,
111,
102, // 109
111,
101,
111,
102,
#MEASURE 8/4
5008,
6008, // 115
4,
#SCROLL 0.5
,
2,
,
22,
2,
22,
2, // 123
22,
2,
11,
1,
12,
1,
11,
22, // 131
5008,
2220,
1110,
7008, // 135
#SCROLL 0.75
4,
,
,
,
3,
3,
33,
34, // 83
#GOGOSTART
11101110,
22202220,
11101110,
22202220,
10101110,
10101110,
2222, // 90
#NEWLINE
1011,
10111010,
11101010,
30030000, // 94
#GOGOEND
6008,
7008,
11000000,
#MEASURE 6/4
222,
#MEASURE 14/4
70000087000008,
#MEASURE 8/4
5,
8, // 101
#BPMCHANGE 158
#MEASURE 4/4
#SCROLL 0.5
1110,
#SCROLL 0.67
2,
#SCROLL 0.7
#NEWLINE
1110,
#BPMCHANGE 197.5
#MEASURE 5/4
#SCROLL 0.66
2,
#BPMCHANGE 158
#MEASURE 4/4
#SCROLL 0.98
#NEWLINE
1111,
#SCROLL 1.15
2222,
#BPMCHANGE 316
#MEASURE 8/4
#SCROLL 0.75
#NEWLINE
5008, // 108
#GOGOSTART
#MEASURE 12/4
9,
#MEASURE 8/4
#BARLINEOFF
00090000,
#GOGOEND
#BARLINEON
8, //111
#END