generated from DragonRatTiger/Custom-Charts
1207 lines
12 KiB
Plaintext
1207 lines
12 KiB
Plaintext
// Tang Custom
|
|
TITLE:SUPERNOVA (Kobaryo's FTN-Remix)
|
|
TITLEJA:SUPERNOVA (Kobaryo's FTN-Remix)
|
|
SUBTITLE:--USAO Remixed by Kobaryo / SUPERNOVA
|
|
SUBTITLEJA:USAO Remixed by Kobaryo / SUPERNOVA
|
|
|
|
BPM:200
|
|
WAVE:SUPERNOVA (Kobaryos FTN Remix).ogg
|
|
OFFSET:-3.127
|
|
DEMOSTART:126.691
|
|
PREIMAGE:image.png
|
|
|
|
COURSE:Oni
|
|
LEVEL:10.5
|
|
BALLOON:2,2,2,2,2,2,2,39,2,2,9,2,2,9
|
|
SCOREINIT:780
|
|
SCOREDIFF:0
|
|
|
|
#START
|
|
#MEASURE 8/4
|
|
#SCROLL 0.5
|
|
1020012010202122,
|
|
1020012010202120,
|
|
1020012010202122,
|
|
1020012011012058, // 4
|
|
|
|
#MEASURE 4/4
|
|
#SCROLL 1
|
|
33,
|
|
#BPMCHANGE 204
|
|
33,
|
|
#BPMCHANGE 208
|
|
33,
|
|
#BPMCHANGE 212
|
|
100000100000100110200000,
|
|
#BPMCHANGE 216
|
|
1120112010211010,
|
|
#BPMCHANGE 220
|
|
1120112011201120,
|
|
#BPMCHANGE 227
|
|
2221221221212121,
|
|
#BPMCHANGE 234
|
|
00000078, // 12
|
|
|
|
3333,
|
|
33333333,
|
|
100100100100100100100100
|
|
101010101010101010101010,
|
|
20304078, // 16
|
|
|
|
#GOGOSTART
|
|
1120112011201120,
|
|
1120112011101011,
|
|
2110211021102110,
|
|
#GOGOEND
|
|
21211078,
|
|
#GOGOSTART
|
|
100000202020100000200000
|
|
100100200000100000100100,
|
|
2110201121012011,
|
|
1010101210101012,
|
|
#GOGOEND
|
|
12121078, // 24
|
|
|
|
#GOGOSTART
|
|
1011201011012011,
|
|
1011201021012011,
|
|
2110101121101011,
|
|
#GOGOEND
|
|
1000101120007080,
|
|
#GOGOSTART
|
|
1022102011012022,
|
|
1120112021012022,
|
|
1111202211112022,
|
|
111111110400, // 32
|
|
|
|
#GOGOEND
|
|
3222,
|
|
32222022,
|
|
#BPMCHANGE 244
|
|
30202222,
|
|
30222220,
|
|
#BPMCHANGE 250
|
|
3333,
|
|
#BPMCHANGE 256
|
|
3333,
|
|
#BPMCHANGE 262
|
|
3000202030222020,
|
|
#BPMCHANGE 269.058
|
|
#SCROLL 0.996
|
|
300000220200220200300000, // 40
|
|
|
|
#BPMCHANGE 268
|
|
#SCROLL 1
|
|
300000200200220200220200,
|
|
300000200200220200220200,
|
|
300000220200300000220200,
|
|
300000300000300110400000, // 44
|
|
|
|
12412142,
|
|
100200400100220100400200,
|
|
12412142,
|
|
1220401122104000,
|
|
12412142,
|
|
100200400100220100400200,
|
|
32214122,
|
|
100200200200200020002000
|
|
200000200000400000000000, // 52
|
|
|
|
#SCROLL 0.5
|
|
1000001110010011,
|
|
#BARLINEOFF
|
|
1111100010111110,
|
|
#BARLINEON
|
|
1000001110010011,
|
|
#BARLINEOFF
|
|
200100100100200000000000
|
|
200010001000200000000000, // 56
|
|
|
|
#BARLINEON
|
|
#SCROLL 0.51
|
|
1
|
|
#SCROLL 0.53
|
|
1
|
|
#SCROLL 0.54
|
|
1
|
|
#SCROLL 0.56
|
|
1
|
|
#SCROLL 0.58
|
|
1
|
|
#SCROLL 0.59
|
|
1
|
|
#SCROLL 0.61
|
|
1
|
|
#SCROLL 0.63
|
|
1
|
|
#SCROLL 0.64
|
|
1
|
|
#SCROLL 0.66
|
|
1
|
|
#SCROLL 0.68
|
|
1
|
|
#SCROLL 0.7
|
|
1
|
|
#SCROLL 0.72
|
|
1
|
|
#SCROLL 0.74
|
|
1
|
|
#SCROLL 0.76
|
|
1
|
|
#SCROLL 0.79
|
|
1,
|
|
|
|
#SCROLL 0.81
|
|
1
|
|
#SCROLL 0.83
|
|
1
|
|
#SCROLL 0.86
|
|
1
|
|
#SCROLL 0.88
|
|
1
|
|
#SCROLL 0.91
|
|
1
|
|
#SCROLL 0.93
|
|
1
|
|
#SCROLL 0.96
|
|
1
|
|
#SCROLL 0.99
|
|
1
|
|
#SCROLL 1.01
|
|
1
|
|
#SCROLL 1.04
|
|
1
|
|
#SCROLL 1.07
|
|
1
|
|
#SCROLL 1.1
|
|
1
|
|
#SCROLL 1.14
|
|
1
|
|
#SCROLL 1.17
|
|
1
|
|
#SCROLL 1.2
|
|
1
|
|
#SCROLL 1.24
|
|
1,
|
|
|
|
#SCROLL 1.27
|
|
1
|
|
#SCROLL 1.31
|
|
1
|
|
#SCROLL 1.35
|
|
1
|
|
#SCROLL 1.38
|
|
1
|
|
#SCROLL 1.42
|
|
1
|
|
#SCROLL 1.47
|
|
1
|
|
#SCROLL 1.51
|
|
1
|
|
#SCROLL 1.55
|
|
1
|
|
#SCROLL 1.59
|
|
1
|
|
#SCROLL 1.64
|
|
1
|
|
#SCROLL 1.69
|
|
1
|
|
#SCROLL 1.74
|
|
1
|
|
#SCROLL 1.79
|
|
1
|
|
#SCROLL 1.84
|
|
1
|
|
#SCROLL 1.89
|
|
1
|
|
#SCROLL 1.94
|
|
1,
|
|
|
|
#SCROLL 2
|
|
30303078, // 60
|
|
|
|
#SCROLL 0.75
|
|
101202,
|
|
100022200020,
|
|
101202,
|
|
100011100010,
|
|
102101,
|
|
200022200020,
|
|
101202,
|
|
#SCROLL 1
|
|
30303078, // 68
|
|
|
|
1221,
|
|
21212012,
|
|
10212121,
|
|
20121210,
|
|
1000222020221000,
|
|
2220202210202020,
|
|
2220202010002020,
|
|
2220202012204000, // 76
|
|
|
|
7,
|
|
#MEASURE 5/4
|
|
,
|
|
|
|
#BPMCHANGE 256
|
|
#MEASURE 10/4
|
|
#SCROLL 1.047
|
|
8,
|
|
#BPMCHANGE 305
|
|
#MEASURE 1/4
|
|
#SCROLL 0.541
|
|
#BARLINEOFF
|
|
2211, // 80
|
|
|
|
#BPMCHANGE 220
|
|
#MEASURE 4/4
|
|
#SCROLL 0.75
|
|
#BARLINEON
|
|
#NEWLINE
|
|
1221,
|
|
#BPMCHANGE 224
|
|
#BARLINEOFF
|
|
21212012,
|
|
#BPMCHANGE 228
|
|
#BARLINEON
|
|
10212121,
|
|
#BPMCHANGE 232
|
|
#BARLINEOFF
|
|
20121210,
|
|
#BPMCHANGE 236
|
|
#BARLINEON
|
|
10202011,
|
|
#BPMCHANGE 240
|
|
#BARLINEOFF
|
|
21212010,
|
|
#BPMCHANGE 242
|
|
#MEASURE 4/4
|
|
#BARLINEON
|
|
20120121,
|
|
#SCROLL 1
|
|
100000220200300000700800, // 88
|
|
|
|
2220202210002220,
|
|
2020202210202020,
|
|
2220202010002020,
|
|
2220202012204000,
|
|
2220102220001220,
|
|
2020102220201020,
|
|
2220102020001020,
|
|
2220102012201020, // 96
|
|
|
|
1110201110002110,
|
|
1010201110102010,
|
|
1110201010002010,
|
|
1110201011102000,
|
|
1110201020112020,
|
|
1110201020112022,
|
|
1111202211112022,
|
|
100000220200220200300000, // 104
|
|
|
|
#SCROLL 0.5
|
|
3222,
|
|
1222,
|
|
1222,
|
|
1222, // 108
|
|
|
|
#SCROLL 0.51
|
|
2
|
|
#SCROLL 0.53
|
|
1
|
|
#SCROLL 0.54
|
|
1
|
|
#SCROLL 0.56
|
|
1
|
|
#SCROLL 0.58
|
|
1
|
|
#SCROLL 0.59
|
|
1
|
|
#SCROLL 0.61
|
|
1
|
|
#SCROLL 0.63
|
|
1
|
|
#SCROLL 0.64
|
|
1
|
|
#SCROLL 0.66
|
|
1
|
|
#SCROLL 0.68
|
|
1
|
|
#SCROLL 0.7
|
|
1
|
|
#SCROLL 0.72
|
|
1
|
|
#SCROLL 0.74
|
|
1
|
|
#SCROLL 0.76
|
|
1
|
|
#SCROLL 0.79
|
|
1,
|
|
|
|
#SCROLL 0.81
|
|
2
|
|
#SCROLL 0.83
|
|
1
|
|
#SCROLL 0.86
|
|
1
|
|
#SCROLL 0.88
|
|
1
|
|
#SCROLL 0.91
|
|
1
|
|
#SCROLL 0.93
|
|
1
|
|
#SCROLL 0.96
|
|
1
|
|
#SCROLL 0.99
|
|
1
|
|
#SCROLL 1.01
|
|
1
|
|
#SCROLL 1.04
|
|
1
|
|
#SCROLL 1.07
|
|
1
|
|
#SCROLL 1.1
|
|
1
|
|
#SCROLL 1.14
|
|
1
|
|
#SCROLL 1.17
|
|
1
|
|
#SCROLL 1.2
|
|
1
|
|
#SCROLL 1.24
|
|
1,
|
|
|
|
#SCROLL 1.27
|
|
2
|
|
#SCROLL 1.31
|
|
1
|
|
#SCROLL 1.35
|
|
1
|
|
#SCROLL 1.38
|
|
1
|
|
#SCROLL 1.42
|
|
1
|
|
#SCROLL 1.47
|
|
1
|
|
#SCROLL 1.51
|
|
1
|
|
#SCROLL 1.55
|
|
1
|
|
#SCROLL 1.59
|
|
2
|
|
#SCROLL 1.64
|
|
1
|
|
#SCROLL 1.69
|
|
1
|
|
#SCROLL 1.74
|
|
1
|
|
#SCROLL 1.79
|
|
1
|
|
#SCROLL 1.84
|
|
1
|
|
#SCROLL 1.89
|
|
1
|
|
#SCROLL 1.94
|
|
1,
|
|
#SCROLL 2
|
|
300000300000300110400000, // 112
|
|
|
|
3000300030003033,
|
|
30303444,
|
|
3030303033333333,
|
|
40304078,
|
|
#SCROLL 4
|
|
60000008,
|
|
6080608068686868,
|
|
6080686868686868
|
|
6868686868686868,
|
|
#SCROLL 1
|
|
70000840, // 120
|
|
|
|
#GOGOSTART
|
|
2220202210102220,
|
|
2022101011101122,
|
|
100100100000200000100100
|
|
200000101010200000200200,
|
|
1210201012102010,
|
|
2220202210102220,
|
|
2022101011101122,
|
|
100000000000202020200200
|
|
100000202020100000200200,
|
|
#GOGOEND
|
|
100200100200100220100200, // 128
|
|
|
|
#GOGOSTART
|
|
101010100000200000100100
|
|
200000200000100100100000,
|
|
200000100100200000101010
|
|
100000100000200200100100,
|
|
200000000000100000100100
|
|
200000101010200000200200,
|
|
1210201012102010,
|
|
1110201120201110,
|
|
2011202011102211,
|
|
2000211120112210,
|
|
#GOGOEND
|
|
21040478, // 136
|
|
|
|
11212212,
|
|
2010201020201022,
|
|
11212121,
|
|
2020201120202011,
|
|
1010201020201011,
|
|
2010201120201022,
|
|
1111202211112022,
|
|
1022200020007080, // 144
|
|
|
|
12412142,
|
|
100200400100220100400200,
|
|
12412142,
|
|
100200400100220100400000,
|
|
#GOGOSTART
|
|
1110201121201110,
|
|
200000100100201010200000
|
|
100000100000200200100100,
|
|
200000000000200100100100
|
|
200000100100202020200200,
|
|
70000840, // 152
|
|
|
|
#GOGOEND
|
|
300000220200300000220200,
|
|
300000220200300000300000,
|
|
300000202000300000202000
|
|
300000202000100100100100,
|
|
100200200200200020002000
|
|
200000200000202020200200,
|
|
1, // 157
|
|
,
|
|
|
|
#END
|
|
|
|
|
|
COURSE:Hard
|
|
LEVEL:8
|
|
BALLOON:6,22,16,24,24,6,6,6,6
|
|
SCOREINIT:1470
|
|
SCOREDIFF:0
|
|
|
|
#START
|
|
#MEASURE 8/4
|
|
#SCROLL 0.5
|
|
1020012010202120,
|
|
1020012010202120,
|
|
1020012010202120,
|
|
1020012011012058, // 4
|
|
|
|
#MEASURE 4/4
|
|
#SCROLL 1
|
|
33,
|
|
#BPMCHANGE 204
|
|
33,
|
|
#BPMCHANGE 208
|
|
33,
|
|
#BPMCHANGE 212
|
|
30000140,
|
|
#BPMCHANGE 216
|
|
1000100010111010,
|
|
#BPMCHANGE 220
|
|
1111,
|
|
#BPMCHANGE 227
|
|
5,
|
|
#BPMCHANGE 234
|
|
8004, // 12
|
|
|
|
30303033,
|
|
30303333,
|
|
6,
|
|
8, // 16
|
|
|
|
#GOGOSTART
|
|
1000100010001011,
|
|
10101222,
|
|
10101011,
|
|
#GOGOEND
|
|
1114,
|
|
#GOGOSTART
|
|
1011100010001000,
|
|
1000100011102020,
|
|
11101010,
|
|
#GOGOEND
|
|
1004, // 24
|
|
|
|
#GOGOSTART
|
|
1000100010001011,
|
|
10101222,
|
|
10101011,
|
|
#GOGOEND
|
|
1044,
|
|
#GOGOSTART
|
|
1011100010001000,
|
|
1000100011102020,
|
|
1000101110101000,
|
|
7008, // 32
|
|
|
|
#GOGOEND
|
|
1220,
|
|
10222020,
|
|
#BPMCHANGE 244
|
|
10202022,
|
|
10222020,
|
|
#BPMCHANGE 250
|
|
3333,
|
|
#BPMCHANGE 256
|
|
3333,
|
|
#BPMCHANGE 262
|
|
30223022,
|
|
#BPMCHANGE 269.058
|
|
#SCROLL 0.996
|
|
5008, // 40
|
|
|
|
#BPMCHANGE 268
|
|
#SCROLL 1
|
|
30222220,
|
|
30222220,
|
|
30223022,
|
|
6008, // 44
|
|
|
|
10200222,
|
|
10200222,
|
|
10200222,
|
|
50008140,
|
|
10200222,
|
|
10200222,
|
|
3232,
|
|
58, // 52
|
|
|
|
1000001110010010,
|
|
11100000,
|
|
1000001110010010,
|
|
11101040,
|
|
9,
|
|
,
|
|
,
|
|
8, // 60
|
|
|
|
101101,
|
|
100022200000,
|
|
101101,
|
|
100011100000,
|
|
101101,
|
|
200022200000,
|
|
101101,
|
|
3330, // 68
|
|
|
|
10200120,
|
|
10202120,
|
|
10200120,
|
|
10202120,
|
|
22222022,
|
|
22200000,
|
|
22222022,
|
|
22222000, // 76
|
|
|
|
7,
|
|
#MEASURE 5/4
|
|
,
|
|
#BPMCHANGE 256
|
|
#MEASURE 10/4
|
|
#SCROLL 1.047
|
|
8,
|
|
#BPMCHANGE 305
|
|
#MEASURE 1/4
|
|
#SCROLL 0.721
|
|
#BARLINEOFF
|
|
, // 80
|
|
|
|
#BPMCHANGE 220
|
|
#MEASURE 4/4
|
|
#SCROLL 1
|
|
#BARLINEON
|
|
#NEWLINE
|
|
10200120,
|
|
#BPMCHANGE 224
|
|
10202120,
|
|
#BPMCHANGE 228
|
|
10200120,
|
|
#BPMCHANGE 232
|
|
10202120,
|
|
#BPMCHANGE 236
|
|
10200120,
|
|
#BPMCHANGE 240
|
|
10202120,
|
|
#BPMCHANGE 242
|
|
#MEASURE 4/4
|
|
10200120,
|
|
11012000, // 88
|
|
|
|
22222022,
|
|
22200000,
|
|
22222022,
|
|
22222000,
|
|
22222022,
|
|
22200000,
|
|
20222020,
|
|
20222220, // 96
|
|
|
|
12222022,
|
|
22200000,
|
|
12222022,
|
|
22222000,
|
|
10222020,
|
|
10222220,
|
|
10221020,
|
|
3, // 104
|
|
|
|
3222,
|
|
1222,
|
|
1222,
|
|
1222,
|
|
9,
|
|
,
|
|
,
|
|
8, // 112
|
|
|
|
30303033,
|
|
30303333,
|
|
6,
|
|
8,
|
|
7,
|
|
,
|
|
,
|
|
8, // 120
|
|
|
|
#GOGOSTART
|
|
1011101010001011,
|
|
11101010,
|
|
2022202020002022,
|
|
22222020,
|
|
1011101010001011,
|
|
11101010,
|
|
2000202220002000,
|
|
#GOGOEND
|
|
7008, // 128
|
|
|
|
#GOGOSTART
|
|
1011101010001011,
|
|
11101010,
|
|
2000202220002022,
|
|
22222020,
|
|
1011101010001011,
|
|
11101010,
|
|
2000202220002000,
|
|
#GOGOEND
|
|
7008, // 136
|
|
|
|
11201020,
|
|
11221022,
|
|
10221122,
|
|
10222020,
|
|
11201020,
|
|
11221022,
|
|
10221122,
|
|
1011100030004000, // 144
|
|
|
|
12222022,
|
|
22200020,
|
|
20222020,
|
|
20222220,
|
|
#GOGOSTART
|
|
1011101010001011,
|
|
11101011,
|
|
2000202220002000,
|
|
7008, // 152
|
|
|
|
#GOGOEND
|
|
3232,
|
|
30223022,
|
|
3000300011102020,
|
|
7008,
|
|
3, // 157
|
|
,
|
|
|
|
#END
|
|
|
|
COURSE:Normal
|
|
LEVEL:7
|
|
BALLOON:5,18,14,20,20,5,5,5,5
|
|
SCOREINIT:1900
|
|
SCOREDIFF:0
|
|
|
|
#START
|
|
#MEASURE 8/4
|
|
#SCROLL 0.5
|
|
12021220,
|
|
12021220,
|
|
12021220,
|
|
12021058, // 4
|
|
|
|
#MEASURE 4/4
|
|
#SCROLL 1
|
|
33,
|
|
#BPMCHANGE 204
|
|
33,
|
|
#BPMCHANGE 208
|
|
33,
|
|
#BPMCHANGE 212
|
|
3004,
|
|
#BPMCHANGE 216
|
|
10101111,
|
|
#BPMCHANGE 220
|
|
1111,
|
|
#BPMCHANGE 227
|
|
5,
|
|
#BPMCHANGE 234
|
|
8004, // 12
|
|
|
|
30303033,
|
|
30303330,
|
|
6,
|
|
8, // 16
|
|
|
|
#GOGOSTART
|
|
10101011,
|
|
10101111,
|
|
10101011,
|
|
#GOGOEND
|
|
1114,
|
|
#GOGOSTART
|
|
11101010,
|
|
10101111,
|
|
1111,
|
|
#GOGOEND
|
|
1004, // 24
|
|
|
|
#GOGOSTART
|
|
10101011,
|
|
10101111,
|
|
10101011,
|
|
#GOGOEND
|
|
1044,
|
|
#GOGOSTART
|
|
11101010,
|
|
10101111,
|
|
10111010,
|
|
7008, // 32
|
|
|
|
#GOGOEND
|
|
1220,
|
|
1222,
|
|
#BPMCHANGE 244
|
|
1220,
|
|
1222,
|
|
#BPMCHANGE 250
|
|
3333,
|
|
#BPMCHANGE 256
|
|
3333,
|
|
#BPMCHANGE 262
|
|
3232,
|
|
#BPMCHANGE 269.058
|
|
#SCROLL 0.996
|
|
5008, // 40
|
|
|
|
#BPMCHANGE 268
|
|
#SCROLL 1
|
|
30222000,
|
|
30222000,
|
|
3232,
|
|
6008, // 44
|
|
|
|
10200220,
|
|
10200220,
|
|
10200220,
|
|
5084,
|
|
10200220,
|
|
10200220,
|
|
3232,
|
|
58, // 52
|
|
|
|
10011000,
|
|
11100000,
|
|
10011000,
|
|
11101040,
|
|
9,
|
|
,
|
|
,
|
|
8, // 60
|
|
|
|
11,
|
|
101100,
|
|
11,
|
|
101100,
|
|
11,
|
|
202200,
|
|
11,
|
|
3330, // 68
|
|
|
|
1202,
|
|
1220,
|
|
1202,
|
|
1220,
|
|
20222020,
|
|
22200000,
|
|
20222020,
|
|
22202000, // 76
|
|
|
|
7,
|
|
#MEASURE 5/4
|
|
,
|
|
#BPMCHANGE 256
|
|
#MEASURE 10/4
|
|
#SCROLL 1.047
|
|
8,
|
|
#BPMCHANGE 305
|
|
#MEASURE 1/4
|
|
#SCROLL 0.721
|
|
#BARLINEOFF
|
|
, // 80
|
|
|
|
#BPMCHANGE 220
|
|
#MEASURE 4/4
|
|
#SCROLL 1
|
|
#BARLINEON
|
|
#NEWLINE
|
|
1202,
|
|
#BPMCHANGE 224
|
|
1220,
|
|
#BPMCHANGE 228
|
|
1202,
|
|
#BPMCHANGE 232
|
|
1220,
|
|
#BPMCHANGE 236
|
|
1202,
|
|
#BPMCHANGE 240
|
|
1220,
|
|
#BPMCHANGE 242
|
|
#MEASURE 4/4
|
|
1202,
|
|
3, // 88
|
|
|
|
20222020,
|
|
22200000,
|
|
20222020,
|
|
22202000,
|
|
20222020,
|
|
22200000,
|
|
20222020,
|
|
20222000, // 96
|
|
|
|
10222020,
|
|
22200000,
|
|
10222020,
|
|
22202000,
|
|
10222020,
|
|
10222020,
|
|
10221020,
|
|
3, // 104
|
|
|
|
3222,
|
|
1222,
|
|
1222,
|
|
1222,
|
|
9,
|
|
,
|
|
,
|
|
8, // 112
|
|
|
|
30303033,
|
|
30303330,
|
|
6,
|
|
8,
|
|
7,
|
|
,
|
|
,
|
|
8, // 120
|
|
|
|
#GOGOSTART
|
|
20222020,
|
|
22202020,
|
|
10111010,
|
|
11101010,
|
|
20222020,
|
|
22202020,
|
|
10111010,
|
|
#GOGOEND
|
|
7008, // 128
|
|
|
|
#GOGOSTART
|
|
10111010,
|
|
11101010,
|
|
20222020,
|
|
22202020,
|
|
10111010,
|
|
11101010,
|
|
20222020,
|
|
#GOGOEND
|
|
7008, // 136
|
|
|
|
11201020,
|
|
1212,
|
|
10221020,
|
|
10222000,
|
|
11201020,
|
|
1212,
|
|
10221020,
|
|
33303040, // 144
|
|
|
|
10222020,
|
|
22200020,
|
|
10222020,
|
|
20222020,
|
|
#GOGOSTART
|
|
10111010,
|
|
11101010,
|
|
20222020,
|
|
7008, // 152
|
|
|
|
#GOGOEND
|
|
3232,
|
|
3232,
|
|
30301111,
|
|
7008,
|
|
3, // 157
|
|
,
|
|
|
|
#END
|
|
|
|
COURSE:Easy
|
|
LEVEL:5
|
|
BALLOON:4,14,10,16,16,4,4,4,4
|
|
SCOREINIT:3060
|
|
SCOREDIFF:0
|
|
|
|
#START
|
|
#MEASURE 8/4
|
|
#SCROLL 0.5
|
|
12021200,
|
|
12021200,
|
|
12021200,
|
|
12021058, // 4
|
|
|
|
#MEASURE 4/4
|
|
#SCROLL 1
|
|
33,
|
|
#BPMCHANGE 204
|
|
33,
|
|
#BPMCHANGE 208
|
|
33,
|
|
#BPMCHANGE 212
|
|
3003,
|
|
#BPMCHANGE 216
|
|
1110,
|
|
#BPMCHANGE 220
|
|
1110,
|
|
#BPMCHANGE 227
|
|
5,
|
|
#BPMCHANGE 234
|
|
8, // 12
|
|
|
|
3330,
|
|
3330,
|
|
6,
|
|
8, // 16
|
|
|
|
#GOGOSTART
|
|
1110,
|
|
1110,
|
|
1111,
|
|
#GOGOEND
|
|
1003,
|
|
#GOGOSTART
|
|
1110,
|
|
1110,
|
|
1111,
|
|
#GOGOEND
|
|
1004, // 24
|
|
|
|
#GOGOSTART
|
|
1110,
|
|
1110,
|
|
1111,
|
|
#GOGOEND
|
|
1033,
|
|
#GOGOSTART
|
|
1110,
|
|
1110,
|
|
1111,
|
|
7008, // 32
|
|
|
|
#GOGOEND
|
|
12,
|
|
1220,
|
|
#BPMCHANGE 244
|
|
12,
|
|
1220,
|
|
#BPMCHANGE 250
|
|
3330,
|
|
#BPMCHANGE 256
|
|
3330,
|
|
#BPMCHANGE 262
|
|
1111,
|
|
#BPMCHANGE 269.058
|
|
#SCROLL 0.996
|
|
58, // 40
|
|
|
|
#BPMCHANGE 268
|
|
#SCROLL 1
|
|
3,
|
|
3,
|
|
33,
|
|
68, // 44
|
|
|
|
1202,
|
|
0202,
|
|
0202,
|
|
58,
|
|
1202,
|
|
0202,
|
|
33,
|
|
58, // 52
|
|
|
|
11,
|
|
1100,
|
|
11,
|
|
1100,
|
|
9,
|
|
,
|
|
,
|
|
8, // 60
|
|
|
|
11,
|
|
1,
|
|
11,
|
|
1,
|
|
11,
|
|
2,
|
|
11,
|
|
3330, // 68
|
|
|
|
1202,
|
|
1200,
|
|
1202,
|
|
1200,
|
|
2202,
|
|
2,
|
|
2202,
|
|
2, // 76
|
|
|
|
7,
|
|
#MEASURE 5/4
|
|
,
|
|
#BPMCHANGE 256
|
|
#MEASURE 10/4
|
|
#SCROLL 1.047
|
|
8,
|
|
#BPMCHANGE 305
|
|
#MEASURE 1/4
|
|
#SCROLL 0.721
|
|
#BARLINEOFF
|
|
, // 80
|
|
|
|
#BPMCHANGE 220
|
|
#MEASURE 4/4
|
|
#SCROLL 1
|
|
#BARLINEON
|
|
#NEWLINE
|
|
1202,
|
|
#BPMCHANGE 224
|
|
1200,
|
|
#BPMCHANGE 228
|
|
1202,
|
|
#BPMCHANGE 232
|
|
1200,
|
|
#BPMCHANGE 236
|
|
1202,
|
|
#BPMCHANGE 240
|
|
1200,
|
|
#BPMCHANGE 242
|
|
#MEASURE 4/4
|
|
1202,
|
|
3, // 88
|
|
|
|
2202,
|
|
2,
|
|
2202,
|
|
2,
|
|
2202,
|
|
2,
|
|
2202,
|
|
2, // 96
|
|
|
|
1202,
|
|
2200,
|
|
1202,
|
|
2200,
|
|
1202,
|
|
1202,
|
|
1212,
|
|
3, // 104
|
|
|
|
11,
|
|
11,
|
|
11,
|
|
11,
|
|
9,
|
|
,
|
|
,
|
|
8, // 112
|
|
|
|
3330,
|
|
3330,
|
|
6,
|
|
8,
|
|
7,
|
|
,
|
|
,
|
|
8, // 120
|
|
|
|
#GOGOSTART
|
|
2202,
|
|
22,
|
|
1101,
|
|
1110,
|
|
2202,
|
|
22,
|
|
1011,
|
|
#GOGOEND
|
|
7008, // 128
|
|
|
|
#GOGOSTART
|
|
1101,
|
|
11,
|
|
2202,
|
|
2220,
|
|
1101,
|
|
11,
|
|
2022,
|
|
#GOGOEND
|
|
7008, // 136
|
|
|
|
1210,
|
|
1210,
|
|
1212,
|
|
1210,
|
|
1210,
|
|
1210,
|
|
1212,
|
|
3330, // 144
|
|
|
|
1202,
|
|
0202,
|
|
0202,
|
|
0210,
|
|
#GOGOSTART
|
|
1101,
|
|
11,
|
|
2022,
|
|
7008, // 152
|
|
|
|
#GOGOEND
|
|
33,
|
|
33,
|
|
1111,
|
|
7008,
|
|
3, // 157
|
|
,
|
|
|
|
#END |