Files
Tang-Customs/02 Anime/Love Trap Muchu/Love Trap Muchu.tja
T
2025-04-15 22:49:03 +01:00

887 lines
9.1 KiB
Plaintext

TITLE:Love Trap Muchu
TITLEJA:アイワナムチュー
SUBTITLE:MAISONdes feat. asmi, Three / Urusei Yatsura (2022)
SUBTITLEJA:--MAISONdes feat. asmi, すりぃ 「うる星やつら(2022)」より
BPM:158
WAVE:Love Trap Muchu.ogg
OFFSET:-0.794
DEMOSTART:50.920
SCOREMODE:2
PREIMAGE:image.png
COURSE:Edit
LEVEL:8
BALLOON:6
SCOREINIT:900
SCOREDIFF:0
#START
#BARLINEOFF
#MEASURE 5/8
11120,
#BARLINEON
#MEASURE 4/4
1000112210010011,
1000222210010010,
1000112210010011,
1000111110010011,
1002101110202022,
1002101110202022,
1011111011111111,
0000000000001122, // 9
#GOGOSTART
1002102011201020,
2002102010001122,
1002102011202020,
1002102010401122,
1002102011201020,
2002102010001122,
1000201021021022,
#GOGOEND
1000111110030030, // 17
3000101010111020,
1000102010221010,
2000102020121020,
1000102020120120,
1000101010111020,
1000102010121020,
1000102020221020,
1000111110030011, // 25
10102011,
12221011,
1120200011202000,
2010222020002010,
20201011,
12221011,
1010111010020020,
3004004030040040,
30011120, // 34
#GOGOSTART
2010201011202000,
2020201011202000,
1010102022102010,
1120112010401111,
2010201011202000,
2020201011202000,
1010102012012020,
34343122, // 42
1001201020112010,
1022101020112010,
1001101020111040,
02221440,
2010201110202000,
2020201120202000,
1010201120111111,
1030303030001122, // 50
1002102011201020,
2002102010001122,
1002102011202020,
1002102010401111,
#GOGOEND
0000
#GOGOSTART
302011201020,
2002102010001122,
1000201021021022,
#GOGOEND
1000111110030030, // 58
3000101010111010,
1000101010111010,
1000101010111010,
1000101020120120,
1020112010210120,
1020112010210120,
1020112010210210,
1020111110030030, // 66
10102011,
12221011,
1120200011202000,
2010222020004000,
1001202010012020,
12221011,
1010111011111111,
1012012030120120,
3000001010101111, // 75
#GOGOSTART
2010201011202000,
2020201011202000,
1010102022102010,
1120112010401111,
2010201011202000,
2020201011202000,
1010102012012020,
3040304030112020, // 83
1001201020112010,
1022101020112010,
1001101020111040,
02221440,
2010201110202000,
2020201120202000,
1010201120111111,
1030303070000080, // 91
#GOGOEND
1001201111102010,
0011210211112100,
1001201121102010,
0011210210112110,
1001201011201011,
2010112010112010,
1001202211102010,
0011101110221110, // 99
1012101210201020,
0011201120221010,
1020201120212040,
0020221010404000,
1012101210201020,
0011201120120122,
1000201110030030,
6008,
3000222222111111, // 108
0303,
0303,
1000102010201111,
0000000000101111,
#GOGOSTART
2010201011202000,
2020201011202000,
1010102012012020,
3040304030112020, // 116
1001201020112010,
1022101020112010,
1001101020111040,
02221440,
2010201110202000,
2020201120202000,
1010201120111111,
13333030, // 124
2010201011202000,
1010201022202000,
2010201011202000,
1010201022102210,
2010201011202000,
1010201022202022,
1010101011111111,
#GOGOEND
0002, // 132
,
#END
COURSE:Oni
LEVEL:6
BALLOON:10, 10, 10, 10, 10
SCOREINIT:1230
SCOREDIFF:0
#START
#BARLINEOFF
#MEASURE 5/8
11120,
#BARLINEON
#MEASURE 4/4
20101120,
11112220,
01112210,
12121001,
20101120,
11112220,
01112210,
10113000, // 9
#GOGOSTART
10121210,
2002002010001110,
10121220,
1001001020001110,
10121210,
2002002010001110,
1000200020010020,
#GOGOEND
4000000030030030, // 17
1000102010110020,
1000102010110010,
2000102020220020,
1000102010110010,
1000102010110020,
1000102010110010,
1000102020210010,
1000001030030030, // 25
1122,
11221022,
11201120,
21222000,
2211,
11221022,
1010202010020020,
1000000040040040,
7008, // 34
#GOGOSTART
22101120,
1010100011202000,
01112210,
12121001,
22101120,
1010100011202000,
0010101010020020,
7008, // 42
1001201020002010,
22112010,
1001201020001040,
02212040,
22101120,
1010100011202000,
01112210,
3030303030001110, // 50
10121210,
2001202010001110,
10121220,
1001101020001110,
#GOGOEND
10
#GOGOSTART
321210,
2001202010001110,
1000200020010020,
#GOGOEND
4000000030030030, // 58
1000101010110010,
1000101010110010,
1000101010110020,
1000101010110020,
1020102010110020,
1020102010110020,
1020102020210020,
1020101110030030, // 66
1122,
11221022,
11201120,
21222040,
2211,
11221022,
1010202010020020,
1002002030040040,
7008, // 75
#GOGOSTART
22101120,
1020100011202000,
01112210,
12121001,
22101120,
1020100011202000,
0010101010020020,
7008, // 83
1001201020002010,
22112010,
1001201020001040,
02212440,
22101120,
1020100011202000,
01112210,
3030303030001110, // 91
#GOGOEND
1001201000102010,
0010201000102022,
1001201000102010,
0010201020102011,
1001201010201000,
1001102010102000,
1001200110102010,
0010101110101000, // 99
1011100010111010,
0010201120201010,
0010201020020040,
02212040,
1011100010111010,
0010201120020020,
1000200030030030,
6,
80011120, // 108
2323,
2323,
10121010,
1020102010001110,
#GOGOSTART
2020100011202000,
1020100011202000,
1010202010020020,
7008, // 116
1001201020002010,
22112011,
1001201020001040,
02212440,
2020100011202000,
1020100011202000,
11112210,
33333030, // 124
2020100011202000,
1010202011101000,
22101120,
1010202022202000,
22101120,
1010202011101000,
1010101020201110,
#GOGOEND
33333020, // 132
,
#END
COURSE:Hard
LEVEL:4
BALLOON:8, 8, 8, 8, 8
SCOREINIT:1700
SCOREDIFF:0
#START
#BARLINEOFF
#MEASURE 5/8
11010,
#BARLINEON
#MEASURE 4/4
10102220,
10102220,
01101010,
3330,
10102220,
10102220,
01101010,
30333000, // 9
#GOGOSTART
10111010,
2002002010000000,
10111020,
1001001020000000,
10111010,
2002002010000000,
1000200020010020,
#GOGOEND
4, // 17
1000200010010020,
1000200010010020,
1000200020010020,
1000200010010020,
1000200010010020,
1000200010010020,
1000200020010020,
1000200030030030, // 25
1122,
10111000,
1212,
20222000,
2211,
10111000,
1000200010020020,
1000000040040040,
7008, // 34
#GOGOSTART
1212,
11102220,
01102020,
11103000,
1212,
11102220,
0010100010020020,
7008, // 42
10212010,
20112010,
10102014,
02222000,
1212,
11102220,
01102020,
30333000, // 50
10111010,
2002002010000000,
10111020,
1001001020000000,
#GOGOEND
10
#GOGOSTART
111010,
2002002010000000,
1000200020010020,
#GOGOEND
4, // 58
1000100010010010,
1000100010010010,
1000100010010020,
1000100010010020,
1020100010010020,
1020100010010020,
1020100020010020,
1020100030030030, // 66
1122,
10111000,
1212,
20222000,
2211,
10111000,
1000200010020020,
1000000040040040,
7008, // 75
#GOGOSTART
1212,
11102220,
01102020,
11103000,
1212,
11102220,
0010100010020020,
7008, // 83
10212010,
20112010,
10102014,
02222000,
1212,
11102220,
01102020,
30333000, // 91
#GOGOEND
10210121,
01210120,
10210121,
01210120,
10221210,
10121210,
10210121,
01101110, // 99
10101011,
01101011,
0020200020020040,
02204000,
10101011,
0010100010010010,
3000000030030030,
6,
80011110, // 108
2323,
2323,
1111,
11103000,
#GOGOSTART
1212,
11102220,
0010101010020020,
7008, // 116
10212010,
22112010,
10102014,
02222000,
1212,
11102220,
01102220,
30333000, // 124
1212,
11102220,
1212,
11102222,
1212,
11102220,
10101110,
#GOGOEND
30333000, // 132
,
#END
COURSE:Normal
LEVEL:4
BALLOON:6, 6, 6, 6, 6
SCOREINIT:2350
SCOREDIFF:0
#START
#BARLINEOFF
#MEASURE 5/8
,
#BARLINEON
#MEASURE 4/4
1120,
1120,
1111,
3330,
1122,
1120,
1111,
3330, // 9
#GOGOSTART
1111,
1001001010000000,
1112,
1001001010000000,
1111,
1001001010000000,
1000200010010010,
#GOGOEND
3, // 17
1011,
1011,
2022,
2022,
1011,
1011,
1011,
1000000030030030, // 25
1120,
1110,
1120,
2220,
1120,
1110,
1000100010010010,
1000000040040040,
7008, // 34
#GOGOSTART
1120,
1120,
1111,
3330,
1120,
1120,
1000100010010010,
7008, // 42
1122,
1120,
10101004,
02202000,
1120,
1120,
1111,
3330, // 50
1111,
1001001010000000,
1112,
1001001010000000,
#GOGOEND
1
#GOGOSTART
111,
1001001010000000,
1000200010010010,
#GOGOEND
3, // 58
1011,
1011,
1011,
1011,
1212,
1210,
1212,
1000000030030030, // 66
1122,
1110,
1120,
2220,
1122,
1110,
1000100010010010,
1000000040040040,
7008, // 75
#GOGOSTART
1120,
1120,
1111,
3330,
1120,
1120,
1000100010010010,
7008, // 83
1122,
1120,
10101004,
02202000,
1120,
1120,
1111,
3330, // 91
#GOGOEND
1202,
0202,
1202,
00200220,
1202,
0202,
1202,
0110, // 99
10101001,
0110,
2000200020020040,
0440,
10101001,
0000100010010010,
3000000030030030,
6,
8, // 108
0303,
0303,
0111,
1110,
#GOGOSTART
1122,
1120,
1000100010010010,
7008, // 116
1122,
1120,
10101004,
02202000,
1122,
1120,
1111,
3330, // 124
1122,
1122,
1122,
2222,
1122,
1122,
1111,
#GOGOEND
3330, // 132
,
#END
COURSE:Easy
LEVEL:3
BALLOON:4, 4, 4, 4, 4
SCOREINIT:3640
SCOREDIFF:0
#START
#BARLINEOFF
#MEASURE 5/8
,
#BARLINEON
#MEASURE 4/4
12,
12,
11,
1110,
12,
12,
11,
3330, // 9
#GOGOSTART
11,
1110,
11,
2220,
11,
1110,
11,
#GOGOEND
3, // 17
11,
11,
12,
12,
11,
11,
12,
14, // 25
12,
1,
12,
2,
12,
1,
11,
34,
78, // 34
#GOGOSTART
12,
12,
11,
3330,
12,
12,
11,
78, // 42
12,
12,
10001004,
0220,
12,
12,
11,
3330, // 50
11,
1110,
11,
2220,
#GOGOEND
1
#GOGOSTART
010,
1110,
11,
#GOGOEND
3, // 58
11,
11,
11,
11,
12,
12,
12,
1033, // 66
12,
1,
12,
2,
12,
12,
11,
34,
78, // 75
#GOGOSTART
12,
12,
11,
3330,
12,
12,
11,
78, // 83
12,
12,
10001004,
0220,
12,
12,
11,
3330, // 91
#GOGOEND
11,
12,
11,
12,
12,
12,
12,
1110, // 99
10101001,
0110,
10102004,
0440,
10101001,
0110,
33,
6,
8, // 108
0303,
0303,
0110,
1110,
#GOGOSTART
12,
12,
1111,
78, // 116
12,
12,
10101004,
0220,
12,
12,
1110,
3330, // 124
12,
1110,
12,
2220,
12,
1110,
11,
#GOGOEND
3330, // 132
,
#END