Files
Tang-Customs/02 Anime/_Pokemon/Netemo Sametemo/Netemo Sametemo.tja
T
2025-11-17 00:49:48 +00:00

532 lines
5.5 KiB
Plaintext

// Tang Custom
TITLE:Netemo Sametemo
TITLEJA:ねてもさめても
SUBTITLE:--Polkadot Stingray / Pokémon Horizons: the Series
SUBTITLEJA:ポルカドットスティングレイ 「ポケットモンスター(2023)」より
BPM:124
WAVE:Netemo Sametemo.ogg
OFFSET:-0.362
DEMOSTART:47.741
PREIMAGE:image.png
COURSE:Oni
LEVEL:7
BALLOON:18
SCOREINIT:1540
SCOREDIFF:0
#START
#MEASURE 2/4
#BARLINEOFF
00001112, // 1
#MEASURE 4/4
#BARLINEON
#NEWLINE
1000100012010010,
1000100112010010,
22112020,
100000000100000000200000
100000100000200000200020, // 5
#GOGOSTART
000030000000200100000000
100200000200000000100000,
1200210012010020,
1200210012020010,
1002002010002020
1010102010000000,
1200210012020010,
1200210012010020,
1200210012020010,
1001002010010020
1000000000000000, // 13
#GOGOEND
11211122,
0010010010002000,
1001002010010020
1000100020002020,
0010010010002000,
11211122,
0010010010002000,
1002002010020020
1000100020001010,
0030030030001112, // 21
1000100012010010,
1000100012010010,
2022101020002020,
3003003020202000, // 25
#GOGOSTART
1000200112010101,
2020112010404000,
1011201011201000,
1010202010212020,
1000200112010101,
2210112010404000,
1011201011201000,
1202102012102022,
7008, // 34
#GOGOEND
#NEWLINE
10010010,
01110220,
1001002010010020
1000100020002000,
12021020,
12020202,
12020202,
1002002010020020
1000100020002000,
0030300030001112, // 42
1000100012010010,
1000100112010010,
2022101020012020,
3002002020202000, // 46
#GOGOSTART
1000200112010101,
2020112010404000,
1110201011201000,
1010202010212020,
1000200112010110,
2002112010404000,
1011201011201000,
1202102012102000, // 54
#GOGOEND
1000220010002200
1020001000100010,
0010212011010210,
1000220010002200
1020001000100010,
0010212011010110,
1000220010002200
1000220010002200,
1000220010002200
1010001000201000,
1000220010002200
1000220010002200,
1000220010002200
5000000000008000, // 62
1000100010010010,
1000100010010010,
10101011,
3003003000000000,
300000000000000111200000, // 67
#GOGOSTART
#NEWLINE
1000200112010101,
2020112010404000,
1011201011201000,
1010202010212020,
#GOGOEND
1000
#GOGOSTART
200112010101,
2022112010404000,
1111201011201000,
1202101020221112, // 75
1000200012010010,
1000200012010010,
2022101020212020,
1001202011212020,
1000200112010010,
1000200112010010,
2022101020002020,
1202102011202211,
000200000200100000200000
100100200000100000200020,
#GOGOEND
030000000000, // 85
#END
COURSE:Hard
LEVEL:4
BALLOON:12
SCOREINIT:2380
SCOREDIFF:0
#START
#MEASURE 2/4
#BARLINEOFF
, // 1
#MEASURE 4/4
#BARLINEON
#NEWLINE
1000100010010010,
1000100010010010,
22112020,
1001001010101000, // 5
#GOGOSTART
1000200011010010,
1000200011010010,
1000200011010010,
20221110,
1000200011010010,
1000200011010010,
1000200011010010,
1110, // 13
#GOGOEND
11201122,
0010010010000000,
11201111,
0010010010000000,
11201122,
0010010010000000,
11201111,
0030030030000000, // 21
1000100010010010,
1000100010010010,
22112020,
3003003000000000, // 25
#GOGOSTART
1000200011010000,
11221000,
11201120,
12102120,
1000200011010000,
12121000,
11201120,
11102220,
7008, // 34
#GOGOEND
#NEWLINE
10010010,
01110000,
11201122,
1110,
1122,
0110,
11201111,
03303000, // 42
1000100010010010,
1000100010010010,
22112020,
3, // 46
#GOGOSTART
1000200011010000,
11221000,
11201120,
12102120,
1000200011010000,
10121000,
11201120,
11102220, // 54
#GOGOEND
12121010,
10101110,
12121010,
20202220,
12121212,
10101110,
12121212,
5008, // 62
1000100010010010,
1000100010010010,
10101011,
3003003000000000,
3004, // 67
#GOGOSTART
#NEWLINE
1000200011010000,
11221000,
11201120,
12102120,
#GOGOEND
1000
#GOGOSTART
200011010000,
12121000,
11201120,
11102222, // 75
1000200010010010,
1000200010010010,
22112020,
1001001020200020,
1000200010010010,
1000200010010010,
21212020,
10221210,
10101110,
#GOGOEND
030000000000, // 85
#END
COURSE:Normal
LEVEL:4
BALLOON:10
SCOREINIT:3590
SCOREDIFF:0
#START
#MEASURE 2/4
#BARLINEOFF
, // 1
#MEASURE 4/4
#BARLINEON
#NEWLINE
1110,
1110,
2220,
1001001010000000, // 5
#GOGOSTART
1120,
1110,
1120,
11101000,
1120,
1110,
1120,
11101000, // 13
#GOGOEND
1122,
0010010010000000,
1212,
0010010010000000,
1122,
0010010010000000,
1212,
0030030030000000, // 21
1110,
1110,
2220,
3003003000000000, // 25
#GOGOSTART
1122,
10111000,
1210,
1120,
1122,
10111000,
1210,
1122,
7008, // 34
#GOGOEND
#NEWLINE
10010010,
0110,
1212,
11,
1122,
0110,
1212,
0330, // 42
1110,
1110,
2220,
3, // 46
#GOGOSTART
1122,
10111000,
1210,
1120,
1122,
10111000,
1210,
1122, // 54
#GOGOEND
10101110,
1110,
10101110,
2220,
11101110,
1110,
11101110,
5008, // 62
1110,
1110,
1110,
3003003000000000,
3004, // 67
#GOGOSTART
#NEWLINE
1122,
10111000,
1210,
1120,
#GOGOEND
1
#GOGOSTART
122,
10111000,
1210,
10102220, // 75
1110,
1120,
20222020,
1110,
1110,
1120,
20222020,
1110,
1111,
#GOGOEND
030000000000, // 85
#END
COURSE:Easy
LEVEL:2
BALLOON:8
SCOREINIT:6160
SCOREDIFF:0
#START
#MEASURE 2/4
#BARLINEOFF
, // 1
#MEASURE 4/4
#BARLINEON
#NEWLINE
1,
1,
1,
1, // 5
#GOGOSTART
12,
12,
12,
1110,
12,
12,
12,
1110, // 13
#GOGOEND
12,
02,
12,
02,
12,
02,
12,
02, // 21
1110,
1110,
2220,
3, // 25
#GOGOSTART
1120,
11,
1110,
22,
1120,
11,
1110,
22,
7008, // 34
#GOGOEND
#NEWLINE
1,
,
11,
1,
1,
,
11,
1, // 42
1110,
1110,
2220,
3, // 46
#GOGOSTART
1120,
11,
1110,
22,
1120,
11,
1110,
22, // 54
#GOGOEND
5,
8,
11,
22,
1110,
11,
1110,
58, // 62
1,
1,
1,
1,
3, // 67
#GOGOSTART
#NEWLINE
1120,
11,
1110,
22,
#GOGOEND
1
#GOGOSTART
120,
11,
1110,
22, // 75
1110,
1110,
22,
11,
1110,
1110,
22,
11,
11,
#GOGOEND
030000000000, // 85
#END