Files
Tang-Customs/08 Game Music/AMATERRAS/AMATERRAS.tja
T
2025-04-15 23:02:07 +01:00

804 lines
8.3 KiB
Plaintext

TITLE:AMATERRAS
TITLEJA:AMATERRAS
SUBTITLE:--KARAKURI (CV: Akina) / Tokyo 7th Sisters
SUBTITLEJA:KARAKURI (CV:秋奈) 「Tokyo 7th シスターズ」より
BPM:124
WAVE:AMATERRAS.ogg
OFFSET:-0.206
DEMOSTART:69.883
PREIMAGE:image.png
COURSE:Oni
LEVEL:8
BALLOON:22, 22, 22
SCOREINIT:820
SCOREDIFF:0
#START
#SCROLL 0.75
2,
11,
2211,
12,
10000012,
11,
10001021,
7,
0008, // 9
#SCROLL 1
1001001000001122,
0020220202001111,
1001001000001122,
0010001000010010, // 13
1020100010210010,
1012012010010011,
1012011012011012,
1021001010010010,
1020100010210010,
1012012010010011,
1012011012012012,
00
#SCROLL 0.75
222200, // 21
#SCROLL 1
1022102010221020,
1021021020102012,
1012011012011020,
1012012010112212,
1022102010221020,
1021021020102012,
1010201020120120,
#MEASURE 1/4
#SCROLL 3
,
,
#MEASURE 2/4
#SCROLL 1
11111111, // 31
#MEASURE 3/4
100010111120,
101111112020,
112010111112,
040010101111,
120400101111,
102010111111,
112010111111,
012100111111,
#MEASURE 4/4
100000000000100000000000
100100100100101010101010, // 38
#GOGOSTART
2222202010210022,
2222102102222222,
1021002222201020,
2000200030030020,
1020101120201011,
2020101120201010,
1012011012011010,
1020102010220000, // 46
2222222010210022,
2222102102222222,
1021002222201020,
2000200030030020,
1020101120201011,
2020101120201010,
1012011012011010,
200000000000100000200000
100100100100101010101010, // 54
#GOGOEND
7,
0008,
10211020,
1022111010012010,
10221020,
10221020,
10121020,
5008, // 62
1011100010110011,
1012012010010011,
1012011012011012,
1021001010210011,
1011110010101112,
1012012010011011,
1012011012012112,
00
#SCROLL 0.75
222200, // 70
#SCROLL 1
1022120210221202,
1021021010102012,
1012011012011010,
2012012010112212,
1022120210221202,
1021021010102012,
1010201120120120,
#MEASURE 1/4
#SCROLL 3
,
,
#MEASURE 2/4
#SCROLL 1
100100100100101010101010, // 80
#MEASURE 3/4
100010101120,
101011111011,
220011111020,
101022102210,
100010111122,
102011111221,
100111111121,
102010201111,
#MEASURE 4/4
1000100010110111, // 87
#GOGOSTART
2202222010210020,
2220102102222220,
1021002222201020,
2000200030030020,
1020101121201011,
2020101121201010,
1012011012011010,
2010201020220000, // 95
2222222010210022,
2222102102222222,
1021002222201020,
2000200030030020,
1020101121201011,
2020101121201010,
1012011012011010,
200000000000200100200000
100100100100101010101010, // 103
1010200022101000,
1212101202101000,
1010200022101000,
1120201201221210,
1010200011202010,
1012012212101120,
1000201110002020,
1000201210102210,
1000202212102222,
1003003003003000,
#GOGOEND
#MEASURE 2/4
, // 114
#GOGOSTART
#MEASURE 4/4
2222202010210022,
2222102102222222,
1021002222201020,
2001202030030020,
1020101121201011,
2020101121201010,
1012011012011010,
2011201020220111, // 122
2222222010210022,
2222102102222220,
1021002222201020,
2001202030030020,
1020101121201011,
2020101121201010,
1012011012011010,
200000200200100200100000
100100100100101010101010, // 130
7,
0008,
1011210101221011,
2011221022102012,
1000201101112122,
1011201201112022,
1010201101112022,
100000100100200100100000
100100100100101010101010, // 138
#GOGOEND
1001001000001122,
0020220202001111,
1001001000001122,
0010001000010010, // 142
,
#END
COURSE:Hard
LEVEL:5
BALLOON:22, 11, 22, 11, 22
SCOREINIT:1220
SCOREDIFF:0
#START
2,
11,
2211,
12,
10000022,
11,
10001011,
7,
0008, // 9
1001001000001011,
0020020202001010,
1001001000001011,
0010001000010010, // 13
12101210,
1011001010001000,
12101212,
1011001010001000,
12101210,
1011001010001000,
1020100010201022,
, // 21
12101210,
1011001010101000,
12101122,
2022002010101000,
12101210,
1011001010101000,
1010200020222020,
#MEASURE 1/4
#SCROLL 3
,
,
#MEASURE 2/4
#SCROLL 1
1111, // 31
#MEASURE 3/4
300010102220,
101111,
222000101022,
040000101010,
220400001010,
120111,
222000101011,
011011,
#MEASURE 4/4
7008, // 38
#GOGOSTART
2020202010110020,
2020101100202020,
1011002020201020,
2000200030030020,
12102210,
12102210,
11201120,
2000201020220000, // 46
2020202010110020,
2020101100202020,
1011002020201020,
2000200030030020,
12102210,
12102210,
11201122,
2000200010101110, // 54
#GOGOEND
7,
0008,
10211020,
1000111010002010,
10221020,
10221020,
10121020,
5008, // 62
12101210,
1011001010001000,
12101212,
1011001010110010,
12101210,
1011001010001000,
1020100010201022,
, // 70
12101212,
1011001010101000,
12101122,
2022002020202000,
12101212,
1011001010101000,
1010200020222020,
#MEASURE 1/4
#SCROLL 3
,
,
#MEASURE 2/4
#SCROLL 1
1111, // 80
#MEASURE 3/4
300010102220,
101111,
220010101020,
100010101110,
100010101022,
200010101110,
101112,
100010101110,
#MEASURE 4/4
7008, // 87
#GOGOSTART
2020202010110020,
2020101100202020,
1011002020201020,
2000200030030020,
12102210,
12102210,
11201120,
2000201020220000, // 95
2020202010110020,
2020101100202020,
1011002020201020,
2000200030030020,
12102210,
12102210,
11201122,
5008, // 103
11202210,
1010102200101000,
11202210,
1010201100101000,
11201120,
1011010100001020,
1000101110002000,
1000101110002010,
10121012,
3003003003003000,
#GOGOEND
#MEASURE 2/4
, // 114
#GOGOSTART
#MEASURE 4/4
2020202010110020,
2020101100202020,
1011002020201020,
2000200030030020,
1020101110201000,
1020101110201000,
11201121,
2000201020220000, // 122
2020202010110020,
2020101100202020,
1011002022201020,
2000200030030020,
1020101110201000,
1020101110201000,
11201122,
2000200010101110, // 130
7,
0008,
1020110100201000,
21202122,
1000101100101020,
1010202200202020,
1000101100101020,
1010200010101110, // 138
#GOGOEND
1001001000001011,
0020220202001010,
1001001000001011,
0010001000010010, // 142
,
#END
COURSE:Normal
LEVEL:4
BALLOON:22, 11, 22, 11, 22
SCOREINIT:1900
SCOREDIFF:0
#START
2,
11,
2211,
12,
1002,
11,
1011,
7,
0008, // 9
1001001000001010,
0020020202000000,
1001001000001010,
0010001000010010, // 13
1111,
10222000,
1111,
1110,
1111,
10222000,
10101022,
, // 21
1122,
10111000,
1122,
10222000,
1122,
10111000,
10102220,
#MEASURE 1/4
#SCROLL 3
,
,
#MEASURE 2/4
#SCROLL 1
, // 31
#MEASURE 3/4
301022,
011,
202000001002,
040000001000,
200400001000,
220010,
220010,
111010,
#MEASURE 4/4
7008, // 38
#GOGOSTART
20201110,
20111020,
11102020,
2230,
1122,
1122,
1122,
10222000, // 46
20201110,
20111020,
11102020,
2230,
1122,
1122,
1122,
10201110, // 54
#GOGOEND
7,
0008,
1212,
10111000,
1212,
10221000,
1212,
5008, // 62
1111,
10222000,
1111,
10111000,
1122,
10222000,
10101022,
, // 70
1122,
10111000,
1122,
10222000,
1122,
10111000,
10102220,
#MEASURE 1/4
#SCROLL 3
,
,
#MEASURE 2/4
#SCROLL 1
, // 80
#MEASURE 3/4
301022,
011,
201022,
011,
101022,
201011,
001011,
011,
#MEASURE 4/4
7008, // 87
#GOGOSTART
20201110,
20111020,
11102020,
2230,
1122,
1122,
1122,
10222000, // 95
20201110,
20111020,
11102020,
2000200030030000,
1122,
1122,
11102020,
5008, // 103
1122,
10111000,
1122,
10111000,
1212,
10111000,
1122,
10111000,
1212,
3003003003003000,
#GOGOEND
#MEASURE 2/4
, // 114
#GOGOSTART
#MEASURE 4/4
20201110,
20111020,
11102020,
2000200030030030,
1122,
1122,
11102220,
10222000, // 122
20201110,
20111020,
11102020,
2000200030030030,
10102220,
10102220,
11102220,
20201111, // 130
7,
0008,
1212,
10201110,
1122,
10112020,
1212,
10111011, // 138
#GOGOEND
1001001000001010,
0020020202000000,
1001001000001010,
0010001000010010, // 142
,
#END
COURSE:Easy
LEVEL:3
BALLOON:11, 6, 6, 11, 6, 11, 6
SCOREINIT:3680
SCOREDIFF:0
#START
2,
1,
11,
1,
1001,
11,
11,
7,
0008, // 9
10010000,
0220,
10010000,
07000080, // 13
11,
1120,
11,
1,
11,
1120,
1011,
, // 21
12,
10010000,
1120,
2220,
12,
10010000,
1122,
#MEASURE 1/4
#SCROLL 3
,
,
#MEASURE 2/4
#SCROLL 1
, // 31
#MEASURE 3/4
1,
2,
1,
2,
1,
2,
1,
2,
#MEASURE 4/4
7008, // 38
#GOGOSTART
21,
21,
21,
2220,
12,
12,
1110,
2220, // 46
21,
21,
21,
2220,
12,
12,
1110,
2220, // 54
#GOGOEND
7,
0008,
12,
1110,
12,
12,
12,
5008, // 62
12,
1120,
1011,
1,
12,
1120,
1011,
, // 70
12,
1110,
12,
2220,
12,
1110,
1122,
#MEASURE 1/4
#SCROLL 3
,
,
#MEASURE 2/4
#SCROLL 1
, // 80
#MEASURE 3/4
1,
2,
1,
2,
1,
2,
1,
2,
#MEASURE 4/4
7008, // 87
#GOGOSTART
21,
21,
21,
2220,
12,
12,
1110,
2220, // 95
21,
21,
21,
2220,
12,
12,
1110,
5008, // 103
12,
1110,
12,
2220,
12,
1110,
11,
2220,
12,
6008,
#GOGOEND
#MEASURE 2/4
, // 114
#GOGOSTART
#MEASURE 4/4
21,
21,
21,
2220,
12,
12,
1110,
2220, // 122
21,
21,
21,
2220,
12,
12,
1110,
2222, // 130
7,
0008,
12,
1110,
11,
2220,
12,
1111, // 138
#GOGOEND
10010000,
0220,
10010000,
07000080, // 142
,
#END